osu file format v14

[General]
AudioFilename: audio.mp3
AudioLeadIn: 0
PreviewTime: 4108
Countdown: 1
SampleSet: None
StackLeniency: 0.7
Mode: 0
LetterboxInBreaks: 0
WidescreenStoryboard: 0

[Editor]
Bookmarks: 6257
DistanceSpacing: 0.9
BeatDivisor: 6
GridSize: 8
TimelineZoom: 1

[Metadata]
Title:Yakety Sax (Tiny Ver)
TitleUnicode:Yakety Sax (Tiny Ver)
Artist:Boots Randolph
ArtistUnicode:Boots Randolph
Creator:t3nt
Version:Chase
Source:
Tags:
BeatmapID:2161063
BeatmapSetID:1033580

[Difficulty]
HPDrainRate:2
CircleSize:4
OverallDifficulty:5
ApproachRate:8
SliderMultiplier:1.4
SliderTickRate:1

[Events]
//Background and Video events
0,0,"sax.jpeg",0,0
//Break Periods
//Storyboard Layer 0 (Background)
//Storyboard Layer 1 (Fail)
//Storyboard Layer 2 (Pass)
//Storyboard Layer 3 (Foreground)
//Storyboard Layer 4 (Overlay)
//Storyboard Sound Samples

[TimingPoints]
4108.91695381727,247.933884297521,4,3,0,100,1,0

[HitObjects]
119,166,4108,6,0,P|171:150|180:180,1,93.3333333333333
241,237,4398,2,0,P|307:256|323:221,1,116.666666666667
84,73,4728,1,0,0:0:0:0:
394,297,4852,1,0,0:0:0:0:
362,33,4976,1,0,0:0:0:0:
135,317,5100,1,0,0:0:0:0:
442,189,5224,1,0,0:0:0:0:
90,196,5348,1,0,0:0:0:0:
427,339,5472,1,8,0:0:0:0:
216,88,5596,1,8,0:0:0:0:
102,274,5720,1,0,0:0:0:0:
411,237,5844,1,0,0:0:0:0:
195,108,5968,1,0,0:0:0:0:
99,207,6092,6,0,L|209:203,1,70
187,233,6257,5,0,0:0:0:0:
218,231,6298,1,0,0:0:0:0:
236,242,6340,1,0,0:0:0:0:
246,257,6381,1,0,0:0:0:0:
262,272,6422,1,2,0:0:0:0:
283,277,6464,1,0,0:0:0:0:
321,253,6546,6,0,L|303:219,1,23.3333333333333
355,228,6670,2,0,L|336:205,1,23.3333333333333
137,170,6753,2,0,L|171:187,1,23.3333333333333
156,154,6836,2,0,L|177:166,1,23.3333333333333
326,202,6918,5,0,0:0:0:0:
8,265,7001,6,0,P|68:243|88:275,1,93.3333333333333
157,96,7332,1,0,0:0:0:0:
421,303,7456,1,0,0:0:0:0:
379,71,7579,1,0,0:0:0:0:
148,329,7703,1,0,0:0:0:0:
430,229,7827,1,0,0:0:0:0:
114,217,7951,1,0,0:0:0:0:
435,141,8075,1,0,0:0:0:0:
485,319,8199,5,0,0:0:0:0:
61,227,8323,1,0,0:0:0:0:
493,232,8447,1,0,0:0:0:0:
63,135,8571,1,0,0:0:0:0:
4,11,8695,5,0,0:0:0:0:
360,223,8819,1,8,0:0:0:0:
0,82,8943,1,0,0:0:0:0:
422,278,9067,1,8,0:0:0:0:
119,315,9191,5,0,0:0:0:0:
239,91,9315,1,0,0:0:0:0:
355,344,9439,1,0,0:0:0:0:
114,187,9563,1,0,0:0:0:0:
385,105,9687,5,0,0:0:0:0:
401,103,9728,1,0,0:0:0:0:
415,101,9770,1,0,0:0:0:0:
81,333,9935,5,0,0:0:0:0:
236,66,10059,1,0,0:0:0:0:
333,313,10183,1,8,0:0:0:0:
40,180,10307,1,0,0:0:0:0:
506,162,10431,1,0,0:0:0:0:
154,185,10555,2,0,P|244:141|289:201,1,140
130,287,11298,5,0,0:0:0:0:
232,80,11422,1,0,0:0:0:0:
338,323,11546,1,0,0:0:0:0:
141,131,11670,5,0,0:0:0:0:
421,194,11794,1,0,0:0:0:0:
130,189,11918,1,0,0:0:0:0:
75,59,12042,5,0,0:0:0:0:
506,197,12166,1,8,0:0:0:0:
90,253,12290,1,0,0:0:0:0:
468,42,12414,5,0,0:0:0:0:
106,157,12538,1,0,0:0:0:0:
473,242,12662,1,0,0:0:0:0:
49,33,12786,5,0,0:0:0:0:
175,322,12910,1,0,0:0:0:0:
289,56,13034,1,0,0:0:0:0:
394,298,13158,5,8,0:0:0:0:
180,26,13282,1,0,0:0:0:0:
76,303,13406,1,0,0:0:0:0:
443,117,13530,5,0,0:0:0:0:
148,290,13654,1,0,0:0:0:0:
489,376,13778,1,0,0:0:0:0:
34,124,13902,5,0,0:0:0:0:
68,118,13943,1,0,0:0:0:0:
85,127,13984,1,0,0:0:0:0:
91,148,14026,1,0,0:0:0:0:
100,173,14067,1,0,0:0:0:0:
118,193,14108,1,0,0:0:0:0:
176,253,14150,5,0,0:0:0:0:
196,244,14191,1,0,0:0:0:0:
216,235,14232,1,0,0:0:0:0:
281,277,14315,5,0,0:0:0:0:
296,268,14356,1,0,0:0:0:0:
311,259,14398,1,0,0:0:0:0:
443,222,14522,5,0,0:0:0:0:
428,214,14563,1,0,0:0:0:0:
407,202,14604,1,0,0:0:0:0:
256,182,14687,5,0,0:0:0:0:
236,170,14728,1,0,0:0:0:0:
213,157,14770,1,0,0:0:0:0:
39,137,14852,2,0,P|98:119|98:200,1,163.333333333333
446,56,15265,5,0,0:0:0:0:
338,313,15389,1,0,0:0:0:0:
32,126,15513,1,0,0:0:0:0:
388,101,15637,1,0,0:0:0:0:
167,327,15761,1,0,0:0:0:0:
111,53,15885,5,0,0:0:0:0:
449,131,16009,1,0,0:0:0:0:
74,107,16133,1,0,0:0:0:0:
485,174,16257,1,0,0:0:0:0:
23,149,16381,1,0,0:0:0:0:
206,194,16505,6,0,P|312:191|290:317,1,210
172,78,17001,5,0,0:0:0:0:
157,308,17125,1,0,0:0:0:0:
427,144,17249,1,0,0:0:0:0:
44,88,17373,1,0,0:0:0:0:
110,272,17497,5,0,0:0:0:0:
121,260,17538,1,0,0:0:0:0:
130,248,17579,1,0,0:0:0:0:
136,236,17621,1,0,0:0:0:0:
239,225,17662,5,0,0:0:0:0:
243,210,17703,1,0,0:0:0:0:
240,202,17745,1,0,0:0:0:0:
229,197,17786,1,0,0:0:0:0:
149,193,17869,5,0,0:0:0:0:
134,176,17910,1,0,0:0:0:0:
134,158,17951,1,0,0:0:0:0:
145,143,17993,1,0,0:0:0:0:
168,135,18034,1,0,0:0:0:0:
191,138,18075,1,0,0:0:0:0:
212,147,18116,1,0,0:0:0:0:
220,164,18157,1,0,0:0:0:0:
220,182,18199,1,0,0:0:0:0:
81,243,18241,5,0,0:0:0:0:
220,307,18365,5,0,0:0:0:0:
248,307,18406,1,0,0:0:0:0:
277,308,18447,1,0,0:0:0:0:
256,192,18489,12,0,19150,0:0:0:0:
