osu file format v14

[General]
AudioFilename: audio.mp3
AudioLeadIn: 0
PreviewTime: 66886
Countdown: 0
SampleSet: Normal
StackLeniency: 0.7
Mode: 1
LetterboxInBreaks: 0
WidescreenStoryboard: 0

[Editor]
Bookmarks: 8761,16034,23307,30579,37852,45125,52398,59670,63307,74216,88761,92398,103307
DistanceSpacing: 1.1
BeatDivisor: 4
GridSize: 32
TimelineZoom: 1.7

[Metadata]
Title:Warzone
TitleUnicode:Warzone
Artist:Boom Kitty
ArtistUnicode:Boom Kitty
Creator:Jaltzu
Version:Muzukashii
Source:
Tags:electronic dance music edm electro house instrumental old school kitty vol. 3 ep phat bass featured artist fa
BeatmapID:4050084
BeatmapSetID:1881232

[Difficulty]
HPDrainRate:8
CircleSize:2
OverallDifficulty:5
ApproachRate:10
SliderMultiplier:1.4
SliderTickRate:1

[Events]
//Background and Video events
0,0,"bg.jpg",0,-35
//Break Periods
//Storyboard Layer 0 (Background)
//Storyboard Layer 1 (Fail)
//Storyboard Layer 2 (Pass)
//Storyboard Layer 3 (Foreground)
//Storyboard Layer 4 (Overlay)
//Storyboard Sound Samples

[TimingPoints]
1555,454.545454545455,4,1,0,70,1,0
15077,-100,4,1,0,74,0,0
15248,-99.3788819875776,4,1,0,76,0,0
15361,-97.5609756097561,4,1,0,78,0,0
15475,-98.159509202454,4,1,0,80,0,0
15589,-97.5609756097561,4,1,0,82,0,0
15702,-96.969696969697,4,1,0,84,0,0
15816,-96.3855421686747,4,1,0,86,0,0
15930,-95.8083832335329,4,1,0,88,0,0
16043,-95.2380952380952,4,1,0,90,0,0
16214,-95.2380952380952,4,1,0,75,0,0
17066,-95.2380952380952,4,1,0,76,0,0
17407,-95.2380952380952,4,1,0,77,0,0
17861,-95.2380952380952,4,1,0,78,0,0
18430,-95.2380952380952,4,1,0,79,0,0
18884,-95.2380952380952,4,1,0,80,0,0
19225,-95.2380952380952,4,1,0,81,0,0
19680,-95.2380952380952,4,1,0,82,0,0
20248,-95.2380952380952,4,1,0,83,0,0
20702,-95.2380952380952,4,1,0,84,0,0
21043,-95.2380952380952,4,1,0,85,0,0
21498,-95.2380952380952,4,1,0,86,0,0
21952,-95.2380952380952,4,1,0,87,0,0
22407,-94.3396226415094,4,1,0,88,0,0
22634,-93.4579439252336,4,1,0,88,0,0
22861,-92.5925925925926,4,1,0,89,0,0
22975,-92.1658986175115,4,1,0,89,0,0
23089,-91.743119266055,4,1,0,89,0,0
23316,-90.9090909090909,4,1,0,90,0,0
29708,-87.719298245614,4,1,0,90,0,0
29793,-88.1057268722467,4,1,0,90,0,0
29907,-88.4955752212389,4,1,0,90,0,0
30020,-88.8888888888889,4,1,0,90,0,0
30134,-89.2857142857143,4,1,0,90,0,0
30248,-89.6860986547085,4,1,0,90,0,0
30361,-90.0900900900901,4,1,0,90,0,0
30475,-90.4977375565611,4,1,0,90,0,0
30589,-90.9090909090909,4,1,0,90,0,0
36043,-86.9565217391304,4,1,0,90,0,0
36895,-90.9090909090909,4,1,0,80,0,0
37293,-94.1176470588235,4,1,0,80,0,0
37634,-97.5609756097561,4,1,0,80,0,0
37861,-100,4,1,0,80,0,0
38259,-100,4,1,0,70,0,0
45077,-100,4,1,0,60,0,0
51441,-95.2380952380952,4,1,0,90,0,0
52066,-96.3855421686747,4,1,0,90,0,0
52180,-97.5609756097561,4,1,0,90,0,0
52293,-97.5609756097561,4,1,0,90,0,0
52407,-100,4,1,0,80,0,0
58770,-100,4,1,0,81,0,0
58884,-100,4,1,0,81,0,0
58998,-100,4,1,0,81,0,0
59111,-100,4,1,0,81,0,0
59225,-100,4,1,0,82,0,0
59680,-100,4,1,0,83,0,0
60020,-98.5221674876847,4,1,0,83,0,0
60134,-98.0392156862745,4,1,0,84,0,0
60475,-96.6183574879227,4,1,0,84,0,0
60702,-95.6937799043062,4,1,0,85,0,0
60816,-95.2380952380952,4,1,0,85,0,0
61043,-94.3396226415094,4,1,0,86,0,0
61498,-92.5925925925926,4,1,0,87,0,0
61839,-91.324200913242,4,1,0,87,0,0
61952,-90.9090909090909,4,1,0,88,0,0
62293,-89.6860986547085,4,1,0,88,0,0
62520,-88.8888888888889,4,1,0,89,0,0
62634,-88.4955752212389,4,1,0,89,0,0
62861,-87.719298245614,4,1,0,90,0,0
63259,-95.2380952380952,4,1,0,70,0,0
65077,-100,4,1,0,70,0,0
66782,-76.9230769230769,4,1,0,100,0,0
67009,-76.9230769230769,4,1,0,100,0,1
67236,-83.3333333333333,4,1,0,100,0,1
73202,-76.9230769230769,4,1,0,100,0,1
73770,-78.945290913397,4,1,0,100,0,1
73998,-81.0832725208789,4,1,0,100,0,1
74225,-83.3333333333333,4,1,0,100,0,1
79736,-83.3333333333333,4,1,0,100,0,0
79907,-84.7457627118644,4,1,0,100,0,0
80134,-86.2068965517241,4,1,0,100,0,0
80248,-86.9565217391304,4,1,0,100,0,0
80361,-87.719298245614,4,1,0,100,0,0
80475,-88.4955752212389,4,1,0,100,0,0
81043,-86.9565217391304,4,1,0,100,0,0
81157,-85.1063829787234,4,1,0,100,0,0
81270,-83.3333333333333,4,1,0,100,0,0
81498,-76.9230769230769,4,1,0,100,0,0
81555,-76.9230769230769,4,1,0,100,0,1
81952,-83.3333333333333,4,1,0,100,0,1
84907,-76.9230769230769,4,1,0,100,0,1
85532,-83.3333333333333,4,1,0,100,0,1
88543,-76.9230769230769,4,1,0,100,0,1
89225,-83.3333333333333,4,1,0,100,0,1
95134,-83.3333333333333,4,1,0,90,0,1
95191,-83.3333333333333,4,1,0,90,0,0
95248,-82.9875518672199,4,1,0,90,0,0
95361,-82.3045267489712,4,1,0,90,0,0
95475,-81.3008130081301,4,1,0,90,0,0
95589,-80,4,1,0,90,0,0
95816,-76.9230769230769,4,1,0,100,0,0
96100,-76.9230769230769,4,1,0,100,0,1
96498,-83.3333333333333,4,1,0,100,0,1
103145,-76.9230769230769,4,1,0,100,0,1
103486,-83.3333333333333,4,1,0,100,0,1
108714,-76.9230769230769,4,1,0,100,0,0
108770,-76.9230769230769,4,1,0,80,0,0
108941,-86.9565217391304,4,1,0,80,0,0
110361,-88.8888888888889,4,1,0,80,0,0
110589,-90.9090909090909,4,1,0,90,0,0

[HitObjects]
256,192,8827,5,12,0:0:0:0:
256,192,9168,1,0,0:0:0:0:
256,192,9509,1,0,0:0:0:0:
256,192,10191,1,8,0:0:0:0:
256,192,10418,1,8,0:0:0:0:
256,192,10645,1,0,0:0:0:0:
256,192,10986,1,8,0:0:0:0:
256,192,11327,1,0,0:0:0:0:
256,192,12009,1,0,0:0:0:0:
256,192,12236,1,8,0:0:0:0:
256,192,12464,1,8,0:0:0:0:
256,192,12805,1,0,0:0:0:0:
256,192,13145,1,0,0:0:0:0:
256,192,13827,1,0,0:0:0:0:
256,192,14055,1,8,0:0:0:0:
256,192,14282,1,0,0:0:0:0:
256,192,14623,1,8,0:0:0:0:
256,192,14964,1,0,0:0:0:0:
256,192,15191,1,0,0:0:0:0:
256,192,15418,1,8,0:0:0:0:
256,192,15532,1,8,0:0:0:0:
256,192,15645,1,8,0:0:0:0:
256,192,15873,1,8,0:0:0:0:
256,192,16100,5,0,0:0:0:0:
256,192,16441,1,8,0:0:0:0:
256,192,16782,1,0,0:0:0:0:
256,192,17464,1,0,0:0:0:0:
256,192,17691,1,8,0:0:0:0:
256,192,17918,1,0,0:0:0:0:
256,192,18259,1,8,0:0:0:0:
256,192,18600,1,8,0:0:0:0:
256,192,19282,1,8,0:0:0:0:
256,192,19509,1,8,0:0:0:0:
256,192,19736,1,0,0:0:0:0:
256,192,20077,1,0,0:0:0:0:
256,192,20418,1,8,0:0:0:0:
256,192,21100,1,0,0:0:0:0:
256,192,21327,1,8,0:0:0:0:
256,192,21555,1,8,0:0:0:0:
256,192,21895,1,0,0:0:0:0:
256,192,22236,1,8,0:0:0:0:
256,192,22464,1,0,0:0:0:0:
256,192,22691,1,8,0:0:0:0:
256,192,22918,1,8,0:0:0:0:
256,192,23032,1,8,0:0:0:0:
256,192,23145,1,8,0:0:0:0:
256,192,23373,5,4,0:0:0:0:
256,192,24055,1,8,0:0:0:0:
256,192,24395,1,0,0:0:0:0:
256,192,24509,1,8,0:0:0:0:
256,192,24736,1,8,0:0:0:0:
256,192,24964,1,0,0:0:0:0:
256,192,25191,1,8,0:0:0:0:
256,192,25532,1,0,0:0:0:0:
256,192,25873,1,8,0:0:0:0:
256,192,26327,1,8,0:0:0:0:
256,192,26441,1,8,0:0:0:0:
256,192,26555,1,8,0:0:0:0:
256,192,26782,1,8,0:0:0:0:
256,192,27009,1,0,0:0:0:0:
256,192,27691,1,8,0:0:0:0:
256,192,28032,1,0,0:0:0:0:
256,192,28145,1,0,0:0:0:0:
256,192,28373,1,8,0:0:0:0:
256,192,28600,1,8,0:0:0:0:
256,192,28827,1,0,0:0:0:0:
256,192,29168,1,8,0:0:0:0:
256,192,29509,1,8,0:0:0:0:
256,192,29736,1,8,0:0:0:0:
256,192,29850,1,8,0:0:0:0:
256,192,29964,1,8,0:0:0:0:
256,192,30191,1,0,0:0:0:0:
256,192,30418,1,8,0:0:0:0:
256,192,30645,5,4,0:0:0:0:
256,192,31327,1,8,0:0:0:0:
256,192,31668,1,0,0:0:0:0:
256,192,31782,1,8,0:0:0:0:
256,192,32009,1,0,0:0:0:0:
256,192,32236,1,8,0:0:0:0:
256,192,32464,1,0,0:0:0:0:
256,192,32805,1,8,0:0:0:0:
256,192,33145,1,8,0:0:0:0:
256,192,33600,1,0,0:0:0:0:
256,192,33714,1,0,0:0:0:0:
256,192,33827,1,0,0:0:0:0:
256,192,34055,1,8,0:0:0:0:
256,192,34282,1,8,0:0:0:0:
256,192,34509,1,0,0:0:0:0:
256,192,34623,1,0,0:0:0:0:
256,192,34736,1,0,0:0:0:0:
256,192,34964,1,8,0:0:0:0:
256,192,35191,1,0,0:0:0:0:
256,192,35305,1,0,0:0:0:0:
256,192,35418,1,0,0:0:0:0:
256,192,35645,1,8,0:0:0:0:
256,192,35873,1,0,0:0:0:0:
256,192,36100,1,12,0:0:0:0:
256,192,36441,1,12,0:0:0:0:
256,192,36782,1,12,0:0:0:0:
256,192,37009,1,0,0:0:0:0:
256,192,37350,1,0,0:0:0:0:
256,192,37691,1,8,0:0:0:0:
256,192,37918,5,4,0:0:0:0:
256,192,38600,1,8,0:0:0:0:
256,192,38827,1,0,0:0:0:0:
256,192,39282,1,8,0:0:0:0:
256,192,39736,1,8,0:0:0:0:
256,192,40418,1,8,0:0:0:0:
256,192,40645,1,0,0:0:0:0:
256,192,41100,1,8,0:0:0:0:
256,192,41555,1,8,0:0:0:0:
256,192,42236,1,8,0:0:0:0:
256,192,42464,1,0,0:0:0:0:
256,192,42918,1,8,0:0:0:0:
256,192,43373,1,8,0:0:0:0:
256,192,44055,1,8,0:0:0:0:
256,192,44282,1,0,0:0:0:0:
256,192,44736,1,8,0:0:0:0:
256,192,45191,12,8,49736,0:0:0:0:
256,192,50191,5,0,0:0:0:0:
256,192,50645,1,0,0:0:0:0:
256,192,51100,1,0,0:0:0:0:
256,192,51555,1,8,0:0:0:0:
256,192,52009,1,8,0:0:0:0:
256,192,52123,1,8,0:0:0:0:
256,192,52236,1,8,0:0:0:0:
256,192,52464,1,4,0:0:0:0:
256,192,53145,1,0,0:0:0:0:
256,192,53486,1,8,0:0:0:0:
256,192,53827,1,8,0:0:0:0:
256,192,54055,1,0,0:0:0:0:
256,192,54282,1,8,0:0:0:0:
256,192,54623,1,0,0:0:0:0:
256,192,54964,1,0,0:0:0:0:
256,192,55077,1,0,0:0:0:0:
256,192,55305,1,8,0:0:0:0:
256,192,55645,1,8,0:0:0:0:
256,192,55873,1,8,0:0:0:0:
256,192,56100,1,0,0:0:0:0:
256,192,56782,1,8,0:0:0:0:
256,192,57123,1,0,0:0:0:0:
256,192,57350,1,8,0:0:0:0:
256,192,57464,1,8,0:0:0:0:
256,192,57918,1,0,0:0:0:0:
256,192,58259,1,0,0:0:0:0:
256,192,58600,1,0,0:0:0:0:
256,192,58714,1,0,0:0:0:0:
256,192,59055,1,8,0:0:0:0:
256,192,59282,1,8,0:0:0:0:
256,192,59736,1,0,0:0:0:0:
256,192,60077,1,0,0:0:0:0:
256,192,60191,1,8,0:0:0:0:
256,192,60532,1,0,0:0:0:0:
256,192,60873,1,0,0:0:0:0:
256,192,61100,1,8,0:0:0:0:
256,192,61555,1,0,0:0:0:0:
256,192,61895,1,8,0:0:0:0:
256,192,62009,1,8,0:0:0:0:
256,192,62350,1,8,0:0:0:0:
256,192,62691,1,0,0:0:0:0:
256,192,62918,1,8,0:0:0:0:
256,192,63373,12,8,64736,0:0:0:0:
256,192,65191,5,8,0:0:0:0:
256,192,65570,1,8,0:0:0:0:
256,192,66100,1,8,0:0:0:0:
256,192,66479,1,8,0:0:0:0:
256,192,67009,5,4,0:0:0:0:
256,192,67464,1,8,0:0:0:0:
256,192,67577,1,8,0:0:0:0:
256,192,67691,1,8,0:0:0:0:
256,192,68145,1,0,0:0:0:0:
256,192,68373,1,8,0:0:0:0:
256,192,68827,1,0,0:0:0:0:
256,192,69282,1,8,0:0:0:0:
256,192,69509,1,0,0:0:0:0:
256,192,69623,1,0,0:0:0:0:
256,192,69964,1,0,0:0:0:0:
256,192,70191,1,8,0:0:0:0:
256,192,70418,1,0,0:0:0:0:
256,192,70532,1,0,0:0:0:0:
256,192,70645,1,0,0:0:0:0:
256,192,71100,1,8,0:0:0:0:
256,192,71327,1,8,0:0:0:0:
256,192,71441,1,8,0:0:0:0:
256,192,71668,1,8,0:0:0:0:
256,192,71782,1,0,0:0:0:0:
256,192,72009,1,8,0:0:0:0:
256,192,72464,1,0,0:0:0:0:
256,192,72691,1,0,0:0:0:0:
256,192,72918,1,8,0:0:0:0:
256,192,73259,1,12,0:0:0:0:
256,192,73600,1,12,0:0:0:0:
256,192,73827,1,8,0:0:0:0:
256,192,74055,1,0,0:0:0:0:
256,192,74282,5,4,0:0:0:0:
256,192,74736,1,8,0:0:0:0:
256,192,74964,1,0,0:0:0:0:
256,192,75077,1,8,0:0:0:0:
256,192,75305,1,8,0:0:0:0:
256,192,75418,1,0,0:0:0:0:
256,192,75645,1,8,0:0:0:0:
256,192,76100,1,0,0:0:0:0:
256,192,76555,1,8,0:0:0:0:
256,192,76782,1,0,0:0:0:0:
256,192,76895,1,0,0:0:0:0:
256,192,77236,1,0,0:0:0:0:
256,192,77464,1,8,0:0:0:0:
256,192,77691,1,0,0:0:0:0:
256,192,77805,1,0,0:0:0:0:
256,192,77918,1,0,0:0:0:0:
256,192,78373,1,0,0:0:0:0:
256,192,78600,1,8,0:0:0:0:
256,192,78714,1,8,0:0:0:0:
256,192,78827,1,8,0:0:0:0:
256,192,79055,1,0,0:0:0:0:
256,192,79282,1,8,0:0:0:0:
256,192,79736,1,0,0:0:0:0:
256,192,79964,1,8,0:0:0:0:
256,192,80191,1,8,0:0:0:0:
256,192,80532,1,0,0:0:0:0:
256,192,81100,1,8,0:0:0:0:
256,192,81214,1,8,0:0:0:0:
256,192,81327,1,8,0:0:0:0:
256,192,81555,1,4,0:0:0:0:
256,192,82009,5,8,0:0:0:0:
256,192,82123,1,8,0:0:0:0:
256,192,82236,1,8,0:0:0:0:
256,192,82464,1,8,0:0:0:0:
256,192,82691,1,0,0:0:0:0:
256,192,82918,1,8,0:0:0:0:
256,192,83259,1,0,0:0:0:0:
256,192,83486,1,8,0:0:0:0:
256,192,83600,1,0,0:0:0:0:
256,192,83827,1,8,0:0:0:0:
256,192,84055,1,0,0:0:0:0:
256,192,84168,1,0,0:0:0:0:
256,192,84395,1,8,0:0:0:0:
256,192,84623,1,0,0:0:0:0:
256,192,84736,1,8,0:0:0:0:
256,192,84964,1,4,0:0:0:0:
256,192,85191,1,4,0:0:0:0:
256,192,85418,1,4,0:0:0:0:
256,192,85645,1,8,0:0:0:0:
256,192,85986,1,8,0:0:0:0:
256,192,86214,1,8,0:0:0:0:
256,192,86327,1,0,0:0:0:0:
256,192,86555,1,8,0:0:0:0:
256,192,86895,1,8,0:0:0:0:
256,192,87123,1,0,0:0:0:0:
256,192,87236,1,0,0:0:0:0:
256,192,87464,1,8,0:0:0:0:
256,192,87577,1,8,0:0:0:0:
256,192,87918,1,8,0:0:0:0:
256,192,88145,1,8,0:0:0:0:
256,192,88259,1,8,0:0:0:0:
256,192,88373,1,8,0:0:0:0:
256,192,88600,1,4,0:0:0:0:
256,192,88827,1,4,0:0:0:0:
256,192,89282,5,8,0:0:0:0:
256,192,89395,1,8,0:0:0:0:
256,192,89509,1,8,0:0:0:0:
256,192,89736,1,8,0:0:0:0:
256,192,89964,1,0,0:0:0:0:
256,192,90191,1,8,0:0:0:0:
256,192,90532,1,0,0:0:0:0:
256,192,90759,1,8,0:0:0:0:
256,192,90873,1,0,0:0:0:0:
256,192,91100,1,8,0:0:0:0:
256,192,91327,1,0,0:0:0:0:
256,192,91441,1,0,0:0:0:0:
256,192,91668,1,8,0:0:0:0:
256,192,91895,1,0,0:0:0:0:
256,192,92009,1,8,0:0:0:0:
256,192,92236,1,0,0:0:0:0:
256,192,92464,1,0,0:0:0:0:
256,192,92691,1,0,0:0:0:0:
256,192,92918,1,8,0:0:0:0:
256,192,93259,1,8,0:0:0:0:
256,192,93486,1,8,0:0:0:0:
256,192,93600,1,0,0:0:0:0:
256,192,93827,1,8,0:0:0:0:
256,192,94168,1,8,0:0:0:0:
256,192,94395,1,0,0:0:0:0:
256,192,94509,1,0,0:0:0:0:
256,192,94736,1,8,0:0:0:0:
256,192,94850,1,8,0:0:0:0:
256,192,94964,1,8,0:0:0:0:
256,192,95191,1,0,0:0:0:0:
256,192,95305,1,0,0:0:0:0:
256,192,95418,1,0,0:0:0:0:
256,192,95645,1,8,0:0:0:0:
256,192,95873,1,4,0:0:0:0:
256,192,96100,5,4,0:0:0:0:
256,192,96555,1,8,0:0:0:0:
256,192,96782,1,0,0:0:0:0:
256,192,96895,1,0,0:0:0:0:
256,192,97123,1,8,0:0:0:0:
256,192,97350,1,0,0:0:0:0:
256,192,97464,1,8,0:0:0:0:
256,192,97805,1,0,0:0:0:0:
256,192,98032,1,8,0:0:0:0:
256,192,98259,1,0,0:0:0:0:
256,192,98373,1,8,0:0:0:0:
256,192,98600,1,0,0:0:0:0:
256,192,98714,1,0,0:0:0:0:
256,192,98941,1,8,0:0:0:0:
256,192,99168,1,0,0:0:0:0:
256,192,99282,1,8,0:0:0:0:
256,192,99509,1,8,0:0:0:0:
256,192,99623,1,0,0:0:0:0:
256,192,100191,1,8,0:0:0:0:
256,192,100418,1,0,0:0:0:0:
256,192,100532,1,0,0:0:0:0:
256,192,100759,1,8,0:0:0:0:
256,192,100986,1,0,0:0:0:0:
256,192,101100,1,8,0:0:0:0:
256,192,101441,1,0,0:0:0:0:
256,192,101668,1,8,0:0:0:0:
256,192,101895,1,0,0:0:0:0:
256,192,102009,1,8,0:0:0:0:
256,192,102236,1,8,0:0:0:0:
256,192,102350,1,8,0:0:0:0:
256,192,102577,1,8,0:0:0:0:
256,192,102805,1,0,0:0:0:0:
256,192,102918,1,8,0:0:0:0:
256,192,103259,5,4,0:0:0:0:
256,192,103827,1,8,0:0:0:0:
256,192,104054,1,0,0:0:0:0:
256,192,104168,1,0,0:0:0:0:
256,192,104395,1,8,0:0:0:0:
256,192,104623,1,0,0:0:0:0:
256,192,104736,1,8,0:0:0:0:
256,192,105077,1,0,0:0:0:0:
256,192,105305,1,8,0:0:0:0:
256,192,105532,1,0,0:0:0:0:
256,192,105645,1,8,0:0:0:0:
256,192,105873,1,0,0:0:0:0:
256,192,105986,1,0,0:0:0:0:
256,192,106214,1,8,0:0:0:0:
256,192,106441,1,0,0:0:0:0:
256,192,106555,1,8,0:0:0:0:
256,192,106782,1,8,0:0:0:0:
256,192,106895,1,0,0:0:0:0:
256,192,107236,1,0,0:0:0:0:
256,192,107464,1,8,0:0:0:0:
256,192,107691,1,8,0:0:0:0:
256,192,107805,1,0,0:0:0:0:
256,192,108032,1,8,0:0:0:0:
256,192,108259,1,0,0:0:0:0:
256,192,108373,1,8,0:0:0:0:
256,192,108714,1,12,0:0:0:0:
256,192,110191,1,0,0:0:0:0:
256,192,110418,1,0,0:0:0:0:
256,192,110645,1,12,0:0:0:0:
