osu file format v14

[General]
AudioFilename: audio.mp3
AudioLeadIn: 0
PreviewTime: 66886
Countdown: 0
SampleSet: Normal
StackLeniency: 0.7
Mode: 1
LetterboxInBreaks: 0
WidescreenStoryboard: 0

[Editor]
Bookmarks: 8761,16034,23307,30579,37852,45125,52398,59670,63307,74216,88761,103307
DistanceSpacing: 1.1
BeatDivisor: 4
GridSize: 32
TimelineZoom: 0.8999999

[Metadata]
Title:Warzone
TitleUnicode:Warzone
Artist:Boom Kitty
ArtistUnicode:Boom Kitty
Creator:Jaltzu
Version:Futsuu
Source:
Tags:electronic dance music edm electro house instrumental old school kitty vol. 3 ep phat bass featured artist fa
BeatmapID:3874145
BeatmapSetID:1881232

[Difficulty]
HPDrainRate:8.5
CircleSize:2
OverallDifficulty:4
ApproachRate:10
SliderMultiplier:1.4
SliderTickRate:1

[Events]
//Background and Video events
0,0,"bg.jpg",0,-35
//Break Periods
//Storyboard Layer 0 (Background)
//Storyboard Layer 1 (Fail)
//Storyboard Layer 2 (Pass)
//Storyboard Layer 3 (Foreground)
//Storyboard Layer 4 (Overlay)
//Storyboard Sound Samples

[TimingPoints]
1555,454.545454545455,4,1,0,70,1,0
15077,-100,4,1,0,74,0,0
15248,-100,4,1,0,76,0,0
15361,-100,4,1,0,78,0,0
15475,-100,4,1,0,80,0,0
15589,-100,4,1,0,82,0,0
15702,-100,4,1,0,84,0,0
15816,-100,4,1,0,86,0,0
15930,-100,4,1,0,88,0,0
16043,-100,4,1,0,90,0,0
16214,-100,4,1,0,75,0,0
17066,-100,4,1,0,76,0,0
17407,-100,4,1,0,77,0,0
17861,-100,4,1,0,78,0,0
18430,-100,4,1,0,79,0,0
18884,-100,4,1,0,80,0,0
19225,-100,4,1,0,81,0,0
19452,-100,4,1,0,81,0,0
19680,-100,4,1,0,82,0,0
20248,-100,4,1,0,83,0,0
20702,-100,4,1,0,84,0,0
21043,-100,4,1,0,85,0,0
21498,-100,4,1,0,86,0,0
21952,-100,4,1,0,87,0,0
22407,-100,4,1,0,88,0,0
22861,-100,4,1,0,89,0,0
23316,-100,4,1,0,90,0,0
36895,-100,4,1,0,80,0,0
38259,-100,4,1,0,70,0,0
45077,-100,4,1,0,60,0,0
50532,-100,4,1,0,65,0,0
50986,-100,4,1,0,70,0,0
51441,-100,4,1,0,90,0,0
52407,-100,4,1,0,80,0,0
58430,-100,4,1,0,80,0,0
58543,-100,4,1,0,80,0,0
58657,-100,4,1,0,80,0,0
58770,-100,4,1,0,81,0,0
59225,-100,4,1,0,82,0,0
59680,-100,4,1,0,83,0,0
60134,-100,4,1,0,84,0,0
60589,-100,4,1,0,85,0,0
61043,-100,4,1,0,86,0,0
61498,-100,4,1,0,87,0,0
61952,-100,4,1,0,88,0,0
62407,-100,4,1,0,89,0,0
62861,-100,4,1,0,90,0,0
63259,-100,4,1,0,70,0,0
66782,-100,4,1,0,100,0,0
67009,-100,4,1,0,100,0,1
79736,-100,4,1,0,100,0,0
81555,-100,4,1,0,100,0,1
95134,-100,4,1,0,90,0,1
95191,-100,4,1,0,90,0,0
95816,-100,4,1,0,100,0,0
96100,-100,4,1,0,100,0,1
108714,-100,4,1,0,100,0,0
108770,-100,4,1,0,80,0,0
110589,-100,4,1,0,90,0,0

[HitObjects]
256,192,8827,5,12,0:0:0:0:
256,192,9509,1,0,0:0:0:0:
256,192,10191,1,8,0:0:0:0:
256,192,10645,1,0,0:0:0:0:
256,192,11327,1,8,0:0:0:0:
256,192,12009,1,8,0:0:0:0:
256,192,12464,1,0,0:0:0:0:
256,192,13145,1,0,0:0:0:0:
256,192,13827,1,8,0:0:0:0:
256,192,14282,1,8,0:0:0:0:
256,192,14964,1,0,0:0:0:0:
256,192,15418,1,8,0:0:0:0:
256,192,15645,1,8,0:0:0:0:
256,192,15873,1,8,0:0:0:0:
256,192,16100,5,0,0:0:0:0:
256,192,16782,1,0,0:0:0:0:
256,192,17464,1,8,0:0:0:0:
256,192,17691,1,8,0:0:0:0:
256,192,17918,1,0,0:0:0:0:
256,192,18600,1,8,0:0:0:0:
256,192,19282,1,0,0:0:0:0:
256,192,19509,1,8,0:0:0:0:
256,192,19736,1,0,0:0:0:0:
256,192,20418,1,8,0:0:0:0:
256,192,21100,1,8,0:0:0:0:
256,192,21327,1,8,0:0:0:0:
256,192,21555,1,0,0:0:0:0:
256,192,22236,1,0,0:0:0:0:
256,192,22691,1,0,0:0:0:0:
256,192,22918,1,8,0:0:0:0:
256,192,23145,1,8,0:0:0:0:
256,192,23373,5,4,0:0:0:0:
256,192,24055,1,8,0:0:0:0:
256,192,24509,1,0,0:0:0:0:
256,192,24736,1,0,0:0:0:0:
256,192,24964,1,8,0:0:0:0:
256,192,25191,1,8,0:0:0:0:
256,192,25873,1,8,0:0:0:0:
256,192,26327,1,0,0:0:0:0:
256,192,26555,1,8,0:0:0:0:
256,192,26782,1,8,0:0:0:0:
256,192,27009,1,0,0:0:0:0:
256,192,27691,1,8,0:0:0:0:
256,192,28145,1,8,0:0:0:0:
256,192,28373,1,8,0:0:0:0:
256,192,28600,1,0,0:0:0:0:
256,192,28827,1,8,0:0:0:0:
256,192,29509,1,0,0:0:0:0:
256,192,29736,1,8,0:0:0:0:
256,192,30191,1,8,0:0:0:0:
256,192,30418,1,8,0:0:0:0:
256,192,30645,5,4,0:0:0:0:
256,192,31327,1,8,0:0:0:0:
256,192,31782,1,0,0:0:0:0:
256,192,32009,1,8,0:0:0:0:
256,192,32236,1,0,0:0:0:0:
256,192,32464,1,0,0:0:0:0:
256,192,33145,1,8,0:0:0:0:
256,192,33600,1,8,0:0:0:0:
256,192,33827,1,0,0:0:0:0:
256,192,34055,1,0,0:0:0:0:
256,192,34282,1,8,0:0:0:0:
256,192,34964,1,0,0:0:0:0:
256,192,35418,1,0,0:0:0:0:
256,192,35645,1,8,0:0:0:0:
256,192,35873,1,0,0:0:0:0:
256,192,36100,1,8,0:0:0:0:
256,192,36441,1,8,0:0:0:0:
256,192,36782,1,8,0:0:0:0:
256,192,37009,1,0,0:0:0:0:
256,192,37350,1,0,0:0:0:0:
256,192,37691,1,8,0:0:0:0:
256,192,37918,5,4,0:0:0:0:
256,192,38600,1,8,0:0:0:0:
256,192,39282,1,8,0:0:0:0:
256,192,39736,1,0,0:0:0:0:
256,192,40418,1,8,0:0:0:0:
256,192,41100,1,8,0:0:0:0:
256,192,41555,1,0,0:0:0:0:
256,192,42236,1,8,0:0:0:0:
256,192,42918,1,8,0:0:0:0:
256,192,43373,1,0,0:0:0:0:
256,192,44055,1,8,0:0:0:0:
256,192,44736,1,8,0:0:0:0:
256,192,45191,12,8,49736,0:0:0:0:
256,192,51555,5,0,0:0:0:0:
256,192,52009,1,8,0:0:0:0:
256,192,52236,1,8,0:0:0:0:
256,192,52464,5,4,0:0:0:0:
256,192,53145,1,8,0:0:0:0:
256,192,53486,1,0,0:0:0:0:
256,192,53827,1,8,0:0:0:0:
256,192,54282,1,8,0:0:0:0:
256,192,54964,1,0,0:0:0:0:
256,192,55305,1,0,0:0:0:0:
256,192,55645,1,8,0:0:0:0:
256,192,55873,1,8,0:0:0:0:
256,192,56100,1,0,0:0:0:0:
256,192,56782,1,8,0:0:0:0:
256,192,57123,1,0,0:0:0:0:
256,192,57464,1,8,0:0:0:0:
256,192,57918,1,0,0:0:0:0:
256,192,58600,1,8,0:0:0:0:
256,192,58827,1,0,0:0:0:0:
256,192,59055,1,0,0:0:0:0:
256,192,59282,1,8,0:0:0:0:
256,192,59736,5,0,0:0:0:0:
256,192,60191,1,8,0:0:0:0:
256,192,60532,1,0,0:0:0:0:
256,192,60873,1,0,0:0:0:0:
256,192,61100,1,8,0:0:0:0:
256,192,61555,1,0,0:0:0:0:
256,192,62009,1,8,0:0:0:0:
256,192,62350,1,8,0:0:0:0:
256,192,62691,1,0,0:0:0:0:
256,192,62918,1,8,0:0:0:0:
256,192,63373,12,8,65191,0:0:0:0:
256,192,67009,5,4,0:0:0:0:
256,192,67464,1,8,0:0:0:0:
256,192,68145,1,0,0:0:0:0:
256,192,68373,1,8,0:0:0:0:
256,192,68827,1,0,0:0:0:0:
256,192,69282,1,8,0:0:0:0:
256,192,69623,1,0,0:0:0:0:
256,192,69964,1,0,0:0:0:0:
256,192,70191,1,8,0:0:0:0:
256,192,70418,1,8,0:0:0:0:
256,192,70645,1,0,0:0:0:0:
256,192,71100,1,8,0:0:0:0:
256,192,71441,1,8,0:0:0:0:
256,192,71782,1,0,0:0:0:0:
256,192,72009,1,8,0:0:0:0:
256,192,72464,1,0,0:0:0:0:
256,192,72691,1,0,0:0:0:0:
256,192,72918,1,8,0:0:0:0:
256,192,73259,1,8,0:0:0:0:
256,192,73600,1,8,0:0:0:0:
256,192,74282,5,0,0:0:0:0:
256,192,74736,1,8,0:0:0:0:
256,192,75418,1,0,0:0:0:0:
256,192,75645,1,8,0:0:0:0:
256,192,76100,1,0,0:0:0:0:
256,192,76555,1,8,0:0:0:0:
256,192,76895,1,8,0:0:0:0:
256,192,77236,1,0,0:0:0:0:
256,192,77464,1,8,0:0:0:0:
256,192,77691,1,0,0:0:0:0:
256,192,77918,1,0,0:0:0:0:
256,192,78373,1,0,0:0:0:0:
256,192,78600,1,8,0:0:0:0:
256,192,78827,1,8,0:0:0:0:
256,192,79055,1,0,0:0:0:0:
256,192,79282,1,8,0:0:0:0:
256,192,79736,1,0,0:0:0:0:
256,192,79964,1,8,0:0:0:0:
256,192,80191,1,8,0:0:0:0:
256,192,80532,1,0,0:0:0:0:
256,192,81555,5,4,0:0:0:0:
256,192,82009,1,8,0:0:0:0:
256,192,82691,1,0,0:0:0:0:
256,192,82918,1,8,0:0:0:0:
256,192,83373,1,0,0:0:0:0:
256,192,83600,1,0,0:0:0:0:
256,192,83827,1,8,0:0:0:0:
256,192,84168,1,0,0:0:0:0:
256,192,84395,1,8,0:0:0:0:
256,192,84736,1,8,0:0:0:0:
256,192,84964,1,0,0:0:0:0:
256,192,85191,1,0,0:0:0:0:
256,192,85418,1,0,0:0:0:0:
256,192,85645,1,8,0:0:0:0:
256,192,86327,1,0,0:0:0:0:
256,192,86555,1,8,0:0:0:0:
256,192,87009,1,8,0:0:0:0:
256,192,87236,1,0,0:0:0:0:
256,192,87464,1,8,0:0:0:0:
256,192,87918,1,8,0:0:0:0:
256,192,88145,1,8,0:0:0:0:
256,192,88373,1,8,0:0:0:0:
256,192,88600,1,0,0:0:0:0:
256,192,88827,5,0,0:0:0:0:
256,192,89282,1,8,0:0:0:0:
256,192,89964,1,0,0:0:0:0:
256,192,90191,1,8,0:0:0:0:
256,192,90645,1,0,0:0:0:0:
256,192,90873,1,0,0:0:0:0:
256,192,91100,1,8,0:0:0:0:
256,192,91441,1,0,0:0:0:0:
256,192,91668,1,8,0:0:0:0:
256,192,92009,1,8,0:0:0:0:
256,192,92236,1,0,0:0:0:0:
256,192,92464,1,0,0:0:0:0:
256,192,92691,1,8,0:0:0:0:
256,192,92918,1,8,0:0:0:0:
256,192,93600,1,0,0:0:0:0:
256,192,93827,1,8,0:0:0:0:
256,192,94282,1,8,0:0:0:0:
256,192,94509,1,0,0:0:0:0:
256,192,94736,1,8,0:0:0:0:
256,192,95645,1,8,0:0:0:0:
256,192,95873,1,0,0:0:0:0:
256,192,96100,5,0,0:0:0:0:
256,192,96555,1,8,0:0:0:0:
256,192,96895,1,0,0:0:0:0:
256,192,97123,1,0,0:0:0:0:
256,192,97464,1,8,0:0:0:0:
256,192,97805,1,0,0:0:0:0:
256,192,98373,1,8,0:0:0:0:
256,192,98714,1,0,0:0:0:0:
256,192,98941,1,8,0:0:0:0:
256,192,99282,1,8,0:0:0:0:
256,192,99623,1,0,0:0:0:0:
256,192,100191,1,8,0:0:0:0:
256,192,100532,1,0,0:0:0:0:
256,192,100759,1,0,0:0:0:0:
256,192,101100,1,8,0:0:0:0:
256,192,101441,1,0,0:0:0:0:
256,192,101782,1,0,0:0:0:0:
256,192,102009,1,8,0:0:0:0:
256,192,102918,1,8,0:0:0:0:
256,192,103259,5,0,0:0:0:0:
256,192,103827,1,8,0:0:0:0:
256,192,104168,1,0,0:0:0:0:
256,192,104395,1,0,0:0:0:0:
256,192,104736,1,8,0:0:0:0:
256,192,105077,1,0,0:0:0:0:
256,192,105645,1,8,0:0:0:0:
256,192,105986,1,0,0:0:0:0:
256,192,106214,1,8,0:0:0:0:
256,192,106555,1,8,0:0:0:0:
256,192,106895,1,0,0:0:0:0:
256,192,107464,1,8,0:0:0:0:
256,192,107805,1,0,0:0:0:0:
256,192,108145,1,0,0:0:0:0:
256,192,108373,1,8,0:0:0:0:
256,192,108714,1,8,0:0:0:0:
256,192,110191,1,0,0:0:0:0:
256,192,110418,1,0,0:0:0:0:
256,192,110645,1,12,0:0:0:0:
