osu file format v14

[General]
AudioFilename: audio.mp3
AudioLeadIn: 0
PreviewTime: 63684
Countdown: 0
SampleSet: Normal
StackLeniency: 0.7
Mode: 1
LetterboxInBreaks: 0
WidescreenStoryboard: 0

[Editor]
DistanceSpacing: 0.9
BeatDivisor: 8
GridSize: 32
TimelineZoom: 1.8

[Metadata]
Title:Power Trip
TitleUnicode:Power Trip
Artist:Boom Kitty
ArtistUnicode:Boom Kitty
Creator:mikku1
Version:Muzukashii
Source:Geometry Dash SubZero
Tags:drum 'n bass single dnb filthy
BeatmapID:2066834
BeatmapSetID:987967

[Difficulty]
HPDrainRate:5
CircleSize:2
OverallDifficulty:4.5
ApproachRate:0
SliderMultiplier:1.4
SliderTickRate:3

[Events]
//Background and Video events
0,0,"PowerTrip.jpg",0,0
//Break Periods
//Storyboard Layer 0 (Background)
//Storyboard Layer 1 (Fail)
//Storyboard Layer 2 (Pass)
//Storyboard Layer 3 (Foreground)
//Storyboard Sound Samples

[TimingPoints]
199.685800766845,352.941176470588,4,1,0,100,1,0
1611,-100,4,1,0,100,0,0
1964,-100,4,2,0,50,0,0
5493,-100,4,1,0,100,0,0
7614,-100,4,2,0,50,0,0
11140,-100,4,1,0,53,0,0
11582,-100,4,1,0,56,0,0
11758,-100,4,1,0,65,0,0
11934,-100,4,1,0,71,0,0
12111,-100,4,1,0,77,0,0
12287,-100,4,1,0,83,0,0
12420,-100,4,1,0,86,0,0
12508,-100,4,1,0,89,0,0
12640,-100,4,1,0,92,0,0
12817,-100,4,1,0,100,0,0
18729,-100,4,2,0,100,0,0
18993,-100,4,1,0,100,0,0
20405,-100,4,2,0,100,0,0
20582,-100,4,1,0,100,0,0
24023,-100,4,2,0,100,0,0
35405,-100,4,1,0,100,0,0
119846,-100,4,1,0,50,0,0
131405,-100,4,1,0,75,0,0
141287,-100,4,1,0,88,0,0
142346,-100,4,1,0,94,0,0
142699,-100,4,1,0,100,0,0
187964,-100,4,1,0,40,0,0
188140,-100,4,1,0,41,0,0
188317,-100,4,1,0,42,0,0
188493,-100,4,1,0,43,0,0
188670,-100,4,1,0,44,0,0
188846,-100,4,1,0,45,0,0
189023,-100,4,1,0,46,0,0
189199,-100,4,1,0,47,0,0
189376,-100,4,1,0,48,0,0
189552,-100,4,1,0,49,0,0
189729,-100,4,1,0,50,0,0
189905,-100,4,1,0,51,0,0
190082,-100,4,1,0,52,0,0
190258,-100,4,1,0,53,0,0
190434,-100,4,1,0,54,0,0
190611,-100,4,1,0,55,0,0
190787,-100,4,1,0,56,0,0
190964,-100,4,1,0,57,0,0
191140,-100,4,1,0,58,0,0
191317,-100,4,1,0,59,0,0
191493,-100,4,1,0,60,0,0
191670,-100,4,1,0,61,0,0
191846,-100,4,1,0,62,0,0
192023,-100,4,1,0,63,0,0
192199,-100,4,1,0,64,0,0
192376,-100,4,1,0,65,0,0
192552,-100,4,1,0,66,0,0
192729,-100,4,1,0,67,0,0
192905,-100,4,1,0,68,0,0
193082,-100,4,1,0,69,0,0
193258,-100,4,1,0,70,0,0
193434,-100,4,1,0,71,0,0
193611,-100,4,1,0,72,0,0
193787,-100,4,1,0,73,0,0
193964,-100,4,1,0,74,0,0
194140,-100,4,1,0,75,0,0
194317,-100,4,1,0,76,0,0
194493,-100,4,1,0,77,0,0
194670,-100,4,1,0,78,0,0
194846,-100,4,1,0,79,0,0
195023,-100,4,1,0,80,0,0
195199,-100,4,1,0,81,0,0
195376,-100,4,1,0,82,0,0
195552,-100,4,1,0,83,0,0
195729,-100,4,1,0,84,0,0
195905,-100,4,1,0,85,0,0
196082,-100,4,1,0,86,0,0
196258,-100,4,1,0,87,0,0
196434,-100,4,1,0,88,0,0
196611,-100,4,1,0,89,0,0
196787,-100,4,1,0,90,0,0
196964,-100,4,1,0,91,0,0
197140,-100,4,1,0,92,0,0
197317,-100,4,1,0,93,0,0
197493,-100,4,1,0,94,0,0
197670,-100,4,1,0,95,0,0
197846,-100,4,1,0,96,0,0
198023,-100,4,1,0,97,0,0
198199,-100,4,1,0,98,0,0
198376,-100,4,1,0,99,0,0
198552,-100,4,1,0,100,0,0

[HitObjects]
256,192,199,12,0,1434,0:0:0:0:
256,192,1611,5,12,0:0:0:0:
256,192,2317,1,8,0:0:0:0:
256,192,2758,1,8,0:0:0:0:
256,192,3023,1,8,0:0:0:0:
256,192,3464,1,8,0:0:0:0:
256,192,3729,1,8,0:0:0:0:
256,192,4170,1,8,0:0:0:0:
256,192,4434,1,8,0:0:0:0:
256,192,4875,1,8,0:0:0:0:
256,192,5140,1,8,0:0:0:0:
256,192,5846,1,8,0:0:0:0:
256,192,6023,1,8,0:0:0:0:
256,192,6199,1,8,0:0:0:0:
256,192,6376,1,0,0:0:0:0:
256,192,6552,1,0,0:0:0:0:
256,192,6729,1,8,0:0:0:0:
256,192,6905,1,0,0:0:0:0:
256,192,6993,1,0,0:0:0:0:
256,192,7082,1,0,0:0:0:0:
256,192,7258,5,12,0:0:0:0:
256,192,7964,1,8,0:0:0:0:
256,192,8405,1,8,0:0:0:0:
256,192,8670,1,8,0:0:0:0:
256,192,9111,1,8,0:0:0:0:
256,192,9376,1,8,0:0:0:0:
256,192,9817,1,8,0:0:0:0:
256,192,10082,1,8,0:0:0:0:
256,192,10523,1,8,0:0:0:0:
256,192,10787,1,8,0:0:0:0:
256,192,11493,1,8,0:0:0:0:
256,192,11669,1,8,0:0:0:0:
256,192,11846,1,8,0:0:0:0:
256,192,12022,1,8,0:0:0:0:
256,192,12199,1,8,0:0:0:0:
256,192,12376,1,0,0:0:0:0:
256,192,12464,1,0,0:0:0:0:
256,192,12552,1,0,0:0:0:0:
256,192,12729,1,0,0:0:0:0:
256,192,12905,1,8,0:0:0:0:
256,192,13435,1,8,0:0:0:0:
256,192,13964,1,8,0:0:0:0:
256,192,14317,1,0,0:0:0:0:
256,192,14493,1,8,0:0:0:0:
256,192,14670,1,8,0:0:0:0:
256,192,15023,12,0,15376,0:0:0:0:
256,192,15729,5,8,0:0:0:0:
256,192,16258,1,8,0:0:0:0:
256,192,16611,1,8,0:0:0:0:
256,192,16787,1,8,0:0:0:0:
256,192,17140,1,0,0:0:0:0:
256,192,17317,1,8,0:0:0:0:
256,192,17493,1,0,0:0:0:0:
256,192,17670,1,8,0:0:0:0:
256,192,17846,1,0,0:0:0:0:
256,192,18023,1,8,0:0:0:0:
256,192,18111,1,8,0:0:0:0:
256,192,18199,1,8,0:0:0:0:
256,192,18552,1,8,0:0:0:0:
256,192,18905,1,8,0:0:0:0:
256,192,19082,1,8,0:0:0:0:
256,192,19434,1,8,0:0:0:0:
256,192,19611,1,8,0:0:0:0:
256,192,19964,1,0,0:0:0:0:
256,192,20140,1,8,0:0:0:0:
256,192,20317,1,8,0:0:0:0:
256,192,20493,1,8,0:0:0:0:
256,192,20670,1,0,0:0:0:0:
256,192,20846,1,8,0:0:0:0:
256,192,20934,1,8,0:0:0:0:
256,192,21023,1,8,0:0:0:0:
256,192,21199,1,0,0:0:0:0:
256,192,21287,1,0,0:0:0:0:
256,192,21376,5,0,0:0:0:0:
256,192,21905,1,8,0:0:0:0:
256,192,22258,1,8,0:0:0:0:
256,192,22434,1,8,0:0:0:0:
256,192,22787,1,0,0:0:0:0:
256,192,22964,1,8,0:0:0:0:
256,192,23140,1,0,0:0:0:0:
256,192,23317,1,8,0:0:0:0:
256,192,23493,2,0,L|257:337,1,140
256,192,24199,1,8,0:0:0:0:
256,192,24729,1,8,0:0:0:0:
256,192,25258,1,8,0:0:0:0:
256,192,25434,1,0,0:0:0:0:
256,192,25787,1,8,0:0:0:0:
256,192,25964,1,8,0:0:0:0:
256,192,26140,1,8,0:0:0:0:
256,192,26317,1,8,0:0:0:0:
256,192,26670,1,0,0:0:0:0:
256,192,26846,1,8,0:0:0:0:
256,192,27023,1,8,0:0:0:0:
256,192,27552,1,8,0:0:0:0:
256,192,27905,1,0,0:0:0:0:
256,192,28082,1,8,0:0:0:0:
256,192,28258,1,0,0:0:0:0:
256,192,28611,1,8,0:0:0:0:
256,192,28787,1,0,0:0:0:0:
256,192,28964,1,8,0:0:0:0:
256,192,29140,1,8,0:0:0:0:
256,192,29317,1,8,0:0:0:0:
256,192,29493,1,0,0:0:0:0:
256,192,29670,1,8,0:0:0:0:
256,192,29846,1,0,0:0:0:0:
256,192,30376,1,8,0:0:0:0:
256,192,30905,1,8,0:0:0:0:
256,192,31082,1,0,0:0:0:0:
256,192,31434,1,8,0:0:0:0:
256,192,31611,1,0,0:0:0:0:
256,192,31787,1,8,0:0:0:0:
256,192,31964,1,8,0:0:0:0:
256,192,32317,1,8,0:0:0:0:
256,192,32493,1,8,0:0:0:0:
256,192,32670,1,8,0:0:0:0:
256,192,33199,1,8,0:0:0:0:
256,192,33552,1,8,0:0:0:0:
256,192,33729,1,8,0:0:0:0:
256,192,33905,1,0,0:0:0:0:
256,192,34082,1,8,0:0:0:0:
256,192,34170,1,8,0:0:0:0:
256,192,34258,1,8,0:0:0:0:
256,192,34434,1,0,0:0:0:0:
256,192,34611,1,8,0:0:0:0:
256,192,34787,1,0,0:0:0:0:
256,192,34964,1,8,0:0:0:0:
256,192,35140,1,0,0:0:0:0:
256,192,35317,1,8,0:0:0:0:
256,192,35493,1,12,0:0:0:0:
256,192,36023,1,0,0:0:0:0:
256,192,36376,1,0,0:0:0:0:
256,192,36552,1,0,0:0:0:0:
256,192,36729,1,0,0:0:0:0:
256,192,37082,1,0,0:0:0:0:
256,192,37258,1,0,0:0:0:0:
256,192,37434,1,0,0:0:0:0:
256,192,37611,1,0,0:0:0:0:
256,192,37787,1,0,0:0:0:0:
256,192,37964,1,12,0:0:0:0:
256,192,38140,1,12,0:0:0:0:
256,192,38317,1,12,0:0:0:0:
256,192,38846,1,0,0:0:0:0:
256,192,39199,1,0,0:0:0:0:
256,192,39376,1,0,0:0:0:0:
256,192,39552,1,0,0:0:0:0:
256,192,39905,1,0,0:0:0:0:
256,192,39993,1,0,0:0:0:0:
256,192,40082,1,0,0:0:0:0:
256,192,40170,1,0,0:0:0:0:
256,192,40258,1,0,0:0:0:0:
256,192,40434,1,0,0:0:0:0:
256,192,40611,1,0,0:0:0:0:
256,192,40787,1,12,0:0:0:0:
256,192,40964,1,0,0:0:0:0:
256,192,41140,1,12,0:0:0:0:
256,192,41670,1,0,0:0:0:0:
256,192,42023,1,0,0:0:0:0:
256,192,42199,1,0,0:0:0:0:
256,192,42376,1,0,0:0:0:0:
256,192,42729,1,0,0:0:0:0:
256,192,42905,1,0,0:0:0:0:
256,192,43081,1,0,0:0:0:0:
256,192,43258,1,0,0:0:0:0:
256,192,43434,1,0,0:0:0:0:
256,192,43611,1,0,0:0:0:0:
256,192,43787,1,0,0:0:0:0:
256,192,43964,1,0,0:0:0:0:
256,192,44493,1,0,0:0:0:0:
256,192,44670,1,0,0:0:0:0:
256,192,44846,1,0,0:0:0:0:
256,192,45023,1,0,0:0:0:0:
256,192,45199,1,0,0:0:0:0:
256,192,45552,1,0,0:0:0:0:
256,192,45905,1,0,0:0:0:0:
256,192,46081,1,0,0:0:0:0:
256,192,46258,1,0,0:0:0:0:
256,192,46434,1,8,0:0:0:0:
256,192,46787,1,0,0:0:0:0:
256,192,46964,1,8,0:0:0:0:
256,192,47140,1,8,0:0:0:0:
256,192,47317,1,8,0:0:0:0:
256,192,47493,1,0,0:0:0:0:
256,192,47670,1,0,0:0:0:0:
256,192,47846,1,8,0:0:0:0:
256,192,48199,1,0,0:0:0:0:
256,192,48376,1,0,0:0:0:0:
256,192,48552,1,8,0:0:0:0:
256,192,48729,1,8,0:0:0:0:
256,192,48905,1,0,0:0:0:0:
256,192,49082,1,0,0:0:0:0:
256,192,49258,1,8,0:0:0:0:
256,192,49611,1,0,0:0:0:0:
256,192,49788,1,8,0:0:0:0:
256,192,49964,1,8,0:0:0:0:
256,192,50141,1,8,0:0:0:0:
256,192,50317,1,0,0:0:0:0:
256,192,50494,1,0,0:0:0:0:
256,192,50670,1,8,0:0:0:0:
256,192,51023,1,0,0:0:0:0:
256,192,51200,1,0,0:0:0:0:
256,192,51376,1,8,0:0:0:0:
256,192,51553,1,0,0:0:0:0:
256,192,51729,1,8,0:0:0:0:
256,192,52434,1,0,0:0:0:0:
256,192,52611,1,8,0:0:0:0:
256,192,52787,1,8,0:0:0:0:
256,192,52964,1,8,0:0:0:0:
256,192,53140,1,0,0:0:0:0:
256,192,53317,1,0,0:0:0:0:
256,192,53493,1,8,0:0:0:0:
256,192,53846,1,0,0:0:0:0:
256,192,54023,1,0,0:0:0:0:
256,192,54199,1,8,0:0:0:0:
256,192,54376,1,8,0:0:0:0:
256,192,54552,1,0,0:0:0:0:
256,192,54729,1,0,0:0:0:0:
256,192,54905,1,8,0:0:0:0:
256,192,55258,1,0,0:0:0:0:
256,192,55435,1,8,0:0:0:0:
256,192,55611,1,8,0:0:0:0:
256,192,55788,1,8,0:0:0:0:
256,192,55964,1,0,0:0:0:0:
256,192,56141,1,0,0:0:0:0:
256,192,56317,5,8,0:0:0:0:
256,192,56670,1,0,0:0:0:0:
256,192,56847,1,8,0:0:0:0:
256,192,57023,1,8,0:0:0:0:
256,192,57200,1,0,0:0:0:0:
256,192,57288,1,0,0:0:0:0:
256,192,57376,1,0,0:0:0:0:
256,192,58082,1,0,0:0:0:0:
256,192,58259,1,8,0:0:0:0:
256,192,58435,1,8,0:0:0:0:
256,192,58612,1,8,0:0:0:0:
256,192,58788,1,0,0:0:0:0:
256,192,58965,1,0,0:0:0:0:
256,192,59141,1,8,0:0:0:0:
256,192,59494,1,0,0:0:0:0:
256,192,59671,1,0,0:0:0:0:
256,192,59847,1,8,0:0:0:0:
256,192,60024,1,8,0:0:0:0:
256,192,60200,1,0,0:0:0:0:
256,192,60377,1,0,0:0:0:0:
256,192,60553,1,8,0:0:0:0:
256,192,60906,1,0,0:0:0:0:
256,192,61083,1,8,0:0:0:0:
256,192,61259,1,8,0:0:0:0:
256,192,61434,1,8,0:0:0:0:
256,192,61612,1,0,0:0:0:0:
256,192,61787,1,0,0:0:0:0:
256,192,61965,5,8,0:0:0:0:
256,192,62318,1,0,0:0:0:0:
256,192,62406,1,0,0:0:0:0:
256,192,62493,1,0,0:0:0:0:
256,192,62671,1,8,0:0:0:0:
256,192,62846,1,0,0:0:0:0:
256,192,63024,1,8,0:0:0:0:
256,192,63199,1,0,0:0:0:0:
256,192,63377,1,8,0:0:0:0:
256,192,63553,1,8,0:0:0:0:
256,192,64082,12,0,65846,0:0:0:0:
256,192,66199,5,0,0:0:0:0:
256,192,66552,1,4,0:0:0:0:
256,192,67258,12,0,68670,0:0:0:0:
256,192,69023,5,0,0:0:0:0:
256,192,69376,1,0,0:0:0:0:
256,192,69905,1,0,0:0:0:0:
256,192,70258,1,0,0:0:0:0:
256,192,70434,1,8,0:0:0:0:
256,192,70611,1,0,0:0:0:0:
256,192,70964,1,0,0:0:0:0:
256,192,71140,1,0,0:0:0:0:
256,192,71317,1,8,0:0:0:0:
256,192,71493,1,8,0:0:0:0:
256,192,71670,1,0,0:0:0:0:
256,192,71846,1,8,0:0:0:0:
256,192,72023,1,0,0:0:0:0:
256,192,72199,1,0,0:0:0:0:
256,192,72729,1,0,0:0:0:0:
256,192,73082,1,0,0:0:0:0:
256,192,73258,1,8,0:0:0:0:
256,192,73434,1,0,0:0:0:0:
256,192,73787,1,0,0:0:0:0:
256,192,73964,1,0,0:0:0:0:
256,192,74140,1,8,0:0:0:0:
256,192,74317,1,8,0:0:0:0:
256,192,74493,1,8,0:0:0:0:
256,192,74670,1,0,0:0:0:0:
256,192,74846,1,8,0:0:0:0:
256,192,75023,1,0,0:0:0:0:
256,192,75552,1,0,0:0:0:0:
256,192,75905,1,0,0:0:0:0:
256,192,76081,1,8,0:0:0:0:
256,192,76258,1,0,0:0:0:0:
256,192,76611,1,0,0:0:0:0:
256,192,76787,1,0,0:0:0:0:
256,192,76964,1,8,0:0:0:0:
256,192,77140,1,8,0:0:0:0:
256,192,77317,1,0,0:0:0:0:
256,192,77493,1,8,0:0:0:0:
256,192,77670,1,0,0:0:0:0:
256,192,77846,1,0,0:0:0:0:
256,192,78376,1,0,0:0:0:0:
256,192,78729,1,8,0:0:0:0:
256,192,78905,1,8,0:0:0:0:
256,192,79081,1,0,0:0:0:0:
256,192,79434,1,0,0:0:0:0:
256,192,79787,1,8,0:0:0:0:
256,192,79964,1,0,0:0:0:0:
256,192,80140,1,8,0:0:0:0:
256,192,80229,1,8,0:0:0:0:
256,192,80317,1,8,0:0:0:0:
256,192,80493,1,8,0:0:0:0:
256,192,80670,1,0,0:0:0:0:
256,192,81199,1,0,0:0:0:0:
256,192,81552,1,0,0:0:0:0:
256,192,81728,1,8,0:0:0:0:
256,192,81905,1,0,0:0:0:0:
256,192,82258,1,0,0:0:0:0:
256,192,82434,1,0,0:0:0:0:
256,192,82611,1,8,0:0:0:0:
256,192,82787,1,8,0:0:0:0:
256,192,82964,1,0,0:0:0:0:
256,192,83140,1,8,0:0:0:0:
256,192,83317,1,0,0:0:0:0:
256,192,83493,1,0,0:0:0:0:
256,192,84023,1,0,0:0:0:0:
256,192,84376,1,0,0:0:0:0:
256,192,84552,1,8,0:0:0:0:
256,192,84728,1,0,0:0:0:0:
256,192,85081,1,0,0:0:0:0:
256,192,85258,1,0,0:0:0:0:
256,192,85434,1,8,0:0:0:0:
256,192,85611,1,8,0:0:0:0:
256,192,85787,1,8,0:0:0:0:
256,192,85964,1,0,0:0:0:0:
256,192,86140,1,8,0:0:0:0:
256,192,86317,1,0,0:0:0:0:
256,192,86846,1,0,0:0:0:0:
256,192,87199,1,0,0:0:0:0:
256,192,87375,1,8,0:0:0:0:
256,192,87552,1,0,0:0:0:0:
256,192,87905,1,0,0:0:0:0:
256,192,88081,1,0,0:0:0:0:
256,192,88258,1,8,0:0:0:0:
256,192,88434,1,8,0:0:0:0:
256,192,88611,1,0,0:0:0:0:
256,192,88787,1,8,0:0:0:0:
256,192,88964,1,0,0:0:0:0:
256,192,89140,1,0,0:0:0:0:
256,192,89670,1,0,0:0:0:0:
256,192,90023,1,0,0:0:0:0:
256,192,90199,5,8,0:0:0:0:
256,192,90375,1,0,0:0:0:0:
256,192,90728,1,0,0:0:0:0:
256,192,91081,1,0,0:0:0:0:
256,192,91170,1,0,0:0:0:0:
256,192,91258,1,8,0:0:0:0:
256,192,91434,1,8,0:0:0:0:
256,192,91611,1,0,0:0:0:0:
256,192,91787,1,0,0:0:0:0:
256,192,91964,1,8,0:0:0:0:
256,192,92140,1,0,0:0:0:0:
256,192,92317,1,0,0:0:0:0:
256,192,92493,1,8,0:0:0:0:
256,192,93023,1,8,0:0:0:0:
256,192,93199,1,8,0:0:0:0:
256,192,93376,1,0,0:0:0:0:
256,192,93552,1,0,0:0:0:0:
256,192,93729,1,0,0:0:0:0:
256,192,94082,1,8,0:0:0:0:
256,192,94258,1,8,0:0:0:0:
256,192,94435,1,0,0:0:0:0:
256,192,94611,1,8,0:0:0:0:
256,192,94787,1,8,0:0:0:0:
256,192,95140,1,0,0:0:0:0:
256,192,95316,1,8,0:0:0:0:
256,192,95846,1,8,0:0:0:0:
256,192,96022,1,8,0:0:0:0:
256,192,96199,1,0,0:0:0:0:
256,192,96375,1,0,0:0:0:0:
256,192,96552,1,0,0:0:0:0:
256,192,96905,1,8,0:0:0:0:
256,192,97081,1,8,0:0:0:0:
256,192,97258,1,0,0:0:0:0:
256,192,97434,1,0,0:0:0:0:
256,192,97611,1,8,0:0:0:0:
256,192,97787,1,0,0:0:0:0:
256,192,97964,1,0,0:0:0:0:
256,192,98140,1,8,0:0:0:0:
256,192,98670,1,8,0:0:0:0:
256,192,98846,1,8,0:0:0:0:
256,192,99023,1,0,0:0:0:0:
256,192,99199,1,0,0:0:0:0:
256,192,99376,1,8,0:0:0:0:
256,192,99729,1,8,0:0:0:0:
256,192,99905,1,8,0:0:0:0:
256,192,100082,1,0,0:0:0:0:
256,192,100258,1,0,0:0:0:0:
256,192,100434,1,8,0:0:0:0:
256,192,100963,1,8,0:0:0:0:
256,192,101140,1,0,0:0:0:0:
256,192,101316,1,8,0:0:0:0:
256,192,101493,1,0,0:0:0:0:
256,192,101669,1,8,0:0:0:0:
256,192,102022,1,8,0:0:0:0:
256,192,102376,1,0,0:0:0:0:
256,192,102464,1,0,0:0:0:0:
256,192,102552,1,0,0:0:0:0:
256,192,102728,1,8,0:0:0:0:
256,192,102905,1,8,0:0:0:0:
256,192,103258,1,8,0:0:0:0:
256,192,103434,1,0,0:0:0:0:
256,192,103611,1,0,0:0:0:0:
256,192,103787,1,8,0:0:0:0:
256,192,104317,1,8,0:0:0:0:
256,192,104493,1,8,0:0:0:0:
256,192,104670,1,0,0:0:0:0:
256,192,104846,1,0,0:0:0:0:
256,192,105023,1,0,0:0:0:0:
256,192,105376,1,8,0:0:0:0:
256,192,105552,1,8,0:0:0:0:
256,192,105729,1,0,0:0:0:0:
256,192,105905,1,8,0:0:0:0:
256,192,106081,1,8,0:0:0:0:
256,192,106434,1,0,0:0:0:0:
256,192,106610,1,8,0:0:0:0:
256,192,107140,1,8,0:0:0:0:
256,192,107316,1,8,0:0:0:0:
256,192,107493,1,0,0:0:0:0:
256,192,107669,1,0,0:0:0:0:
256,192,107846,1,0,0:0:0:0:
256,192,108199,1,8,0:0:0:0:
256,192,108375,1,8,0:0:0:0:
256,192,108552,1,0,0:0:0:0:
256,192,108728,1,0,0:0:0:0:
256,192,108905,1,8,0:0:0:0:
256,192,109081,1,0,0:0:0:0:
256,192,109258,1,0,0:0:0:0:
256,192,109434,1,8,0:0:0:0:
256,192,109964,1,8,0:0:0:0:
256,192,110140,1,8,0:0:0:0:
256,192,110317,1,0,0:0:0:0:
256,192,110493,1,0,0:0:0:0:
256,192,110670,1,8,0:0:0:0:
256,192,111023,1,8,0:0:0:0:
256,192,111199,1,8,0:0:0:0:
256,192,111376,1,0,0:0:0:0:
256,192,111552,1,0,0:0:0:0:
256,192,111728,1,8,0:0:0:0:
256,224,112082,1,8,0:0:0:0:
256,192,112170,1,8,0:0:0:0:
256,192,112257,1,8,0:0:0:0:
256,192,112610,1,8,0:0:0:0:
256,192,112787,5,0,0:0:0:0:
256,192,113140,1,8,0:0:0:0:
256,192,113670,1,8,0:0:0:0:
256,192,114199,1,8,0:0:0:0:
256,192,114552,12,0,119493,0:0:0:0:
256,192,120199,5,8,0:0:0:0:
256,192,120729,1,8,0:0:0:0:
256,192,121082,1,8,0:0:0:0:
256,192,121258,1,8,0:0:0:0:
256,192,121434,1,8,0:0:0:0:
256,192,121787,1,8,0:0:0:0:
256,192,121964,1,8,0:0:0:0:
256,192,122140,1,8,0:0:0:0:
256,192,122317,1,8,0:0:0:0:
256,192,122493,1,8,0:0:0:0:
256,192,122670,1,8,0:0:0:0:
256,192,122846,1,8,0:0:0:0:
256,192,123023,5,8,0:0:0:0:
256,192,123553,1,8,0:0:0:0:
256,192,123906,1,8,0:0:0:0:
256,192,124082,1,8,0:0:0:0:
256,192,124258,1,8,0:0:0:0:
256,192,124611,1,8,0:0:0:0:
256,192,124788,1,8,0:0:0:0:
256,192,124964,1,8,0:0:0:0:
256,192,125141,1,8,0:0:0:0:
256,192,125317,1,8,0:0:0:0:
256,192,125494,1,8,0:0:0:0:
256,192,125670,1,8,0:0:0:0:
256,192,125846,5,8,0:0:0:0:
256,192,126376,1,8,0:0:0:0:
256,192,126729,1,8,0:0:0:0:
256,192,126905,1,8,0:0:0:0:
256,192,127081,1,8,0:0:0:0:
256,192,127434,1,8,0:0:0:0:
256,192,127611,1,8,0:0:0:0:
256,192,127787,1,8,0:0:0:0:
256,192,127964,1,8,0:0:0:0:
256,192,128140,1,8,0:0:0:0:
256,192,128317,1,8,0:0:0:0:
256,192,128493,1,8,0:0:0:0:
256,192,128670,1,8,0:0:0:0:
256,192,128935,1,8,0:0:0:0:
256,192,129023,1,8,0:0:0:0:
256,192,129200,1,8,0:0:0:0:
256,192,129376,1,8,0:0:0:0:
256,192,129553,1,8,0:0:0:0:
256,192,129729,1,8,0:0:0:0:
256,192,129905,1,8,0:0:0:0:
256,192,130258,1,8,0:0:0:0:
256,192,130611,1,8,0:0:0:0:
256,192,130788,1,8,0:0:0:0:
256,192,130964,1,8,0:0:0:0:
256,192,131053,1,8,0:0:0:0:
256,192,131141,1,8,0:0:0:0:
256,192,131317,1,8,0:0:0:0:
256,192,131493,1,8,0:0:0:0:
256,192,132023,1,8,0:0:0:0:
256,192,132376,1,0,0:0:0:0:
256,192,132552,1,8,0:0:0:0:
256,192,132729,1,0,0:0:0:0:
256,192,133082,1,8,0:0:0:0:
256,192,133258,1,0,0:0:0:0:
256,192,133346,1,0,0:0:0:0:
256,192,133434,1,0,0:0:0:0:
256,192,133611,1,8,0:0:0:0:
256,192,133787,1,0,0:0:0:0:
256,192,133964,1,0,0:0:0:0:
256,192,134140,1,0,0:0:0:0:
256,192,134317,1,8,0:0:0:0:
256,192,134847,1,8,0:0:0:0:
256,192,135200,1,0,0:0:0:0:
256,192,135376,1,8,0:0:0:0:
256,192,135553,1,0,0:0:0:0:
256,192,135906,1,8,0:0:0:0:
256,192,136082,1,0,0:0:0:0:
256,192,136258,1,0,0:0:0:0:
256,192,136435,1,8,0:0:0:0:
256,192,136611,1,0,0:0:0:0:
256,192,136700,1,0,0:0:0:0:
256,192,136788,1,0,0:0:0:0:
256,192,136964,1,8,0:0:0:0:
256,192,137140,1,8,0:0:0:0:
256,192,137670,1,8,0:0:0:0:
256,192,138023,1,0,0:0:0:0:
256,192,138199,1,8,0:0:0:0:
256,192,138376,1,0,0:0:0:0:
256,192,138552,1,0,0:0:0:0:
256,192,138729,1,8,0:0:0:0:
256,192,138905,1,0,0:0:0:0:
256,192,138993,1,0,0:0:0:0:
256,192,139081,1,0,0:0:0:0:
256,192,139258,1,8,0:0:0:0:
256,192,139434,1,0,0:0:0:0:
256,192,139611,1,0,0:0:0:0:
256,192,139787,1,0,0:0:0:0:
256,192,139964,1,8,0:0:0:0:
256,192,140229,1,0,0:0:0:0:
256,192,140317,1,0,0:0:0:0:
256,192,140494,1,8,0:0:0:0:
256,192,140670,1,0,0:0:0:0:
256,192,140847,1,8,0:0:0:0:
256,192,141023,1,8,0:0:0:0:
256,192,141200,1,0,0:0:0:0:
256,192,141376,1,8,0:0:0:0:
256,192,141553,1,8,0:0:0:0:
256,192,141729,1,8,0:0:0:0:
256,192,141905,1,8,0:0:0:0:
256,192,142082,1,8,0:0:0:0:
256,192,142258,1,8,0:0:0:0:
256,192,142435,1,8,0:0:0:0:
256,192,142611,1,8,0:0:0:0:
256,192,142787,1,0,0:0:0:0:
256,192,143140,1,8,0:0:0:0:
256,192,143317,1,8,0:0:0:0:
256,192,143846,1,8,0:0:0:0:
256,192,144023,1,8,0:0:0:0:
256,192,144199,1,0,0:0:0:0:
256,192,144287,1,0,0:0:0:0:
256,192,144376,1,0,0:0:0:0:
256,192,144552,1,8,0:0:0:0:
256,192,144729,1,8,0:0:0:0:
256,192,144905,1,0,0:0:0:0:
256,192,145082,1,0,0:0:0:0:
256,192,145258,1,8,0:0:0:0:
256,192,145611,1,8,0:0:0:0:
256,192,145964,1,8,0:0:0:0:
256,192,146052,1,8,0:0:0:0:
256,192,146140,1,8,0:0:0:0:
256,192,146494,1,0,0:0:0:0:
256,192,146582,1,0,0:0:0:0:
256,192,146670,1,0,0:0:0:0:
256,192,147023,1,0,0:0:0:0:
256,192,147200,1,8,0:0:0:0:
256,192,147376,1,0,0:0:0:0:
256,192,147553,1,8,0:0:0:0:
256,192,147729,1,8,0:0:0:0:
256,192,147906,1,0,0:0:0:0:
256,192,148082,1,8,0:0:0:0:
256,192,148258,1,0,0:0:0:0:
256,192,148434,1,0,0:0:0:0:
256,192,148787,1,8,0:0:0:0:
256,192,148964,1,8,0:0:0:0:
256,192,149493,1,8,0:0:0:0:
256,192,149670,1,8,0:0:0:0:
256,192,149846,1,0,0:0:0:0:
256,192,150023,1,0,0:0:0:0:
256,192,150111,1,0,0:0:0:0:
256,192,150199,1,0,0:0:0:0:
256,192,150376,1,8,0:0:0:0:
256,192,150552,1,0,0:0:0:0:
256,192,150729,1,0,0:0:0:0:
256,192,150905,1,8,0:0:0:0:
256,192,151081,1,8,0:0:0:0:
256,192,151258,1,0,0:0:0:0:
256,192,151435,1,8,0:0:0:0:
256,192,151523,1,8,0:0:0:0:
256,192,151611,1,8,0:0:0:0:
256,192,151964,1,8,0:0:0:0:
256,192,152053,1,8,0:0:0:0:
256,192,152141,1,8,0:0:0:0:
256,192,152670,12,0,153376,0:0:0:0:
256,192,153729,5,8,0:0:0:0:
256,192,153905,1,8,0:0:0:0:
256,192,154082,1,0,0:0:0:0:
256,192,154435,1,8,0:0:0:0:
256,192,154612,1,8,0:0:0:0:
256,192,154788,1,0,0:0:0:0:
256,192,154965,1,0,0:0:0:0:
256,192,155141,1,8,0:0:0:0:
256,192,155671,1,0,0:0:0:0:
256,192,155759,1,0,0:0:0:0:
256,192,155847,1,0,0:0:0:0:
256,192,156024,1,8,0:0:0:0:
256,192,156200,1,0,0:0:0:0:
256,192,156376,1,0,0:0:0:0:
256,192,156553,1,8,0:0:0:0:
256,192,156906,1,8,0:0:0:0:
256,192,157258,12,0,159376,0:0:0:0:
256,192,159729,5,0,0:0:0:0:
256,192,160082,1,8,0:0:0:0:
256,192,160259,1,8,0:0:0:0:
256,192,160788,1,8,0:0:0:0:
256,192,160965,1,8,0:0:0:0:
256,192,161141,1,0,0:0:0:0:
256,192,161318,1,8,0:0:0:0:
256,192,161494,1,8,0:0:0:0:
256,192,161671,1,0,0:0:0:0:
256,192,161847,1,8,0:0:0:0:
256,192,162200,1,8,0:0:0:0:
256,192,162553,1,0,0:0:0:0:
256,192,162905,12,0,164140,0:0:0:0:
256,192,164493,5,8,0:0:0:0:
256,192,164582,1,8,0:0:0:0:
256,192,164670,1,8,0:0:0:0:
256,192,164846,1,0,0:0:0:0:
256,192,165023,1,0,0:0:0:0:
256,192,165199,1,0,0:0:0:0:
256,192,165376,1,0,0:0:0:0:
256,192,165905,1,0,0:0:0:0:
256,192,166258,1,8,0:0:0:0:
256,192,166346,1,8,0:0:0:0:
256,192,166434,1,8,0:0:0:0:
256,192,166611,1,0,0:0:0:0:
256,192,166964,1,0,0:0:0:0:
256,192,167052,1,0,0:0:0:0:
256,192,167140,1,0,0:0:0:0:
256,192,167317,1,8,0:0:0:0:
256,192,167493,1,8,0:0:0:0:
256,192,167670,1,0,0:0:0:0:
256,192,167846,1,8,0:0:0:0:
256,192,168023,1,8,0:0:0:0:
256,192,168199,1,0,0:0:0:0:
256,192,168729,1,0,0:0:0:0:
256,192,169082,1,8,0:0:0:0:
256,192,169170,1,8,0:0:0:0:
256,192,169258,1,8,0:0:0:0:
256,192,169434,1,0,0:0:0:0:
256,192,169787,1,0,0:0:0:0:
256,192,169876,1,0,0:0:0:0:
256,192,169964,1,0,0:0:0:0:
256,192,170140,1,8,0:0:0:0:
256,192,170229,1,8,0:0:0:0:
256,192,170317,1,8,0:0:0:0:
256,192,170493,1,0,0:0:0:0:
256,192,170670,1,8,0:0:0:0:
256,192,170846,1,8,0:0:0:0:
256,192,171023,1,0,0:0:0:0:
256,192,171552,1,0,0:0:0:0:
256,192,171905,1,8,0:0:0:0:
256,192,171993,1,8,0:0:0:0:
256,192,172081,1,8,0:0:0:0:
256,192,172258,1,0,0:0:0:0:
256,192,172611,1,0,0:0:0:0:
256,192,172699,1,0,0:0:0:0:
256,192,172787,1,0,0:0:0:0:
256,192,172964,1,8,0:0:0:0:
256,192,173140,1,8,0:0:0:0:
256,192,173317,1,0,0:0:0:0:
256,192,173493,1,8,0:0:0:0:
256,192,173670,1,8,0:0:0:0:
256,192,173846,1,0,0:0:0:0:
256,192,174376,1,0,0:0:0:0:
256,192,174640,1,0,0:0:0:0:
256,192,174729,1,8,0:0:0:0:
256,192,174905,1,8,0:0:0:0:
256,192,175081,1,0,0:0:0:0:
256,192,175434,1,0,0:0:0:0:
256,192,175787,1,0,0:0:0:0:
256,192,175876,1,0,0:0:0:0:
256,192,175964,1,0,0:0:0:0:
256,192,176140,1,8,0:0:0:0:
256,192,176229,1,8,0:0:0:0:
256,192,176317,1,8,0:0:0:0:
256,192,176493,1,8,0:0:0:0:
256,192,176670,1,0,0:0:0:0:
256,192,177199,1,0,0:0:0:0:
256,192,177552,1,8,0:0:0:0:
256,192,177640,1,8,0:0:0:0:
256,192,177728,1,8,0:0:0:0:
256,192,177905,1,0,0:0:0:0:
256,192,178258,1,0,0:0:0:0:
256,192,178346,1,0,0:0:0:0:
256,192,178434,1,0,0:0:0:0:
256,192,178611,1,8,0:0:0:0:
256,192,178787,1,8,0:0:0:0:
256,192,178964,1,0,0:0:0:0:
256,192,179140,1,8,0:0:0:0:
256,192,179317,1,8,0:0:0:0:
256,192,179493,1,0,0:0:0:0:
256,192,180023,1,0,0:0:0:0:
256,192,180376,1,8,0:0:0:0:
256,192,180464,1,8,0:0:0:0:
256,192,180552,1,8,0:0:0:0:
256,192,180728,1,0,0:0:0:0:
256,192,181081,1,0,0:0:0:0:
256,192,181170,1,0,0:0:0:0:
256,192,181258,1,0,0:0:0:0:
256,192,181434,1,8,0:0:0:0:
256,192,181523,1,8,0:0:0:0:
256,192,181611,1,8,0:0:0:0:
256,192,181787,1,8,0:0:0:0:
256,192,181964,1,0,0:0:0:0:
256,192,182140,1,8,0:0:0:0:
256,192,182317,1,0,0:0:0:0:
256,192,182846,1,0,0:0:0:0:
256,192,183199,1,8,0:0:0:0:
256,192,183287,1,8,0:0:0:0:
256,192,183375,1,8,0:0:0:0:
256,192,183552,1,0,0:0:0:0:
256,192,183905,1,0,0:0:0:0:
256,192,183993,1,0,0:0:0:0:
256,192,184081,1,0,0:0:0:0:
256,192,184258,1,8,0:0:0:0:
256,192,184346,1,8,0:0:0:0:
256,192,184434,1,8,0:0:0:0:
256,192,184611,1,0,0:0:0:0:
256,192,184787,1,8,0:0:0:0:
256,192,184964,5,8,0:0:0:0:
256,192,185140,1,0,0:0:0:0:
256,192,185670,1,0,0:0:0:0:
256,192,186023,1,0,0:0:0:0:
256,192,186199,1,8,0:0:0:0:
256,192,186375,1,0,0:0:0:0:
224,192,186729,5,0,0:0:0:0:
256,192,187082,1,0,0:0:0:0:
256,192,187170,1,0,0:0:0:0:
256,192,187258,1,8,0:0:0:0:
256,192,187434,1,0,0:0:0:0:
256,192,187611,1,8,0:0:0:0:
256,192,187964,1,4,0:0:0:0:
256,192,188140,1,0,0:0:0:0:
256,192,188317,1,8,0:0:0:0:
256,192,188582,1,0,0:0:0:0:
256,192,188846,1,0,0:0:0:0:
256,192,189376,1,0,0:0:0:0:
256,192,189552,1,0,0:0:0:0:
256,192,189729,1,8,0:0:0:0:
256,192,189993,1,0,0:0:0:0:
256,192,190258,1,0,0:0:0:0:
256,192,190434,1,8,0:0:0:0:
256,192,190787,1,0,0:0:0:0:
256,192,190963,1,0,0:0:0:0:
256,192,191140,1,8,0:0:0:0:
256,192,191405,1,0,0:0:0:0:
256,192,191669,1,0,0:0:0:0:
256,192,192199,1,0,0:0:0:0:
256,192,192375,1,0,0:0:0:0:
256,192,192552,1,8,0:0:0:0:
256,192,192816,1,0,0:0:0:0:
256,192,193081,1,0,0:0:0:0:
256,192,193257,1,8,0:0:0:0:
256,192,193611,1,0,0:0:0:0:
256,192,193787,1,0,0:0:0:0:
256,192,193964,1,8,0:0:0:0:
256,192,194229,1,0,0:0:0:0:
256,192,194493,1,0,0:0:0:0:
256,192,195023,1,0,0:0:0:0:
256,192,195199,1,0,0:0:0:0:
256,192,195376,1,8,0:0:0:0:
256,192,195640,1,0,0:0:0:0:
256,192,195905,1,0,0:0:0:0:
256,192,196081,1,8,0:0:0:0:
256,192,196434,1,0,0:0:0:0:
256,192,196611,1,0,0:0:0:0:
256,192,196787,1,8,0:0:0:0:
256,192,196964,1,0,0:0:0:0:
256,192,197317,1,0,0:0:0:0:
256,192,197493,1,0,0:0:0:0:
256,192,197670,1,8,0:0:0:0:
256,192,198023,1,8,0:0:0:0:
256,192,198376,1,8,0:0:0:0:
256,192,198552,1,8,0:0:0:0:
256,192,198729,1,0,0:0:0:0:
256,192,198905,1,8,0:0:0:0:
256,192,199258,1,0,0:0:0:0:
256,192,199611,1,8,0:0:0:0:
256,192,199788,1,8,0:0:0:0:
256,192,200317,1,8,0:0:0:0:
256,192,200494,1,8,0:0:0:0:
256,192,200670,1,0,0:0:0:0:
256,192,200847,1,0,0:0:0:0:
256,192,201023,1,8,0:0:0:0:
256,192,201200,1,0,0:0:0:0:
256,192,201376,1,8,0:0:0:0:
256,192,201553,1,8,0:0:0:0:
256,192,201729,1,0,0:0:0:0:
256,192,202082,1,0,0:0:0:0:
256,192,202435,1,8,0:0:0:0:
256,192,202612,1,8,0:0:0:0:
256,192,203141,1,8,0:0:0:0:
256,192,203318,1,8,0:0:0:0:
256,192,203494,1,0,0:0:0:0:
256,192,203671,1,0,0:0:0:0:
256,192,203847,1,0,0:0:0:0:
256,192,204024,1,0,0:0:0:0:
256,192,204200,1,8,0:0:0:0:
256,192,204377,1,8,0:0:0:0:
256,192,204553,1,0,0:0:0:0:
256,192,204905,1,0,0:0:0:0:
256,192,205258,1,8,0:0:0:0:
256,192,205435,1,8,0:0:0:0:
256,192,205964,1,8,0:0:0:0:
256,192,206141,1,8,0:0:0:0:
256,192,206317,1,0,0:0:0:0:
256,192,206494,1,0,0:0:0:0:
256,192,206670,1,8,0:0:0:0:
256,192,206847,1,0,0:0:0:0:
256,192,207023,1,8,0:0:0:0:
256,192,207200,1,8,0:0:0:0:
256,192,207376,1,0,0:0:0:0:
256,192,207552,1,0,0:0:0:0:
256,192,207729,1,8,0:0:0:0:
256,192,208082,1,8,0:0:0:0:
256,192,208259,1,8,0:0:0:0:
256,192,208788,1,8,0:0:0:0:
256,192,208965,1,8,0:0:0:0:
256,192,209141,1,0,0:0:0:0:
256,192,209318,1,0,0:0:0:0:
256,192,209493,1,8,0:0:0:0:
256,192,209582,1,8,0:0:0:0:
256,192,209670,1,8,0:0:0:0:
256,192,209758,1,8,0:0:0:0:
256,192,209847,1,8,0:0:0:0:
256,192,210023,1,0,0:0:0:0:
256,192,210200,1,0,0:0:0:0:
256,192,210552,1,0,0:0:0:0:
256,192,210905,1,8,0:0:0:0:
256,192,211082,1,8,0:0:0:0:
256,192,211611,1,8,0:0:0:0:
256,192,211788,1,8,0:0:0:0:
256,192,211964,1,0,0:0:0:0:
256,192,212141,1,8,0:0:0:0:
256,192,212317,1,0,0:0:0:0:
256,192,212493,1,8,0:0:0:0:
256,192,212670,1,0,0:0:0:0:
256,192,212847,1,8,0:0:0:0:
256,192,213023,1,0,0:0:0:0:
256,192,213199,1,8,0:0:0:0:
256,192,213376,1,0,0:0:0:0:
256,192,213729,1,0,0:0:0:0:
256,192,213906,1,8,0:0:0:0:
256,192,214435,1,0,0:0:0:0:
256,192,214612,1,8,0:0:0:0:
256,192,214788,1,0,0:0:0:0:
256,192,214965,1,8,0:0:0:0:
256,192,215141,1,0,0:0:0:0:
256,192,215318,1,8,0:0:0:0:
256,192,215494,1,0,0:0:0:0:
256,192,215670,1,8,0:0:0:0:
256,192,215846,1,0,0:0:0:0:
256,192,216199,1,0,0:0:0:0:
256,192,216552,1,0,0:0:0:0:
256,192,216729,1,8,0:0:0:0:
256,192,217258,1,0,0:0:0:0:
256,192,217435,1,8,0:0:0:0:
256,192,217611,1,0,0:0:0:0:
256,192,217788,1,8,0:0:0:0:
256,192,217964,1,0,0:0:0:0:
256,192,218141,1,8,0:0:0:0:
256,192,218317,1,0,0:0:0:0:
256,192,218494,1,8,0:0:0:0:
256,192,218670,1,0,0:0:0:0:
256,192,219023,1,8,0:0:0:0:
256,192,219376,1,8,0:0:0:0:
256,192,219465,1,8,0:0:0:0:
256,192,219552,1,8,0:0:0:0:
256,192,219905,1,8,0:0:0:0:
256,192,219994,1,8,0:0:0:0:
256,192,220082,1,0,0:0:0:0:
256,192,220435,1,8,0:0:0:0:
256,192,220523,1,0,0:0:0:0:
256,192,220612,1,0,0:0:0:0:
256,192,220964,1,0,0:0:0:0:
256,192,221053,1,0,0:0:0:0:
256,192,221141,1,0,0:0:0:0:
256,192,221318,1,0,0:0:0:0:
256,192,221494,1,12,0:0:0:0:
