osu file format v14

[General]
AudioFilename: audio.mp3
AudioLeadIn: 0
PreviewTime: 63684
Countdown: 0
SampleSet: Soft
StackLeniency: 0.7
Mode: 1
LetterboxInBreaks: 0
WidescreenStoryboard: 0

[Editor]
DistanceSpacing: 0.9
BeatDivisor: 4
GridSize: 32
TimelineZoom: 0.9000001

[Metadata]
Title:Power Trip
TitleUnicode:Power Trip
Artist:Boom Kitty
ArtistUnicode:Boom Kitty
Creator:mikku1
Version:Inner Oni
Source:Geometry Dash SubZero
Tags:drum 'n bass single dnb filthy
BeatmapID:2066832
BeatmapSetID:987967

[Difficulty]
HPDrainRate:5
CircleSize:2
OverallDifficulty:5.5
ApproachRate:0
SliderMultiplier:1.4
SliderTickRate:1

[Events]
//Background and Video events
0,0,"PowerTrip.jpg",0,0
//Break Periods
//Storyboard Layer 0 (Background)
//Storyboard Layer 1 (Fail)
//Storyboard Layer 2 (Pass)
//Storyboard Layer 3 (Foreground)
//Storyboard Sound Samples

[TimingPoints]
199.685800766845,352.941176470588,4,1,0,100,1,0
1611,-66.6666666666667,4,1,0,100,0,0
1964,-200,4,2,0,50,0,0
5758,-100,4,1,0,100,0,0
7214,-66.6666666666667,4,1,0,100,0,0
7614,-200,4,2,0,50,0,0
11405,-178.571428571429,4,1,0,53,0,0
11582,-161.290322580645,4,1,0,56,0,0
11758,-147.058823529412,4,1,0,65,0,0
11934,-135.135135135135,4,1,0,71,0,0
12111,-125,4,1,0,77,0,0
12287,-116.279069767442,4,1,0,83,0,0
12420,-112.359550561798,4,1,0,86,0,0
12508,-108.695652173913,4,1,0,89,0,0
12640,-102.040816326531,4,1,0,92,0,0
12817,-100,4,1,0,100,0,0
12949,-100,4,2,0,100,0,0
13346,-100,4,1,0,100,0,0
13478,-100,4,2,0,100,0,0
13876,-100,4,1,0,100,0,0
14008,-100,4,2,0,100,0,0
14229,-100,4,1,0,100,0,0
15773,-100,4,2,0,100,0,0
16037,-100,4,1,0,100,0,0
16302,-100,4,2,0,100,0,0
16479,-100,4,1,0,100,0,0
16832,-100,4,2,0,100,0,0
17008,-100,4,1,0,100,0,0
18243,-100,4,2,0,100,0,0
18332,-100,4,1,0,100,0,0
18596,-100,4,2,0,100,0,0
18993,-100,4,1,0,100,0,0
19126,-100,4,2,0,100,0,0
19390,-100,4,1,0,100,0,0
19655,-100,4,2,0,100,0,0
19829,-100,4,1,0,100,0,0
20361,-100,4,2,0,100,0,0
20626,-100,4,1,0,100,0,0
21420,-100,4,2,0,100,0,0
21684,-100,4,1,0,100,0,0
21949,-100,4,2,0,100,0,0
22126,-100,4,1,0,100,0,0
22479,-100,4,2,0,100,0,0
22655,-100,4,1,0,100,0,0
23008,-100,4,2,0,100,0,0
23096,-100,4,1,0,100,0,0
23184,-100,4,2,0,100,0,0
23273,-100,4,1,0,100,0,0
24140,-133.333333333333,4,2,0,100,0,0
32670,-125,4,2,0,100,0,0
33199,-117.647058823529,4,2,0,100,0,0
33552,-111.111111111111,4,2,0,100,0,0
33729,-105.263157894737,4,2,0,100,0,0
34082,-100,4,2,0,100,0,0
35405,-100,4,1,0,100,0,0
120023,-200,4,1,0,50,0,0
131449,-133.333333333333,4,1,0,75,0,0
141287,-114.285714285714,4,1,0,88,0,0
142390,-106.666666666667,4,1,0,94,0,0
142743,-100,4,1,0,100,0,0
164582,-102.564102564103,4,1,0,100,0,0
164670,-105.263157894737,4,1,0,100,0,0
164846,-111.111111111111,4,1,0,100,0,0
165023,-117.647058823529,4,1,0,100,0,0
165199,-125,4,1,0,100,0,0
165376,-100,4,1,0,100,0,0
186729,-117.647058823529,4,1,0,100,0,0
187082,-142.857142857143,4,1,0,100,0,0
187170,-148.148148148148,4,1,0,100,0,0
187258,-153.846153846154,4,1,0,100,0,0
187434,-166.666666666667,4,1,0,100,0,0
187611,-181.818181818182,4,1,0,100,0,0
187964,-250,4,1,0,40,0,0
188140,-243.90243902439,4,1,0,41,0,0
188229,-240.963855421687,4,1,0,41,0,0
188317,-238.095238095238,4,1,0,42,0,0
188493,-232.558139534884,4,1,0,43,0,0
188582,-229.885057471264,4,1,0,43,0,0
188670,-227.272727272727,4,1,0,44,0,0
188758,-224.719101123595,4,1,0,44,0,0
188846,-222.222222222222,4,1,0,45,0,0
189023,-217.391304347826,4,1,0,46,0,0
189111,-215.05376344086,4,1,0,46,0,0
189199,-212.765957446809,4,1,0,47,0,0
189376,-208.333333333333,4,1,0,48,0,0
189552,-204.081632653061,4,1,0,49,0,0
189640,-202.020202020202,4,1,0,49,0,0
189729,-200,4,1,0,50,0,0
189905,-196.078431372549,4,1,0,51,0,0
189993,-194.174757281553,4,1,0,51,0,0
190082,-192.307692307692,4,1,0,52,0,0
190258,-188.679245283019,4,1,0,53,0,0
190346,-186.915887850467,4,1,0,53,0,0
190434,-185.185185185185,4,1,0,54,0,0
190523,-183.48623853211,4,1,0,54,0,0
190611,-181.818181818182,4,1,0,55,0,0
190787,-178.571428571429,4,1,0,56,0,0
190964,-175.438596491228,4,1,0,57,0,0
191052,-173.913043478261,4,1,0,57,0,0
191140,-172.413793103448,4,1,0,58,0,0
191317,-169.491525423729,4,1,0,59,0,0
191405,-168.067226890756,4,1,0,59,0,0
191493,-166.666666666667,4,1,0,60,0,0
191582,-165.289256198347,4,1,0,60,0,0
191670,-163.934426229508,4,1,0,61,0,0
191846,-161.290322580645,4,1,0,62,0,0
191934,-160,4,1,0,62,0,0
192023,-158.730158730159,4,1,0,63,0,0
192199,-156.25,4,1,0,64,0,0
192376,-153.846153846154,4,1,0,65,0,0
192464,-152.671755725191,4,1,0,65,0,0
192552,-151.515151515152,4,1,0,66,0,0
192729,-149.253731343284,4,1,0,67,0,0
192817,-148.148148148148,4,1,0,67,0,0
192905,-147.058823529412,4,1,0,68,0,0
193082,-144.927536231884,4,1,0,69,0,0
193170,-143.884892086331,4,1,0,69,0,0
193258,-142.857142857143,4,1,0,70,0,0
193346,-141.843971631206,4,1,0,70,0,0
193434,-140.845070422535,4,1,0,71,0,0
193611,-138.888888888889,4,1,0,72,0,0
193787,-136.986301369863,4,1,0,73,0,0
193876,-136.054421768707,4,1,0,73,0,0
193964,-135.135135135135,4,1,0,74,0,0
194140,-133.333333333333,4,1,0,75,0,0
194229,-132.450331125828,4,1,0,75,0,0
194317,-131.578947368421,4,1,0,76,0,0
194405,-130.718954248366,4,1,0,76,0,0
194493,-129.87012987013,4,1,0,77,0,0
194670,-128.205128205128,4,1,0,78,0,0
194758,-127.388535031847,4,1,0,78,0,0
194846,-126.582278481013,4,1,0,79,0,0
195023,-125,4,1,0,80,0,0
195199,-123.456790123457,4,1,0,81,0,0
195287,-122.699386503067,4,1,0,81,0,0
195376,-121.951219512195,4,1,0,82,0,0
195552,-120.481927710843,4,1,0,83,0,0
195640,-119.760479041916,4,1,0,83,0,0
195729,-119.047619047619,4,1,0,84,0,0
195905,-117.647058823529,4,1,0,85,0,0
195993,-116.959064327485,4,1,0,85,0,0
196082,-116.279069767442,4,1,0,86,0,0
196170,-115.606936416185,4,1,0,86,0,0
196258,-114.942528735632,4,1,0,87,0,0
196434,-113.636363636364,4,1,0,88,0,0
196523,-112.994350282486,4,1,0,88,0,0
196611,-112.359550561798,4,1,0,89,0,0
196699,-111.731843575419,4,1,0,89,0,0
196787,-111.111111111111,4,1,0,90,0,0
196964,-109.89010989011,4,1,0,91,0,0
197052,-109.289617486339,4,1,0,91,0,0
197140,-108.695652173913,4,1,0,92,0,0
197229,-108.108108108108,4,1,0,92,0,0
197317,-107.52688172043,4,1,0,93,0,0
197493,-106.382978723404,4,1,0,94,0,0
197582,-105.820105820106,4,1,0,94,0,0
197670,-105.263157894737,4,1,0,95,0,0
197758,-104.712041884817,4,1,0,95,0,0
197846,-104.166666666667,4,1,0,96,0,0
198023,-103.092783505155,4,1,0,97,0,0
198111,-102.564102564103,4,1,0,97,0,0
198199,-102.040816326531,4,1,0,98,0,0
198287,-101.522842639594,4,1,0,98,0,0
198376,-101.010101010101,4,1,0,99,0,0
198552,-100,4,1,0,100,0,0

[HitObjects]
256,192,199,12,0,1434,0:0:0:0:
256,192,1611,5,12,0:0:0:0:
256,192,2317,1,8,0:0:0:0:
256,192,2670,1,0,0:0:0:0:
256,192,2758,1,8,0:0:0:0:
256,192,2846,1,0,0:0:0:0:
256,192,3023,1,8,0:0:0:0:
256,192,3376,1,0,0:0:0:0:
256,192,3464,1,8,0:0:0:0:
256,192,3552,1,0,0:0:0:0:
256,192,3729,1,8,0:0:0:0:
256,192,4082,1,0,0:0:0:0:
256,192,4170,1,8,0:0:0:0:
256,192,4258,1,0,0:0:0:0:
256,192,4434,1,8,0:0:0:0:
256,192,4787,1,0,0:0:0:0:
256,192,4875,1,8,0:0:0:0:
256,192,4963,1,0,0:0:0:0:
256,192,5140,1,8,0:0:0:0:
256,192,5493,1,0,0:0:0:0:
256,192,5581,1,8,0:0:0:0:
256,192,5669,1,0,0:0:0:0:
256,192,5846,1,8,0:0:0:0:
256,192,5934,1,0,0:0:0:0:
256,192,6023,1,8,0:0:0:0:
256,192,6111,1,0,0:0:0:0:
256,192,6199,1,8,0:0:0:0:
256,192,6376,1,0,0:0:0:0:
256,192,6464,1,8,0:0:0:0:
256,192,6552,1,0,0:0:0:0:
256,192,6640,1,8,0:0:0:0:
256,192,6729,1,8,0:0:0:0:
256,192,6905,1,0,0:0:0:0:
256,192,6993,1,0,0:0:0:0:
256,192,7082,1,0,0:0:0:0:
256,192,7170,1,0,0:0:0:0:
256,192,7258,5,12,0:0:0:0:
256,192,7964,1,8,0:0:0:0:
256,192,8317,1,0,0:0:0:0:
256,192,8405,1,8,0:0:0:0:
256,192,8493,1,0,0:0:0:0:
256,192,8670,1,8,0:0:0:0:
256,192,9023,1,0,0:0:0:0:
256,192,9111,1,8,0:0:0:0:
256,192,9199,1,0,0:0:0:0:
256,192,9376,1,8,0:0:0:0:
256,192,9729,1,0,0:0:0:0:
256,192,9817,1,8,0:0:0:0:
256,192,9905,1,0,0:0:0:0:
256,192,10082,1,8,0:0:0:0:
256,192,10435,1,0,0:0:0:0:
256,192,10523,1,8,0:0:0:0:
256,192,10611,1,0,0:0:0:0:
256,192,10787,1,8,0:0:0:0:
256,192,11140,1,0,0:0:0:0:
256,192,11228,1,8,0:0:0:0:
256,192,11316,1,0,0:0:0:0:
256,192,11493,1,8,0:0:0:0:
256,192,11669,1,8,0:0:0:0:
256,192,11846,1,8,0:0:0:0:
256,192,12022,1,8,0:0:0:0:
256,192,12199,1,8,0:0:0:0:
256,192,12376,1,8,0:0:0:0:
256,192,12464,1,8,0:0:0:0:
256,192,12552,1,0,0:0:0:0:
256,192,12729,1,0,0:0:0:0:
256,192,12905,1,8,0:0:0:0:
256,192,12993,1,0,0:0:0:0:
256,192,13082,1,0,0:0:0:0:
256,192,13170,1,0,0:0:0:0:
256,192,13258,1,0,0:0:0:0:
256,192,13435,1,8,0:0:0:0:
256,192,13523,1,0,0:0:0:0:
256,192,13612,1,0,0:0:0:0:
256,192,13700,1,0,0:0:0:0:
256,192,13788,1,0,0:0:0:0:
256,192,13964,1,8,0:0:0:0:
256,192,14052,1,0,0:0:0:0:
256,192,14141,1,0,0:0:0:0:
256,192,14317,1,0,0:0:0:0:
256,192,14493,1,8,0:0:0:0:
256,192,14670,1,8,0:0:0:0:
256,192,14846,1,8,0:0:0:0:
256,192,14934,1,8,0:0:0:0:
256,192,15023,1,0,0:0:0:0:
256,192,15111,1,0,0:0:0:0:
256,192,15199,1,0,0:0:0:0:
256,192,15287,1,0,0:0:0:0:
256,192,15376,1,0,0:0:0:0:
256,192,15464,1,0,0:0:0:0:
256,192,15552,1,0,0:0:0:0:
256,192,15640,1,0,0:0:0:0:
256,192,15729,1,8,0:0:0:0:
256,192,15817,1,0,0:0:0:0:
256,192,15905,1,0,0:0:0:0:
256,192,15993,1,0,0:0:0:0:
256,192,16082,1,0,0:0:0:0:
256,192,16258,1,8,0:0:0:0:
256,192,16346,1,0,0:0:0:0:
256,192,16434,1,0,0:0:0:0:
256,192,16523,1,0,0:0:0:0:
256,192,16611,1,8,0:0:0:0:
256,192,16787,1,8,0:0:0:0:
256,192,16876,1,0,0:0:0:0:
256,192,16964,1,0,0:0:0:0:
256,192,17052,1,8,0:0:0:0:
256,192,17140,1,0,0:0:0:0:
256,192,17317,1,8,0:0:0:0:
256,192,17493,1,0,0:0:0:0:
256,192,17670,1,8,0:0:0:0:
256,192,17846,1,0,0:0:0:0:
256,192,18023,1,0,0:0:0:0:
256,192,18111,1,0,0:0:0:0:
256,192,18199,1,8,0:0:0:0:
256,192,18287,1,0,0:0:0:0:
256,192,18376,1,8,0:0:0:0:
256,192,18464,1,8,0:0:0:0:
256,192,18552,1,8,0:0:0:0:
256,192,18640,1,0,0:0:0:0:
256,192,18729,1,0,0:0:0:0:
256,192,18817,1,0,0:0:0:0:
256,192,18905,1,8,0:0:0:0:
256,192,19082,1,8,0:0:0:0:
256,192,19170,1,0,0:0:0:0:
256,192,19258,1,0,0:0:0:0:
256,192,19346,1,0,0:0:0:0:
256,192,19434,1,8,0:0:0:0:
256,192,19611,1,8,0:0:0:0:
256,192,19699,1,0,0:0:0:0:
256,192,19787,1,0,0:0:0:0:
256,192,19876,1,8,0:0:0:0:
256,192,19964,1,8,0:0:0:0:
256,192,20140,1,8,0:0:0:0:
256,192,20317,1,8,0:0:0:0:
256,192,20405,1,0,0:0:0:0:
256,192,20493,1,8,0:0:0:0:
256,192,20582,1,8,0:0:0:0:
256,192,20670,1,0,0:0:0:0:
256,192,20846,1,8,0:0:0:0:
256,192,20934,1,8,0:0:0:0:
256,192,21023,1,0,0:0:0:0:
256,192,21199,1,0,0:0:0:0:
256,192,21287,1,0,0:0:0:0:
256,192,21376,5,8,0:0:0:0:
256,192,21464,1,0,0:0:0:0:
256,192,21552,1,0,0:0:0:0:
256,192,21640,1,0,0:0:0:0:
256,192,21729,1,0,0:0:0:0:
256,192,21905,1,8,0:0:0:0:
256,192,21993,1,0,0:0:0:0:
256,192,22082,1,0,0:0:0:0:
256,192,22170,1,0,0:0:0:0:
256,192,22258,1,8,0:0:0:0:
256,192,22434,1,8,0:0:0:0:
256,192,22523,1,0,0:0:0:0:
256,192,22611,1,0,0:0:0:0:
256,192,22699,1,8,0:0:0:0:
256,192,22787,1,8,0:0:0:0:
256,192,22964,1,8,0:0:0:0:
256,192,23052,1,0,0:0:0:0:
256,192,23140,1,0,0:0:0:0:
256,192,23229,1,0,0:0:0:0:
256,192,23317,1,8,0:0:0:0:
256,192,23405,1,0,0:0:0:0:
256,192,23493,5,8,0:0:0:0:
256,192,23611,1,8,0:0:0:0:
256,192,23729,1,8,0:0:0:0:
256,192,23846,1,0,0:0:0:0:
256,192,23964,1,0,0:0:0:0:
256,192,24082,1,0,0:0:0:0:
256,192,24199,1,12,0:0:0:0:
256,192,24552,1,0,0:0:0:0:
256,192,24729,1,12,0:0:0:0:
256,192,25082,1,0,0:0:0:0:
256,192,25170,1,0,0:0:0:0:
256,192,25258,1,12,0:0:0:0:
256,192,25434,1,0,0:0:0:0:
256,192,25787,1,8,0:0:0:0:
256,192,25876,1,0,0:0:0:0:
256,192,25964,1,8,0:0:0:0:
256,192,26052,1,0,0:0:0:0:
256,192,26140,1,8,0:0:0:0:
256,192,26317,1,12,0:0:0:0:
256,192,26493,1,0,0:0:0:0:
256,192,26582,1,0,0:0:0:0:
256,192,26670,1,12,0:0:0:0:
256,192,26846,1,12,0:0:0:0:
256,192,27023,1,12,0:0:0:0:
256,192,27376,1,0,0:0:0:0:
256,192,27552,1,12,0:0:0:0:
256,192,27905,1,8,0:0:0:0:
256,192,27993,1,0,0:0:0:0:
256,192,28082,1,12,0:0:0:0:
256,192,28258,1,0,0:0:0:0:
256,192,28434,1,12,0:0:0:0:
256,192,28611,1,8,0:0:0:0:
256,192,28699,1,0,0:0:0:0:
256,192,28787,1,8,0:0:0:0:
256,192,28876,1,0,0:0:0:0:
256,192,28964,1,12,0:0:0:0:
256,192,29140,1,12,0:0:0:0:
256,192,29317,1,8,0:0:0:0:
256,192,29405,1,0,0:0:0:0:
256,192,29493,1,12,0:0:0:0:
256,192,29670,1,12,0:0:0:0:
256,192,29846,1,12,0:0:0:0:
256,192,30199,1,0,0:0:0:0:
256,192,30376,1,12,0:0:0:0:
256,192,30729,1,0,0:0:0:0:
256,192,30817,1,0,0:0:0:0:
256,192,30905,1,12,0:0:0:0:
256,192,31082,1,0,0:0:0:0:
256,192,31434,1,8,0:0:0:0:
256,192,31523,1,0,0:0:0:0:
256,192,31611,1,0,0:0:0:0:
256,192,31699,1,0,0:0:0:0:
256,192,31787,1,12,0:0:0:0:
256,192,31964,1,12,0:0:0:0:
256,192,32140,1,0,0:0:0:0:
256,192,32229,1,0,0:0:0:0:
256,192,32317,1,12,0:0:0:0:
256,192,32493,1,12,0:0:0:0:
256,192,32670,1,12,0:0:0:0:
256,192,32934,1,0,0:0:0:0:
256,192,33023,1,12,0:0:0:0:
256,192,33199,1,12,0:0:0:0:
256,192,33376,1,0,0:0:0:0:
256,192,33552,1,12,0:0:0:0:
256,192,33729,1,12,0:0:0:0:
256,192,33905,1,0,0:0:0:0:
256,192,34082,1,8,0:0:0:0:
256,192,34170,1,8,0:0:0:0:
256,192,34258,1,8,0:0:0:0:
256,192,34346,1,8,0:0:0:0:
256,192,34434,1,0,0:0:0:0:
256,192,34611,1,8,0:0:0:0:
256,192,34699,1,8,0:0:0:0:
256,192,34787,1,0,0:0:0:0:
256,192,34964,1,8,0:0:0:0:
256,192,35052,1,8,0:0:0:0:
256,192,35140,1,0,0:0:0:0:
256,192,35317,1,8,0:0:0:0:
256,192,35493,1,12,0:0:0:0:
256,192,35846,1,0,0:0:0:0:
256,192,36023,1,0,0:0:0:0:
256,192,36376,1,0,0:0:0:0:
256,192,36464,1,0,0:0:0:0:
256,192,36552,1,0,0:0:0:0:
256,192,36729,1,0,0:0:0:0:
256,192,37082,1,0,0:0:0:0:
256,192,37170,1,0,0:0:0:0:
256,192,37258,1,0,0:0:0:0:
256,192,37346,1,0,0:0:0:0:
256,192,37434,1,0,0:0:0:0:
256,192,37611,1,0,0:0:0:0:
256,192,37787,1,0,0:0:0:0:
256,192,37876,1,0,0:0:0:0:
256,192,37964,1,12,0:0:0:0:
256,192,38140,1,12,0:0:0:0:
256,192,38317,1,12,0:0:0:0:
256,192,38670,1,0,0:0:0:0:
256,192,38846,1,0,0:0:0:0:
256,192,39199,1,0,0:0:0:0:
256,192,39287,1,0,0:0:0:0:
256,192,39376,1,0,0:0:0:0:
256,192,39552,1,0,0:0:0:0:
256,192,39905,1,0,0:0:0:0:
256,192,39993,1,0,0:0:0:0:
256,192,40082,1,0,0:0:0:0:
256,192,40170,1,0,0:0:0:0:
256,192,40258,1,0,0:0:0:0:
256,192,40434,1,0,0:0:0:0:
256,192,40611,1,0,0:0:0:0:
256,192,40699,1,0,0:0:0:0:
256,192,40787,1,12,0:0:0:0:
256,192,40964,1,0,0:0:0:0:
256,192,41140,1,12,0:0:0:0:
256,192,41493,1,0,0:0:0:0:
256,192,41670,1,0,0:0:0:0:
256,192,42023,1,0,0:0:0:0:
256,192,42111,1,0,0:0:0:0:
256,192,42199,1,0,0:0:0:0:
256,192,42376,1,0,0:0:0:0:
256,192,42729,1,0,0:0:0:0:
256,192,42817,1,0,0:0:0:0:
256,192,42905,1,0,0:0:0:0:
256,192,42993,1,0,0:0:0:0:
256,192,43081,1,0,0:0:0:0:
256,192,43258,1,0,0:0:0:0:
256,192,43434,1,0,0:0:0:0:
256,192,43523,1,0,0:0:0:0:
256,192,43611,1,0,0:0:0:0:
256,192,43787,1,0,0:0:0:0:
256,192,43964,1,0,0:0:0:0:
256,192,44229,1,0,0:0:0:0:
256,192,44317,1,0,0:0:0:0:
256,192,44493,1,0,0:0:0:0:
256,192,44670,1,0,0:0:0:0:
256,192,44846,1,0,0:0:0:0:
256,192,45023,1,0,0:0:0:0:
256,192,45199,1,0,0:0:0:0:
256,192,45552,1,0,0:0:0:0:
256,192,45905,1,0,0:0:0:0:
256,192,46081,1,0,0:0:0:0:
256,192,46258,1,0,0:0:0:0:
256,192,46346,1,0,0:0:0:0:
256,192,46434,1,8,0:0:0:0:
256,192,46523,1,8,0:0:0:0:
256,192,46611,1,0,0:0:0:0:
256,192,46699,1,8,0:0:0:0:
256,192,46787,1,0,0:0:0:0:
256,192,46876,1,0,0:0:0:0:
256,192,46964,1,8,0:0:0:0:
256,192,47140,1,8,0:0:0:0:
256,192,47317,1,8,0:0:0:0:
256,192,47405,1,8,0:0:0:0:
256,192,47493,1,0,0:0:0:0:
256,192,47582,1,8,0:0:0:0:
256,192,47670,1,0,0:0:0:0:
256,192,47846,1,8,0:0:0:0:
256,192,48023,1,8,0:0:0:0:
256,192,48199,1,0,0:0:0:0:
256,192,48287,1,8,0:0:0:0:
256,192,48376,1,0,0:0:0:0:
256,192,48552,1,8,0:0:0:0:
256,192,48729,1,8,0:0:0:0:
256,192,48817,1,8,0:0:0:0:
256,192,48905,1,0,0:0:0:0:
256,192,48993,1,8,0:0:0:0:
256,192,49082,1,0,0:0:0:0:
256,192,49258,1,8,0:0:0:0:
256,192,49434,1,8,0:0:0:0:
256,192,49523,1,8,0:0:0:0:
256,192,49611,1,0,0:0:0:0:
256,192,49700,1,0,0:0:0:0:
256,192,49788,1,8,0:0:0:0:
256,192,49964,1,8,0:0:0:0:
256,192,50141,1,8,0:0:0:0:
256,192,50229,1,8,0:0:0:0:
256,192,50317,1,0,0:0:0:0:
256,192,50406,1,8,0:0:0:0:
256,192,50494,1,0,0:0:0:0:
256,192,50670,1,8,0:0:0:0:
256,192,50847,1,8,0:0:0:0:
256,192,51023,1,0,0:0:0:0:
256,192,51111,1,8,0:0:0:0:
256,192,51200,1,0,0:0:0:0:
256,192,51376,1,8,0:0:0:0:
256,192,51553,1,0,0:0:0:0:
256,192,51641,1,0,0:0:0:0:
256,192,51729,1,8,0:0:0:0:
256,192,51817,1,8,0:0:0:0:
256,192,51906,1,0,0:0:0:0:
256,192,52082,1,8,0:0:0:0:
256,192,52258,1,8,0:0:0:0:
256,192,52347,1,8,0:0:0:0:
256,192,52434,1,0,0:0:0:0:
256,192,52523,1,0,0:0:0:0:
256,192,52611,1,8,0:0:0:0:
256,192,52787,1,8,0:0:0:0:
256,192,52964,1,8,0:0:0:0:
256,192,53052,1,8,0:0:0:0:
256,192,53140,1,0,0:0:0:0:
256,192,53229,1,8,0:0:0:0:
256,192,53317,1,0,0:0:0:0:
256,192,53493,1,8,0:0:0:0:
256,192,53670,1,8,0:0:0:0:
256,192,53846,1,0,0:0:0:0:
256,192,53934,1,8,0:0:0:0:
256,192,54023,1,0,0:0:0:0:
256,192,54199,1,8,0:0:0:0:
256,192,54376,1,8,0:0:0:0:
256,192,54464,1,8,0:0:0:0:
256,192,54552,1,0,0:0:0:0:
256,192,54640,1,8,0:0:0:0:
256,192,54729,1,0,0:0:0:0:
256,192,54905,1,8,0:0:0:0:
256,192,55081,1,8,0:0:0:0:
256,192,55170,1,8,0:0:0:0:
256,192,55258,1,0,0:0:0:0:
256,192,55347,1,0,0:0:0:0:
256,192,55435,1,8,0:0:0:0:
256,192,55611,1,8,0:0:0:0:
256,192,55788,1,8,0:0:0:0:
256,192,55876,1,8,0:0:0:0:
256,192,55964,1,0,0:0:0:0:
256,192,56053,1,8,0:0:0:0:
256,192,56141,1,0,0:0:0:0:
256,192,56317,5,8,0:0:0:0:
256,192,56494,1,8,0:0:0:0:
256,192,56670,1,0,0:0:0:0:
256,192,56758,1,0,0:0:0:0:
256,192,56847,1,8,0:0:0:0:
256,192,57023,1,8,0:0:0:0:
256,192,57200,1,0,0:0:0:0:
256,192,57288,1,0,0:0:0:0:
256,192,57376,1,8,0:0:0:0:
256,192,57464,1,8,0:0:0:0:
256,192,57553,1,0,0:0:0:0:
256,192,57729,1,8,0:0:0:0:
256,192,57817,1,8,0:0:0:0:
256,192,57905,1,8,0:0:0:0:
256,192,57994,1,8,0:0:0:0:
256,192,58082,1,0,0:0:0:0:
256,192,58171,1,0,0:0:0:0:
256,192,58259,1,8,0:0:0:0:
256,192,58435,1,8,0:0:0:0:
256,192,58612,1,8,0:0:0:0:
256,192,58700,1,8,0:0:0:0:
256,192,58788,1,0,0:0:0:0:
256,192,58877,1,8,0:0:0:0:
256,192,58965,1,0,0:0:0:0:
256,192,59141,1,8,0:0:0:0:
256,192,59318,1,8,0:0:0:0:
256,192,59494,1,0,0:0:0:0:
256,192,59582,1,8,0:0:0:0:
256,192,59671,1,0,0:0:0:0:
256,192,59847,1,8,0:0:0:0:
256,192,60024,1,8,0:0:0:0:
256,192,60112,1,8,0:0:0:0:
256,192,60200,1,0,0:0:0:0:
256,192,60288,1,8,0:0:0:0:
256,192,60377,1,0,0:0:0:0:
256,192,60553,1,8,0:0:0:0:
256,192,60729,1,8,0:0:0:0:
256,192,60818,1,8,0:0:0:0:
256,192,60906,1,0,0:0:0:0:
256,192,60993,1,0,0:0:0:0:
256,192,61083,1,8,0:0:0:0:
256,192,61259,1,8,0:0:0:0:
256,192,61434,1,8,0:0:0:0:
256,192,61524,1,8,0:0:0:0:
256,192,61612,1,0,0:0:0:0:
256,192,61699,1,8,0:0:0:0:
256,192,61787,1,0,0:0:0:0:
256,192,61965,5,8,0:0:0:0:
256,192,62140,1,8,0:0:0:0:
256,192,62318,1,0,0:0:0:0:
256,192,62406,1,8,0:0:0:0:
256,192,62493,1,0,0:0:0:0:
256,192,62671,1,8,0:0:0:0:
256,192,62846,1,0,0:0:0:0:
256,192,62934,1,0,0:0:0:0:
256,192,63024,1,8,0:0:0:0:
256,192,63112,1,8,0:0:0:0:
256,192,63199,1,0,0:0:0:0:
256,192,63377,1,8,0:0:0:0:
256,192,63553,1,8,0:0:0:0:
256,192,63640,1,8,0:0:0:0:
256,192,63729,6,0,L|256:288,1,70
256,192,64082,12,0,66023,0:0:0:0:
256,192,66199,5,0,0:0:0:0:
256,192,66552,1,4,0:0:0:0:
256,192,67258,12,0,68846,0:0:0:0:
256,192,69023,5,0,0:0:0:0:
256,192,69376,1,8,0:0:0:0:
256,192,69464,1,0,0:0:0:0:
256,192,69552,1,0,0:0:0:0:
256,192,69640,1,8,0:0:0:0:
256,192,69729,1,8,0:0:0:0:
256,192,69905,1,8,0:0:0:0:
256,192,69993,1,8,0:0:0:0:
256,192,70170,1,0,0:0:0:0:
256,192,70258,1,0,0:0:0:0:
256,192,70346,1,0,0:0:0:0:
256,192,70434,1,8,0:0:0:0:
256,192,70611,1,8,0:0:0:0:
256,192,70787,1,0,0:0:0:0:
256,192,70876,1,0,0:0:0:0:
256,192,70964,1,8,0:0:0:0:
256,192,71052,1,8,0:0:0:0:
256,192,71140,1,8,0:0:0:0:
256,192,71317,1,0,0:0:0:0:
256,192,71405,1,0,0:0:0:0:
256,192,71493,1,8,0:0:0:0:
256,192,71582,1,8,0:0:0:0:
256,192,71670,1,8,0:0:0:0:
256,192,71846,1,8,0:0:0:0:
256,192,71934,1,8,0:0:0:0:
256,192,72023,1,8,0:0:0:0:
256,192,72199,1,0,0:0:0:0:
256,192,72287,1,0,0:0:0:0:
256,192,72376,1,0,0:0:0:0:
256,192,72464,1,8,0:0:0:0:
256,192,72552,1,8,0:0:0:0:
256,192,72729,1,8,0:0:0:0:
256,192,72817,1,8,0:0:0:0:
256,192,72993,1,8,0:0:0:0:
256,192,73082,1,0,0:0:0:0:
256,192,73170,1,0,0:0:0:0:
256,192,73258,1,8,0:0:0:0:
256,192,73434,1,8,0:0:0:0:
256,192,73611,1,0,0:0:0:0:
256,192,73699,1,0,0:0:0:0:
256,192,73787,1,8,0:0:0:0:
256,192,73876,1,8,0:0:0:0:
256,192,73964,1,8,0:0:0:0:
256,192,74140,1,0,0:0:0:0:
256,192,74229,1,0,0:0:0:0:
256,192,74317,1,8,0:0:0:0:
256,192,74405,1,8,0:0:0:0:
256,192,74493,1,8,0:0:0:0:
256,192,74670,1,8,0:0:0:0:
256,192,74758,1,0,0:0:0:0:
256,192,74846,1,8,0:0:0:0:
256,192,75023,1,8,0:0:0:0:
256,192,75111,1,0,0:0:0:0:
256,192,75199,1,0,0:0:0:0:
256,192,75287,1,8,0:0:0:0:
256,192,75376,1,8,0:0:0:0:
256,192,75552,1,8,0:0:0:0:
256,192,75640,1,8,0:0:0:0:
256,192,75817,1,0,0:0:0:0:
256,192,75905,1,0,0:0:0:0:
256,192,75993,1,0,0:0:0:0:
256,192,76081,1,8,0:0:0:0:
256,192,76258,1,8,0:0:0:0:
256,192,76346,1,8,0:0:0:0:
256,192,76434,1,0,0:0:0:0:
256,192,76611,1,0,0:0:0:0:
256,192,76699,1,0,0:0:0:0:
256,192,76787,1,8,0:0:0:0:
256,192,76964,1,8,0:0:0:0:
256,192,77052,1,8,0:0:0:0:
256,192,77140,1,8,0:0:0:0:
256,192,77229,1,8,0:0:0:0:
256,192,77317,1,0,0:0:0:0:
256,192,77493,1,8,0:0:0:0:
256,192,77670,1,8,0:0:0:0:
256,192,77758,1,8,0:0:0:0:
256,192,77846,1,0,0:0:0:0:
256,192,78111,1,0,0:0:0:0:
256,192,78199,1,8,0:0:0:0:
256,192,78376,1,8,0:0:0:0:
256,192,78464,1,0,0:0:0:0:
256,192,78640,1,0,0:0:0:0:
256,192,78729,1,8,0:0:0:0:
256,192,78905,1,8,0:0:0:0:
256,192,79081,1,8,0:0:0:0:
256,192,79258,1,0,0:0:0:0:
256,192,79346,1,0,0:0:0:0:
256,192,79434,1,8,0:0:0:0:
256,192,79523,1,0,0:0:0:0:
256,192,79611,1,8,0:0:0:0:
256,192,79787,1,8,0:0:0:0:
256,192,79876,1,0,0:0:0:0:
256,192,79964,1,0,0:0:0:0:
256,192,80140,1,8,0:0:0:0:
256,192,80229,1,8,0:0:0:0:
256,192,80317,1,0,0:0:0:0:
256,192,80493,1,8,0:0:0:0:
256,192,80670,1,8,0:0:0:0:
256,192,80758,1,0,0:0:0:0:
256,192,80846,1,0,0:0:0:0:
256,192,80934,1,8,0:0:0:0:
256,192,81023,1,8,0:0:0:0:
256,192,81199,1,8,0:0:0:0:
256,192,81287,1,8,0:0:0:0:
256,192,81464,1,0,0:0:0:0:
256,192,81552,1,0,0:0:0:0:
256,192,81640,1,0,0:0:0:0:
256,192,81728,1,8,0:0:0:0:
256,192,81905,1,8,0:0:0:0:
256,192,82081,1,0,0:0:0:0:
256,192,82170,1,0,0:0:0:0:
256,192,82258,1,8,0:0:0:0:
256,192,82346,1,8,0:0:0:0:
256,192,82434,1,8,0:0:0:0:
256,192,82611,1,0,0:0:0:0:
256,192,82699,1,0,0:0:0:0:
256,192,82787,1,8,0:0:0:0:
256,192,82876,1,8,0:0:0:0:
256,192,82964,1,8,0:0:0:0:
256,192,83140,1,8,0:0:0:0:
256,192,83228,1,8,0:0:0:0:
256,192,83317,1,8,0:0:0:0:
256,192,83493,1,0,0:0:0:0:
256,192,83581,1,0,0:0:0:0:
256,192,83670,1,0,0:0:0:0:
256,192,83758,1,8,0:0:0:0:
256,192,83846,1,8,0:0:0:0:
256,192,84023,1,8,0:0:0:0:
256,192,84111,1,8,0:0:0:0:
256,192,84287,1,8,0:0:0:0:
256,192,84376,1,0,0:0:0:0:
256,192,84464,1,0,0:0:0:0:
256,192,84552,1,8,0:0:0:0:
256,192,84728,1,8,0:0:0:0:
256,192,84905,1,0,0:0:0:0:
256,192,84993,1,0,0:0:0:0:
256,192,85081,1,8,0:0:0:0:
256,192,85170,1,8,0:0:0:0:
256,192,85258,1,8,0:0:0:0:
256,192,85434,1,0,0:0:0:0:
256,192,85523,1,0,0:0:0:0:
256,192,85611,1,8,0:0:0:0:
256,192,85699,1,8,0:0:0:0:
256,192,85787,1,8,0:0:0:0:
256,192,85964,1,8,0:0:0:0:
256,192,86052,1,0,0:0:0:0:
256,192,86140,1,8,0:0:0:0:
256,192,86317,1,8,0:0:0:0:
256,192,86405,1,0,0:0:0:0:
256,192,86493,1,0,0:0:0:0:
256,192,86581,1,8,0:0:0:0:
256,192,86670,1,8,0:0:0:0:
256,192,86846,1,8,0:0:0:0:
256,192,86934,1,8,0:0:0:0:
256,192,87111,1,0,0:0:0:0:
256,192,87199,1,0,0:0:0:0:
256,192,87287,1,0,0:0:0:0:
256,192,87375,1,8,0:0:0:0:
256,192,87552,1,8,0:0:0:0:
256,192,87640,1,8,0:0:0:0:
256,192,87728,1,0,0:0:0:0:
256,192,87905,1,0,0:0:0:0:
256,192,87993,1,0,0:0:0:0:
256,192,88081,1,8,0:0:0:0:
256,192,88258,1,8,0:0:0:0:
256,192,88346,1,8,0:0:0:0:
256,192,88434,1,8,0:0:0:0:
256,192,88523,1,8,0:0:0:0:
256,192,88611,1,0,0:0:0:0:
256,192,88787,1,8,0:0:0:0:
256,192,88964,1,8,0:0:0:0:
256,192,89052,1,8,0:0:0:0:
256,192,89140,1,0,0:0:0:0:
256,192,89405,1,0,0:0:0:0:
256,192,89493,1,8,0:0:0:0:
256,192,89670,1,8,0:0:0:0:
256,192,89758,1,0,0:0:0:0:
256,192,89934,1,0,0:0:0:0:
256,192,90023,1,8,0:0:0:0:
256,192,90199,5,8,0:0:0:0:
256,192,90375,1,8,0:0:0:0:
256,192,90729,1,8,0:0:0:0:
256,192,91082,1,0,0:0:0:0:
256,192,91170,1,0,0:0:0:0:
256,192,91258,1,8,0:0:0:0:
256,192,91434,1,0,0:0:0:0:
256,192,91523,1,0,0:0:0:0:
256,192,91611,1,8,0:0:0:0:
256,192,91699,1,8,0:0:0:0:
256,192,91787,1,8,0:0:0:0:
256,192,91876,1,8,0:0:0:0:
256,192,91964,1,0,0:0:0:0:
256,192,92052,1,0,0:0:0:0:
256,192,92140,1,0,0:0:0:0:
256,192,92229,1,0,0:0:0:0:
256,192,92317,1,8,0:0:0:0:
256,192,92493,1,8,0:0:0:0:
256,192,92582,1,8,0:0:0:0:
256,192,92670,1,0,0:0:0:0:
256,192,92758,1,8,0:0:0:0:
256,192,92846,1,0,0:0:0:0:
256,192,92934,1,0,0:0:0:0:
256,192,93023,1,8,0:0:0:0:
256,192,93199,1,8,0:0:0:0:
256,192,93376,1,0,0:0:0:0:
256,192,93464,1,0,0:0:0:0:
256,192,93552,1,0,0:0:0:0:
256,192,93641,1,0,0:0:0:0:
256,192,93729,1,8,0:0:0:0:
256,192,93905,1,8,0:0:0:0:
256,192,93994,1,8,0:0:0:0:
256,192,94082,1,0,0:0:0:0:
256,192,94170,1,8,0:0:0:0:
256,192,94258,1,0,0:0:0:0:
256,192,94346,1,0,0:0:0:0:
256,192,94435,1,8,0:0:0:0:
256,192,94611,1,8,0:0:0:0:
256,192,94787,1,0,0:0:0:0:
256,192,94875,1,0,0:0:0:0:
256,192,94963,1,0,0:0:0:0:
256,192,95052,1,0,0:0:0:0:
256,192,95140,1,8,0:0:0:0:
256,192,95316,1,8,0:0:0:0:
256,192,95405,1,8,0:0:0:0:
256,192,95493,1,0,0:0:0:0:
256,192,95581,1,8,0:0:0:0:
256,192,95669,1,0,0:0:0:0:
256,192,95757,1,0,0:0:0:0:
256,192,95846,1,8,0:0:0:0:
256,192,96022,1,8,0:0:0:0:
256,192,96199,1,0,0:0:0:0:
256,192,96287,1,0,0:0:0:0:
256,192,96375,1,0,0:0:0:0:
256,192,96464,1,0,0:0:0:0:
256,192,96552,1,8,0:0:0:0:
256,192,96728,1,8,0:0:0:0:
256,192,96817,1,8,0:0:0:0:
256,192,96905,1,0,0:0:0:0:
256,192,96993,1,8,0:0:0:0:
256,192,97081,1,0,0:0:0:0:
256,192,97169,1,0,0:0:0:0:
256,192,97258,1,8,0:0:0:0:
256,192,97434,1,8,0:0:0:0:
256,192,97611,1,0,0:0:0:0:
256,192,97699,1,0,0:0:0:0:
256,192,97787,1,0,0:0:0:0:
256,192,97876,1,0,0:0:0:0:
256,192,97964,1,8,0:0:0:0:
256,192,98140,1,8,0:0:0:0:
256,192,98229,1,8,0:0:0:0:
256,192,98317,1,0,0:0:0:0:
256,192,98405,1,8,0:0:0:0:
256,192,98493,1,0,0:0:0:0:
256,192,98581,1,0,0:0:0:0:
256,192,98670,1,8,0:0:0:0:
256,192,98846,1,8,0:0:0:0:
256,192,99023,1,0,0:0:0:0:
256,192,99111,1,0,0:0:0:0:
256,192,99199,1,0,0:0:0:0:
256,192,99288,1,0,0:0:0:0:
256,192,99376,1,8,0:0:0:0:
256,192,99552,1,8,0:0:0:0:
256,192,99641,1,8,0:0:0:0:
256,192,99729,1,0,0:0:0:0:
256,192,99817,1,8,0:0:0:0:
256,192,99905,1,0,0:0:0:0:
256,192,99993,1,0,0:0:0:0:
256,192,100082,1,8,0:0:0:0:
256,192,100258,1,8,0:0:0:0:
256,192,100434,1,8,0:0:0:0:
256,192,100522,1,0,0:0:0:0:
256,192,100610,1,0,0:0:0:0:
256,192,100787,1,8,0:0:0:0:
256,192,100876,1,8,0:0:0:0:
256,192,100963,1,8,0:0:0:0:
256,192,101052,1,8,0:0:0:0:
256,192,101140,1,0,0:0:0:0:
256,192,101228,1,8,0:0:0:0:
256,192,101316,1,8,0:0:0:0:
256,192,101404,1,0,0:0:0:0:
256,192,101493,1,8,0:0:0:0:
256,192,101669,1,8,0:0:0:0:
256,192,101846,1,0,0:0:0:0:
256,192,101934,1,0,0:0:0:0:
256,192,102022,1,8,0:0:0:0:
256,192,102111,1,0,0:0:0:0:
256,192,102199,1,8,0:0:0:0:
256,192,102375,1,8,0:0:0:0:
256,192,102464,1,8,0:0:0:0:
256,192,102552,1,0,0:0:0:0:
256,192,102640,1,0,0:0:0:0:
256,192,102728,1,8,0:0:0:0:
256,192,102905,1,8,0:0:0:0:
256,192,103081,1,8,0:0:0:0:
256,192,103170,1,8,0:0:0:0:
256,192,103258,1,0,0:0:0:0:
256,192,103346,1,0,0:0:0:0:
256,192,103434,1,0,0:0:0:0:
256,192,103523,1,0,0:0:0:0:
256,192,103611,1,8,0:0:0:0:
256,192,103787,1,8,0:0:0:0:
256,192,103876,1,8,0:0:0:0:
256,192,103964,1,0,0:0:0:0:
256,192,104052,1,8,0:0:0:0:
256,192,104140,1,0,0:0:0:0:
256,192,104228,1,0,0:0:0:0:
256,192,104317,1,8,0:0:0:0:
256,192,104493,1,8,0:0:0:0:
256,192,104670,1,0,0:0:0:0:
256,192,104758,1,0,0:0:0:0:
256,192,104846,1,0,0:0:0:0:
256,192,104935,1,0,0:0:0:0:
256,192,105023,1,8,0:0:0:0:
256,192,105199,1,8,0:0:0:0:
256,192,105288,1,8,0:0:0:0:
256,192,105376,1,0,0:0:0:0:
256,192,105464,1,8,0:0:0:0:
256,192,105552,1,0,0:0:0:0:
256,192,105640,1,0,0:0:0:0:
256,192,105729,1,8,0:0:0:0:
256,192,105905,1,8,0:0:0:0:
256,192,106082,1,0,0:0:0:0:
256,192,106170,1,0,0:0:0:0:
256,192,106258,1,0,0:0:0:0:
256,192,106347,1,0,0:0:0:0:
256,192,106435,1,8,0:0:0:0:
256,192,106611,1,8,0:0:0:0:
256,192,106700,1,8,0:0:0:0:
256,192,106788,1,0,0:0:0:0:
256,192,106876,1,8,0:0:0:0:
256,192,106964,1,0,0:0:0:0:
256,192,107052,1,0,0:0:0:0:
256,192,107141,1,8,0:0:0:0:
256,192,107317,1,8,0:0:0:0:
256,192,107493,1,0,0:0:0:0:
256,192,107581,1,0,0:0:0:0:
256,192,107669,1,0,0:0:0:0:
256,192,107758,1,0,0:0:0:0:
256,192,107846,1,8,0:0:0:0:
256,192,108022,1,8,0:0:0:0:
256,192,108111,1,8,0:0:0:0:
256,192,108199,1,0,0:0:0:0:
256,192,108287,1,8,0:0:0:0:
256,192,108375,1,0,0:0:0:0:
256,192,108463,1,0,0:0:0:0:
256,192,108552,1,8,0:0:0:0:
256,192,108728,1,8,0:0:0:0:
256,192,108905,1,0,0:0:0:0:
256,192,108993,1,0,0:0:0:0:
256,192,109081,1,0,0:0:0:0:
256,192,109170,1,0,0:0:0:0:
256,192,109258,1,8,0:0:0:0:
256,192,109434,1,8,0:0:0:0:
256,192,109523,1,8,0:0:0:0:
256,192,109611,1,0,0:0:0:0:
256,192,109699,1,8,0:0:0:0:
256,192,109787,1,0,0:0:0:0:
256,192,109875,1,0,0:0:0:0:
256,192,109964,1,8,0:0:0:0:
256,192,110140,1,8,0:0:0:0:
256,192,110317,1,0,0:0:0:0:
256,192,110405,1,0,0:0:0:0:
256,192,110493,1,0,0:0:0:0:
256,192,110582,1,0,0:0:0:0:
256,192,110670,1,8,0:0:0:0:
256,192,110846,1,8,0:0:0:0:
256,192,110935,1,8,0:0:0:0:
256,192,111023,1,0,0:0:0:0:
256,192,111111,1,8,0:0:0:0:
256,192,111199,1,0,0:0:0:0:
256,192,111287,1,0,0:0:0:0:
256,192,111376,1,8,0:0:0:0:
256,192,111552,1,8,0:0:0:0:
256,192,111729,1,0,0:0:0:0:
256,192,111817,1,0,0:0:0:0:
256,192,111905,1,0,0:0:0:0:
256,192,111994,1,0,0:0:0:0:
256,192,112082,1,8,0:0:0:0:
256,192,112258,1,8,0:0:0:0:
256,192,112347,1,8,0:0:0:0:
256,192,112435,1,0,0:0:0:0:
256,192,112523,1,8,0:0:0:0:
256,192,112611,1,0,0:0:0:0:
256,192,112699,1,0,0:0:0:0:
256,192,112788,1,8,0:0:0:0:
256,192,113140,5,8,0:0:0:0:
256,192,113317,1,0,0:0:0:0:
256,192,113670,1,8,0:0:0:0:
256,192,114023,1,0,0:0:0:0:
256,192,114199,1,8,0:0:0:0:
256,192,114552,12,0,119846,0:0:0:0:
256,192,120199,5,8,0:0:0:0:
256,192,120552,1,8,0:0:0:0:
256,192,120729,1,8,0:0:0:0:
256,192,121082,1,8,0:0:0:0:
256,192,121170,1,8,0:0:0:0:
256,192,121258,1,8,0:0:0:0:
256,192,121434,1,8,0:0:0:0:
256,192,121787,1,8,0:0:0:0:
256,192,121876,1,8,0:0:0:0:
256,192,121964,1,8,0:0:0:0:
256,192,122052,1,8,0:0:0:0:
256,192,122140,1,8,0:0:0:0:
256,192,122317,1,8,0:0:0:0:
256,192,122493,1,8,0:0:0:0:
256,192,122582,1,8,0:0:0:0:
256,192,122670,1,8,0:0:0:0:
256,192,122846,1,8,0:0:0:0:
256,192,123023,5,8,0:0:0:0:
256,192,123376,1,8,0:0:0:0:
256,192,123553,1,8,0:0:0:0:
256,192,123906,1,8,0:0:0:0:
256,192,123994,1,8,0:0:0:0:
256,192,124082,1,8,0:0:0:0:
256,192,124258,1,8,0:0:0:0:
256,192,124611,1,8,0:0:0:0:
256,192,124700,1,8,0:0:0:0:
256,192,124788,1,8,0:0:0:0:
256,192,124876,1,8,0:0:0:0:
256,192,124964,1,8,0:0:0:0:
256,192,125141,1,8,0:0:0:0:
256,192,125317,1,8,0:0:0:0:
256,192,125406,1,8,0:0:0:0:
256,192,125494,1,8,0:0:0:0:
256,192,125670,1,8,0:0:0:0:
256,192,125846,5,8,0:0:0:0:
256,192,126199,1,8,0:0:0:0:
256,192,126376,1,8,0:0:0:0:
256,192,126729,1,8,0:0:0:0:
256,192,126817,1,8,0:0:0:0:
256,192,126905,1,8,0:0:0:0:
256,192,127081,1,8,0:0:0:0:
256,192,127434,1,8,0:0:0:0:
256,192,127523,1,8,0:0:0:0:
256,192,127611,1,8,0:0:0:0:
256,192,127699,1,8,0:0:0:0:
256,192,127787,1,8,0:0:0:0:
256,192,127964,1,8,0:0:0:0:
256,192,128140,1,8,0:0:0:0:
256,192,128229,1,8,0:0:0:0:
256,192,128317,1,8,0:0:0:0:
256,192,128493,1,8,0:0:0:0:
256,192,128670,1,8,0:0:0:0:
256,192,128935,1,8,0:0:0:0:
256,192,129023,1,8,0:0:0:0:
256,192,129200,1,8,0:0:0:0:
256,192,129376,1,8,0:0:0:0:
256,192,129553,1,8,0:0:0:0:
256,192,129729,1,8,0:0:0:0:
256,192,129905,1,8,0:0:0:0:
256,192,130258,1,8,0:0:0:0:
256,192,130611,1,8,0:0:0:0:
256,192,130788,1,8,0:0:0:0:
256,192,130964,1,8,0:0:0:0:
256,192,131053,1,8,0:0:0:0:
256,192,131141,1,8,0:0:0:0:
256,192,131317,1,8,0:0:0:0:
256,192,131493,1,8,0:0:0:0:
256,192,131846,1,0,0:0:0:0:
256,192,132023,1,8,0:0:0:0:
256,192,132376,1,0,0:0:0:0:
256,192,132464,1,0,0:0:0:0:
256,192,132552,1,8,0:0:0:0:
256,192,132729,1,0,0:0:0:0:
256,192,133082,1,8,0:0:0:0:
256,192,133170,1,0,0:0:0:0:
256,192,133258,1,0,0:0:0:0:
256,192,133346,1,0,0:0:0:0:
256,192,133434,1,0,0:0:0:0:
256,192,133611,1,8,0:0:0:0:
256,192,133787,1,0,0:0:0:0:
256,192,133876,1,0,0:0:0:0:
256,192,133964,1,0,0:0:0:0:
256,192,134140,1,0,0:0:0:0:
256,192,134317,1,8,0:0:0:0:
256,192,134670,1,0,0:0:0:0:
256,192,134847,1,8,0:0:0:0:
256,192,135200,1,0,0:0:0:0:
256,192,135288,1,0,0:0:0:0:
256,192,135376,1,8,0:0:0:0:
256,192,135553,1,0,0:0:0:0:
256,192,135906,1,8,0:0:0:0:
256,192,135994,1,0,0:0:0:0:
256,192,136082,1,0,0:0:0:0:
256,192,136170,1,0,0:0:0:0:
256,192,136258,1,0,0:0:0:0:
256,192,136435,1,8,0:0:0:0:
256,192,136611,1,0,0:0:0:0:
256,192,136700,1,0,0:0:0:0:
256,192,136788,1,0,0:0:0:0:
256,192,136964,1,8,0:0:0:0:
256,192,137140,1,8,0:0:0:0:
256,192,137493,1,0,0:0:0:0:
256,192,137670,1,8,0:0:0:0:
256,192,138023,1,0,0:0:0:0:
256,192,138111,1,0,0:0:0:0:
256,192,138199,1,8,0:0:0:0:
256,192,138376,1,0,0:0:0:0:
256,192,138552,1,0,0:0:0:0:
256,192,138729,1,8,0:0:0:0:
256,192,138817,1,0,0:0:0:0:
256,192,138905,1,0,0:0:0:0:
256,192,138993,1,0,0:0:0:0:
256,192,139081,1,0,0:0:0:0:
256,192,139258,1,8,0:0:0:0:
256,192,139434,1,0,0:0:0:0:
256,192,139523,1,0,0:0:0:0:
256,192,139611,1,0,0:0:0:0:
256,192,139787,1,0,0:0:0:0:
256,192,139964,1,8,0:0:0:0:
256,192,140229,1,0,0:0:0:0:
256,192,140317,1,0,0:0:0:0:
256,192,140494,1,8,0:0:0:0:
256,192,140670,1,0,0:0:0:0:
256,192,140847,1,8,0:0:0:0:
256,192,141023,1,8,0:0:0:0:
256,192,141200,1,0,0:0:0:0:
256,192,141376,1,8,0:0:0:0:
256,192,141464,1,8,0:0:0:0:
256,192,141553,1,8,0:0:0:0:
256,192,141729,1,8,0:0:0:0:
256,192,141905,1,8,0:0:0:0:
256,192,141994,1,8,0:0:0:0:
256,192,142082,1,8,0:0:0:0:
256,192,142258,1,8,0:0:0:0:
256,192,142347,1,8,0:0:0:0:
256,192,142435,1,8,0:0:0:0:
256,192,142611,1,8,0:0:0:0:
256,192,142699,1,8,0:0:0:0:
256,192,142787,1,0,0:0:0:0:
256,192,142964,1,8,0:0:0:0:
256,192,143052,1,0,0:0:0:0:
256,192,143140,1,8,0:0:0:0:
256,192,143229,1,0,0:0:0:0:
256,192,143317,1,8,0:0:0:0:
256,192,143493,1,0,0:0:0:0:
256,192,143582,1,8,0:0:0:0:
256,192,143670,1,0,0:0:0:0:
256,192,143758,1,0,0:0:0:0:
256,192,143846,1,8,0:0:0:0:
256,192,144023,1,8,0:0:0:0:
256,192,144199,1,0,0:0:0:0:
256,192,144287,1,8,0:0:0:0:
256,192,144376,1,0,0:0:0:0:
256,192,144464,1,0,0:0:0:0:
256,192,144552,1,8,0:0:0:0:
256,192,144729,1,8,0:0:0:0:
256,192,144817,1,8,0:0:0:0:
256,192,144905,1,0,0:0:0:0:
256,192,144993,1,8,0:0:0:0:
256,192,145082,1,0,0:0:0:0:
256,192,145170,1,0,0:0:0:0:
256,192,145258,1,8,0:0:0:0:
256,192,145434,1,8,0:0:0:0:
256,192,145611,1,8,0:0:0:0:
256,192,145700,1,0,0:0:0:0:
256,192,145787,1,0,0:0:0:0:
256,192,145876,1,0,0:0:0:0:
256,192,145964,1,8,0:0:0:0:
256,192,146141,1,8,0:0:0:0:
256,192,146229,1,0,0:0:0:0:
256,192,146317,1,0,0:0:0:0:
256,192,146406,1,0,0:0:0:0:
256,192,146494,1,0,0:0:0:0:
256,192,146670,1,8,0:0:0:0:
256,192,146758,1,0,0:0:0:0:
256,192,146847,1,0,0:0:0:0:
256,192,147023,1,0,0:0:0:0:
256,192,147200,1,8,0:0:0:0:
256,192,147287,1,8,0:0:0:0:
256,192,147376,1,0,0:0:0:0:
256,192,147553,1,8,0:0:0:0:
256,192,147729,1,8,0:0:0:0:
256,192,147906,1,0,0:0:0:0:
256,192,148082,1,8,0:0:0:0:
256,192,148170,1,8,0:0:0:0:
256,192,148258,1,0,0:0:0:0:
256,192,148347,1,0,0:0:0:0:
256,192,148434,1,0,0:0:0:0:
256,192,148611,1,8,0:0:0:0:
256,192,148699,1,0,0:0:0:0:
256,192,148787,1,8,0:0:0:0:
256,192,148876,1,0,0:0:0:0:
256,192,148964,1,8,0:0:0:0:
256,192,149140,1,0,0:0:0:0:
256,192,149229,1,8,0:0:0:0:
256,192,149317,1,0,0:0:0:0:
256,192,149405,1,0,0:0:0:0:
256,192,149493,1,8,0:0:0:0:
256,192,149670,1,8,0:0:0:0:
256,192,149846,1,0,0:0:0:0:
256,192,149934,1,8,0:0:0:0:
256,192,150023,1,0,0:0:0:0:
256,192,150111,1,0,0:0:0:0:
256,192,150199,1,8,0:0:0:0:
256,192,150376,1,8,0:0:0:0:
256,192,150464,1,8,0:0:0:0:
256,192,150552,1,0,0:0:0:0:
256,192,150640,1,8,0:0:0:0:
256,192,150729,1,0,0:0:0:0:
256,192,150905,1,8,0:0:0:0:
256,192,151081,1,8,0:0:0:0:
256,192,151258,1,0,0:0:0:0:
256,192,151435,1,8,0:0:0:0:
256,192,151523,1,8,0:0:0:0:
256,192,151611,1,0,0:0:0:0:
256,192,151788,1,0,0:0:0:0:
256,192,151964,1,8,0:0:0:0:
256,192,152053,1,8,0:0:0:0:
256,192,152141,1,0,0:0:0:0:
256,192,152317,1,0,0:0:0:0:
256,192,152494,1,0,0:0:0:0:
256,192,152582,1,8,0:0:0:0:
256,192,152670,1,0,0:0:0:0:
256,192,152847,1,8,0:0:0:0:
256,192,153023,1,0,0:0:0:0:
256,192,153200,1,8,0:0:0:0:
256,192,153376,1,8,0:0:0:0:
256,192,153553,1,0,0:0:0:0:
256,192,153729,1,8,0:0:0:0:
256,192,153817,1,0,0:0:0:0:
256,192,153905,1,8,0:0:0:0:
256,192,153994,1,8,0:0:0:0:
256,192,154082,1,0,0:0:0:0:
256,192,154259,1,8,0:0:0:0:
256,192,154347,1,0,0:0:0:0:
256,192,154435,1,8,0:0:0:0:
256,192,154612,1,8,0:0:0:0:
256,192,154700,1,8,0:0:0:0:
256,192,154788,1,0,0:0:0:0:
256,192,154877,1,8,0:0:0:0:
256,192,154965,1,0,0:0:0:0:
256,192,155053,1,0,0:0:0:0:
256,192,155141,1,8,0:0:0:0:
256,192,155318,1,8,0:0:0:0:
256,192,155494,1,0,0:0:0:0:
256,192,155582,1,8,0:0:0:0:
256,192,155671,1,0,0:0:0:0:
256,192,155759,1,0,0:0:0:0:
256,192,155847,1,8,0:0:0:0:
256,192,156024,1,8,0:0:0:0:
256,192,156112,1,8,0:0:0:0:
256,192,156200,1,0,0:0:0:0:
256,192,156288,1,8,0:0:0:0:
256,192,156465,1,0,0:0:0:0:
256,192,156553,1,8,0:0:0:0:
256,192,156729,1,8,0:0:0:0:
256,192,156818,1,8,0:0:0:0:
256,192,156906,1,8,0:0:0:0:
256,192,157082,1,0,0:0:0:0:
256,192,157259,1,0,0:0:0:0:
256,192,157434,1,8,0:0:0:0:
256,192,157612,1,0,0:0:0:0:
256,192,157787,1,0,0:0:0:0:
256,192,157965,1,8,0:0:0:0:
256,192,158140,1,0,0:0:0:0:
256,192,158318,1,0,0:0:0:0:
256,192,158406,1,0,0:0:0:0:
256,192,158493,1,8,0:0:0:0:
256,192,158671,1,0,0:0:0:0:
256,192,158759,1,0,0:0:0:0:
256,192,158846,1,0,0:0:0:0:
256,192,159024,1,8,0:0:0:0:
256,192,159199,1,0,0:0:0:0:
256,192,159377,1,8,0:0:0:0:
256,192,159729,1,0,0:0:0:0:
256,192,159818,1,0,0:0:0:0:
256,192,159906,1,8,0:0:0:0:
256,192,159994,1,0,0:0:0:0:
256,192,160082,1,8,0:0:0:0:
256,192,160259,1,8,0:0:0:0:
256,192,160347,1,8,0:0:0:0:
256,192,160435,1,0,0:0:0:0:
256,192,160524,1,8,0:0:0:0:
256,192,160700,1,0,0:0:0:0:
256,192,160788,1,8,0:0:0:0:
256,192,160965,1,8,0:0:0:0:
256,192,161053,1,0,0:0:0:0:
256,192,161141,1,0,0:0:0:0:
256,192,161229,1,8,0:0:0:0:
256,192,161318,1,0,0:0:0:0:
256,192,161494,1,8,0:0:0:0:
256,192,161582,1,0,0:0:0:0:
256,192,161671,1,8,0:0:0:0:
256,192,161847,1,0,0:0:0:0:
256,192,161935,1,8,0:0:0:0:
256,192,162024,1,0,0:0:0:0:
256,192,162112,1,0,0:0:0:0:
256,192,162200,1,8,0:0:0:0:
256,192,162376,1,8,0:0:0:0:
256,192,162465,1,8,0:0:0:0:
256,192,162553,1,0,0:0:0:0:
256,192,162905,12,0,164317,0:0:0:0:
256,192,164493,5,8,0:0:0:0:
256,192,164582,1,8,0:0:0:0:
256,192,164670,1,8,0:0:0:0:
256,192,164846,1,0,0:0:0:0:
256,192,165023,1,0,0:0:0:0:
256,192,165199,1,0,0:0:0:0:
256,192,165376,1,8,0:0:0:0:
256,192,165640,1,0,0:0:0:0:
256,192,165729,1,8,0:0:0:0:
256,192,165905,1,0,0:0:0:0:
256,192,165993,1,0,0:0:0:0:
256,192,166170,1,8,0:0:0:0:
256,192,166258,1,0,0:0:0:0:
256,192,166346,1,0,0:0:0:0:
256,192,166434,1,8,0:0:0:0:
256,192,166611,1,0,0:0:0:0:
256,192,166699,1,0,0:0:0:0:
256,192,166964,1,0,0:0:0:0:
256,192,167052,1,0,0:0:0:0:
256,192,167140,1,8,0:0:0:0:
256,192,167317,1,8,0:0:0:0:
256,192,167405,1,8,0:0:0:0:
256,192,167493,1,0,0:0:0:0:
256,192,167582,1,8,0:0:0:0:
256,192,167670,1,0,0:0:0:0:
256,192,167846,1,8,0:0:0:0:
256,192,167934,1,0,0:0:0:0:
256,192,168023,1,0,0:0:0:0:
256,192,168111,1,8,0:0:0:0:
256,192,168199,1,0,0:0:0:0:
256,192,168464,1,0,0:0:0:0:
256,192,168552,1,8,0:0:0:0:
256,192,168729,1,0,0:0:0:0:
256,192,168817,1,0,0:0:0:0:
256,192,168993,1,8,0:0:0:0:
256,192,169082,1,0,0:0:0:0:
256,192,169170,1,0,0:0:0:0:
256,192,169258,1,8,0:0:0:0:
256,192,169434,1,0,0:0:0:0:
256,192,169523,1,0,0:0:0:0:
256,192,169787,1,0,0:0:0:0:
256,192,169876,1,0,0:0:0:0:
256,192,169964,1,8,0:0:0:0:
256,192,170140,1,8,0:0:0:0:
256,192,170229,1,0,0:0:0:0:
256,192,170317,1,8,0:0:0:0:
256,192,170405,1,8,0:0:0:0:
256,192,170493,1,0,0:0:0:0:
256,192,170670,1,8,0:0:0:0:
256,192,170846,1,8,0:0:0:0:
256,192,170934,1,8,0:0:0:0:
256,192,171023,1,0,0:0:0:0:
256,192,171287,1,0,0:0:0:0:
256,192,171376,1,8,0:0:0:0:
256,192,171552,1,0,0:0:0:0:
256,192,171640,1,0,0:0:0:0:
256,192,171817,1,8,0:0:0:0:
256,192,171905,1,0,0:0:0:0:
256,192,171993,1,0,0:0:0:0:
256,192,172081,1,8,0:0:0:0:
256,192,172258,1,0,0:0:0:0:
256,192,172346,1,0,0:0:0:0:
256,192,172611,1,0,0:0:0:0:
256,192,172699,1,0,0:0:0:0:
256,192,172787,1,8,0:0:0:0:
256,192,172964,1,0,0:0:0:0:
256,192,173052,1,0,0:0:0:0:
256,192,173140,1,8,0:0:0:0:
256,192,173229,1,8,0:0:0:0:
256,192,173317,1,0,0:0:0:0:
256,192,173493,1,8,0:0:0:0:
256,192,173670,1,8,0:0:0:0:
256,192,173758,1,8,0:0:0:0:
256,192,173846,1,0,0:0:0:0:
256,192,174111,1,0,0:0:0:0:
256,192,174199,1,8,0:0:0:0:
256,192,174376,1,8,0:0:0:0:
256,192,174464,1,0,0:0:0:0:
256,192,174640,1,0,0:0:0:0:
256,192,174729,1,8,0:0:0:0:
256,192,174905,1,8,0:0:0:0:
256,192,175081,1,8,0:0:0:0:
256,192,175170,1,0,0:0:0:0:
256,192,175434,1,8,0:0:0:0:
256,192,175611,1,8,0:0:0:0:
256,192,175787,1,8,0:0:0:0:
256,192,175876,1,0,0:0:0:0:
256,192,175964,1,0,0:0:0:0:
256,192,176140,1,8,0:0:0:0:
256,192,176229,1,8,0:0:0:0:
256,192,176317,1,0,0:0:0:0:
256,192,176493,1,0,0:0:0:0:
256,192,176581,1,8,0:0:0:0:
256,192,176670,1,8,0:0:0:0:
256,192,176934,1,0,0:0:0:0:
256,192,177023,1,8,0:0:0:0:
256,192,177199,1,0,0:0:0:0:
256,192,177287,1,0,0:0:0:0:
256,192,177464,1,8,0:0:0:0:
256,192,177552,1,0,0:0:0:0:
256,192,177640,1,0,0:0:0:0:
256,192,177728,1,8,0:0:0:0:
256,192,177905,1,0,0:0:0:0:
256,192,177993,1,0,0:0:0:0:
256,192,178258,1,0,0:0:0:0:
256,192,178346,1,0,0:0:0:0:
256,192,178434,1,8,0:0:0:0:
256,192,178611,1,8,0:0:0:0:
256,192,178699,1,8,0:0:0:0:
256,192,178787,1,0,0:0:0:0:
256,192,178876,1,8,0:0:0:0:
256,192,178964,1,0,0:0:0:0:
256,192,179140,1,8,0:0:0:0:
256,192,179228,1,0,0:0:0:0:
256,192,179317,1,0,0:0:0:0:
256,192,179405,1,8,0:0:0:0:
256,192,179493,1,0,0:0:0:0:
256,192,179758,1,0,0:0:0:0:
256,192,179846,1,8,0:0:0:0:
256,192,180023,1,0,0:0:0:0:
256,192,180111,1,0,0:0:0:0:
256,192,180287,1,8,0:0:0:0:
256,192,180376,1,0,0:0:0:0:
256,192,180464,1,0,0:0:0:0:
256,192,180552,1,8,0:0:0:0:
256,192,180728,1,0,0:0:0:0:
256,192,180817,1,0,0:0:0:0:
256,192,181081,1,0,0:0:0:0:
256,192,181170,1,0,0:0:0:0:
256,192,181258,1,8,0:0:0:0:
256,192,181434,1,8,0:0:0:0:
256,192,181523,1,0,0:0:0:0:
256,192,181611,1,8,0:0:0:0:
256,192,181699,1,8,0:0:0:0:
256,192,181787,1,0,0:0:0:0:
256,192,181964,1,8,0:0:0:0:
256,192,182140,1,8,0:0:0:0:
256,192,182228,1,8,0:0:0:0:
256,192,182317,1,0,0:0:0:0:
256,192,182581,1,0,0:0:0:0:
256,192,182670,1,8,0:0:0:0:
256,192,182846,1,0,0:0:0:0:
256,192,182934,1,0,0:0:0:0:
256,192,183111,1,8,0:0:0:0:
256,192,183199,1,0,0:0:0:0:
256,192,183287,1,0,0:0:0:0:
256,192,183375,1,8,0:0:0:0:
256,192,183552,1,0,0:0:0:0:
256,192,183640,1,0,0:0:0:0:
256,192,183905,1,0,0:0:0:0:
256,192,183993,1,0,0:0:0:0:
256,192,184081,1,8,0:0:0:0:
256,192,184258,1,0,0:0:0:0:
256,192,184346,1,0,0:0:0:0:
256,192,184434,1,8,0:0:0:0:
256,192,184523,1,8,0:0:0:0:
256,192,184611,1,0,0:0:0:0:
256,192,184787,1,8,0:0:0:0:
256,192,184964,5,8,0:0:0:0:
256,192,185052,1,8,0:0:0:0:
256,192,185140,1,0,0:0:0:0:
256,192,185405,1,0,0:0:0:0:
256,192,185493,1,8,0:0:0:0:
256,192,185670,1,8,0:0:0:0:
256,192,185758,1,0,0:0:0:0:
256,192,185934,1,0,0:0:0:0:
256,192,186023,1,8,0:0:0:0:
256,192,186199,1,8,0:0:0:0:
256,192,186375,1,8,0:0:0:0:
256,192,186464,1,0,0:0:0:0:
224,192,186729,5,8,0:0:0:0:
256,192,187082,1,0,0:0:0:0:
256,192,187170,1,0,0:0:0:0:
256,192,187258,1,8,0:0:0:0:
256,192,187434,1,0,0:0:0:0:
256,192,187611,1,8,0:0:0:0:
256,192,187964,5,0,0:0:0:0:
256,192,188140,1,0,0:0:0:0:
256,192,188229,1,0,0:0:0:0:
256,192,188317,1,8,0:0:0:0:
256,192,188493,1,0,0:0:0:0:
256,192,188582,1,8,0:0:0:0:
256,192,188670,1,0,0:0:0:0:
256,192,188758,1,0,0:0:0:0:
256,192,188846,1,0,0:0:0:0:
256,192,189023,1,8,0:0:0:0:
256,192,189111,1,8,0:0:0:0:
256,192,189199,1,0,0:0:0:0:
256,192,189376,1,0,0:0:0:0:
256,192,189552,1,0,0:0:0:0:
256,192,189640,1,0,0:0:0:0:
256,192,189729,1,8,0:0:0:0:
256,192,189905,1,0,0:0:0:0:
256,192,189993,1,8,0:0:0:0:
256,192,190082,1,0,0:0:0:0:
256,192,190258,1,0,0:0:0:0:
256,192,190346,1,0,0:0:0:0:
256,192,190434,1,8,0:0:0:0:
256,192,190523,1,8,0:0:0:0:
256,192,190611,1,0,0:0:0:0:
256,192,190787,5,0,0:0:0:0:
256,192,190963,1,0,0:0:0:0:
256,192,191052,1,0,0:0:0:0:
256,192,191140,1,8,0:0:0:0:
256,192,191316,1,0,0:0:0:0:
256,192,191405,1,8,0:0:0:0:
256,192,191493,1,0,0:0:0:0:
256,192,191581,1,0,0:0:0:0:
256,192,191669,1,0,0:0:0:0:
256,192,191846,1,8,0:0:0:0:
256,192,191934,1,8,0:0:0:0:
256,192,192022,1,0,0:0:0:0:
256,192,192199,1,0,0:0:0:0:
256,192,192375,1,0,0:0:0:0:
256,192,192463,1,0,0:0:0:0:
256,192,192552,1,8,0:0:0:0:
256,192,192728,1,0,0:0:0:0:
256,192,192816,1,8,0:0:0:0:
256,192,192905,1,0,0:0:0:0:
256,192,193081,1,0,0:0:0:0:
256,192,193169,1,0,0:0:0:0:
256,192,193257,1,8,0:0:0:0:
256,192,193346,1,8,0:0:0:0:
256,192,193434,1,0,0:0:0:0:
256,192,193611,5,0,0:0:0:0:
256,192,193787,1,0,0:0:0:0:
256,192,193876,1,0,0:0:0:0:
256,192,193964,1,8,0:0:0:0:
256,192,194140,1,0,0:0:0:0:
256,192,194229,1,8,0:0:0:0:
256,192,194317,1,0,0:0:0:0:
256,192,194405,1,0,0:0:0:0:
256,192,194493,1,0,0:0:0:0:
256,192,194670,1,8,0:0:0:0:
256,192,194758,1,8,0:0:0:0:
256,192,194846,1,0,0:0:0:0:
256,192,195023,1,0,0:0:0:0:
256,192,195199,1,0,0:0:0:0:
256,192,195287,1,0,0:0:0:0:
256,192,195376,1,8,0:0:0:0:
256,192,195552,1,0,0:0:0:0:
256,192,195640,1,8,0:0:0:0:
256,192,195729,1,0,0:0:0:0:
256,192,195905,1,0,0:0:0:0:
256,192,195993,1,0,0:0:0:0:
256,192,196081,1,8,0:0:0:0:
256,192,196170,1,8,0:0:0:0:
256,192,196258,1,0,0:0:0:0:
256,192,196434,1,0,0:0:0:0:
256,192,196523,1,0,0:0:0:0:
256,192,196611,1,0,0:0:0:0:
256,192,196699,1,0,0:0:0:0:
256,192,196787,1,8,0:0:0:0:
256,192,196964,1,0,0:0:0:0:
256,192,197052,1,8,0:0:0:0:
256,192,197140,1,0,0:0:0:0:
256,192,197229,1,0,0:0:0:0:
256,192,197317,1,8,0:0:0:0:
256,192,197493,1,8,0:0:0:0:
256,192,197582,1,0,0:0:0:0:
256,192,197670,1,8,0:0:0:0:
256,192,197758,1,8,0:0:0:0:
256,192,197846,1,0,0:0:0:0:
256,192,198023,1,8,0:0:0:0:
256,192,198111,1,8,0:0:0:0:
256,192,198199,1,0,0:0:0:0:
256,192,198287,1,0,0:0:0:0:
256,192,198376,1,8,0:0:0:0:
256,192,198552,1,8,0:0:0:0:
256,192,198640,1,8,0:0:0:0:
256,192,198729,1,0,0:0:0:0:
256,192,198817,1,0,0:0:0:0:
256,192,198905,1,8,0:0:0:0:
256,192,199258,1,0,0:0:0:0:
256,192,199347,1,0,0:0:0:0:
256,192,199435,1,8,0:0:0:0:
256,192,199611,1,8,0:0:0:0:
256,192,199788,1,8,0:0:0:0:
256,192,199876,1,8,0:0:0:0:
256,192,199964,1,0,0:0:0:0:
256,192,200053,1,8,0:0:0:0:
256,192,200141,1,0,0:0:0:0:
256,192,200317,1,8,0:0:0:0:
256,192,200405,1,8,0:0:0:0:
256,192,200494,1,8,0:0:0:0:
256,192,200670,1,0,0:0:0:0:
256,192,200847,1,0,0:0:0:0:
256,192,200935,1,0,0:0:0:0:
256,192,201023,1,8,0:0:0:0:
256,192,201200,1,8,0:0:0:0:
256,192,201288,1,8,0:0:0:0:
256,192,201376,1,0,0:0:0:0:
256,192,201464,1,8,0:0:0:0:
256,192,201553,1,0,0:0:0:0:
256,192,201729,1,8,0:0:0:0:
256,192,201817,1,0,0:0:0:0:
256,192,201905,1,8,0:0:0:0:
256,192,202082,1,0,0:0:0:0:
256,192,202171,1,0,0:0:0:0:
256,192,202259,1,8,0:0:0:0:
256,192,202435,1,8,0:0:0:0:
256,192,202612,1,8,0:0:0:0:
256,192,202700,1,8,0:0:0:0:
256,192,202788,1,0,0:0:0:0:
256,192,202877,1,8,0:0:0:0:
256,192,202965,1,0,0:0:0:0:
256,192,203141,1,8,0:0:0:0:
256,192,203318,1,8,0:0:0:0:
256,192,203406,1,0,0:0:0:0:
256,192,203494,1,0,0:0:0:0:
256,192,203671,1,0,0:0:0:0:
256,192,203759,1,0,0:0:0:0:
256,192,203847,1,8,0:0:0:0:
256,192,204024,1,8,0:0:0:0:
256,192,204112,1,8,0:0:0:0:
256,192,204200,1,0,0:0:0:0:
256,192,204288,1,8,0:0:0:0:
256,192,204377,1,0,0:0:0:0:
256,192,204553,1,8,0:0:0:0:
256,192,204729,1,8,0:0:0:0:
256,192,204818,1,8,0:0:0:0:
256,192,204905,1,0,0:0:0:0:
256,192,204994,1,0,0:0:0:0:
256,192,205082,1,8,0:0:0:0:
256,192,205258,1,8,0:0:0:0:
256,192,205435,1,8,0:0:0:0:
256,192,205523,1,8,0:0:0:0:
256,192,205611,1,0,0:0:0:0:
256,192,205700,1,8,0:0:0:0:
256,192,205788,1,0,0:0:0:0:
256,192,205964,1,8,0:0:0:0:
256,192,206141,1,8,0:0:0:0:
256,192,206229,1,0,0:0:0:0:
256,192,206317,1,0,0:0:0:0:
256,192,206494,1,0,0:0:0:0:
256,192,206582,1,0,0:0:0:0:
256,192,206670,1,8,0:0:0:0:
256,192,206847,1,8,0:0:0:0:
256,192,206935,1,8,0:0:0:0:
256,192,207023,1,0,0:0:0:0:
256,192,207111,1,8,0:0:0:0:
256,192,207200,1,0,0:0:0:0:
256,192,207376,1,8,0:0:0:0:
256,192,207552,1,8,0:0:0:0:
256,192,207641,1,8,0:0:0:0:
256,192,207729,1,0,0:0:0:0:
256,192,207906,1,8,0:0:0:0:
256,192,207994,1,0,0:0:0:0:
256,192,208082,1,8,0:0:0:0:
256,192,208259,1,8,0:0:0:0:
256,192,208347,1,8,0:0:0:0:
256,192,208524,1,8,0:0:0:0:
256,192,208612,1,0,0:0:0:0:
256,192,208700,1,0,0:0:0:0:
256,192,208788,1,8,0:0:0:0:
256,192,208965,1,8,0:0:0:0:
256,192,209053,1,0,0:0:0:0:
256,192,209141,1,0,0:0:0:0:
256,192,209318,1,8,0:0:0:0:
256,192,209406,1,0,0:0:0:0:
256,192,209494,1,8,0:0:0:0:
256,192,209671,1,8,0:0:0:0:
256,192,209759,1,8,0:0:0:0:
256,192,209847,1,0,0:0:0:0:
256,192,209935,1,0,0:0:0:0:
256,192,210024,1,8,0:0:0:0:
256,192,210200,1,8,0:0:0:0:
256,192,210288,1,8,0:0:0:0:
256,192,210465,1,8,0:0:0:0:
256,192,210552,1,0,0:0:0:0:
256,192,210641,1,0,0:0:0:0:
256,192,210729,1,8,0:0:0:0:
256,192,210905,1,8,0:0:0:0:
256,192,210994,1,0,0:0:0:0:
256,192,211082,1,8,0:0:0:0:
256,192,211170,1,8,0:0:0:0:
256,192,211258,1,0,0:0:0:0:
256,192,211347,1,8,0:0:0:0:
256,192,211435,1,0,0:0:0:0:
256,192,211611,1,8,0:0:0:0:
256,192,211699,1,8,0:0:0:0:
256,192,211788,1,8,0:0:0:0:
256,192,211964,1,0,0:0:0:0:
256,192,212052,1,8,0:0:0:0:
256,192,212141,1,0,0:0:0:0:
256,192,212229,1,0,0:0:0:0:
256,192,212317,1,8,0:0:0:0:
256,192,212405,1,0,0:0:0:0:
256,192,212494,1,8,0:0:0:0:
256,192,212670,1,0,0:0:0:0:
256,192,212758,1,8,0:0:0:0:
256,192,212847,1,0,0:0:0:0:
256,192,213023,1,8,0:0:0:0:
256,192,213111,1,0,0:0:0:0:
256,192,213199,1,8,0:0:0:0:
256,192,213287,1,8,0:0:0:0:
256,192,213376,1,0,0:0:0:0:
256,192,213465,1,0,0:0:0:0:
256,192,213553,1,8,0:0:0:0:
256,192,213729,1,8,0:0:0:0:
256,192,213818,1,0,0:0:0:0:
256,192,213906,1,8,0:0:0:0:
256,192,214082,1,0,0:0:0:0:
256,192,214171,1,8,0:0:0:0:
256,192,214259,1,0,0:0:0:0:
256,192,214346,1,0,0:0:0:0:
256,192,214435,1,8,0:0:0:0:
256,192,214523,1,8,0:0:0:0:
256,192,214612,1,8,0:0:0:0:
256,192,214788,1,0,0:0:0:0:
256,192,214876,1,8,0:0:0:0:
256,192,214965,1,0,0:0:0:0:
256,192,215141,1,8,0:0:0:0:
256,192,215229,1,0,0:0:0:0:
256,192,215318,1,8,0:0:0:0:
256,192,215405,1,8,0:0:0:0:
256,192,215494,1,0,0:0:0:0:
256,192,215582,1,8,0:0:0:0:
256,192,215671,1,0,0:0:0:0:
256,192,215847,1,8,0:0:0:0:
256,192,215935,1,0,0:0:0:0:
256,192,216023,1,8,0:0:0:0:
256,192,216199,1,0,0:0:0:0:
256,192,216288,1,0,0:0:0:0:
256,192,216376,1,8,0:0:0:0:
256,192,216464,1,0,0:0:0:0:
256,192,216552,1,8,0:0:0:0:
256,192,216641,1,0,0:0:0:0:
256,192,216729,1,8,0:0:0:0:
256,192,216905,1,0,0:0:0:0:
256,192,216994,1,8,0:0:0:0:
256,192,217082,1,0,0:0:0:0:
256,192,217258,1,8,0:0:0:0:
256,192,217346,1,8,0:0:0:0:
256,192,217435,1,8,0:0:0:0:
256,192,217523,1,8,0:0:0:0:
256,192,217611,1,0,0:0:0:0:
256,192,217699,1,8,0:0:0:0:
256,192,217788,1,0,0:0:0:0:
256,192,217964,1,8,0:0:0:0:
256,192,218052,1,0,0:0:0:0:
256,192,218141,1,8,0:0:0:0:
256,192,218317,1,0,0:0:0:0:
256,192,218405,1,8,0:0:0:0:
256,192,218494,1,0,0:0:0:0:
256,192,218582,1,0,0:0:0:0:
256,192,218670,1,8,0:0:0:0:
256,192,218758,1,0,0:0:0:0:
256,192,218846,1,8,0:0:0:0:
256,192,219023,1,8,0:0:0:0:
256,192,219288,1,0,0:0:0:0:
256,192,219376,1,8,0:0:0:0:
256,192,219465,1,8,0:0:0:0:
256,192,219553,1,8,0:0:0:0:
256,192,219818,1,0,0:0:0:0:
256,192,219905,1,8,0:0:0:0:
256,192,219994,1,8,0:0:0:0:
256,192,220082,1,8,0:0:0:0:
256,192,220347,1,0,0:0:0:0:
256,192,220435,1,8,0:0:0:0:
256,192,220523,1,8,0:0:0:0:
256,192,220612,1,8,0:0:0:0:
256,192,220965,1,8,0:0:0:0:
256,192,221053,1,0,0:0:0:0:
256,192,221141,1,8,0:0:0:0:
256,192,221318,1,0,0:0:0:0:
256,192,221494,1,12,0:0:0:0:
