osu file format v14

[General]
AudioFilename: audio.mp3
AudioLeadIn: 0
PreviewTime: 63684
Countdown: 0
SampleSet: Normal
StackLeniency: 0.7
Mode: 1
LetterboxInBreaks: 0
WidescreenStoryboard: 0

[Editor]
DistanceSpacing: 0.9
BeatDivisor: 4
GridSize: 32
TimelineZoom: 1.8

[Metadata]
Title:Power Trip
TitleUnicode:Power Trip
Artist:Boom Kitty
ArtistUnicode:Boom Kitty
Creator:mikku1
Version:Futsuu
Source:Geometry Dash SubZero
Tags:drum 'n bass single dnb filthy
BeatmapID:2066831
BeatmapSetID:987967

[Difficulty]
HPDrainRate:5
CircleSize:2
OverallDifficulty:4
ApproachRate:0
SliderMultiplier:1.4
SliderTickRate:3

[Events]
//Background and Video events
0,0,"PowerTrip.jpg",0,0
//Break Periods
//Storyboard Layer 0 (Background)
//Storyboard Layer 1 (Fail)
//Storyboard Layer 2 (Pass)
//Storyboard Layer 3 (Foreground)
//Storyboard Sound Samples

[TimingPoints]
199.685800766845,352.941176470588,4,1,0,100,1,0
1611,-100,4,1,0,100,0,0
1964,-100,4,2,0,50,0,0
5493,-100,4,1,0,100,0,0
7614,-100,4,2,0,50,0,0
11140,-100,4,1,0,53,0,0
11670,-100,4,1,0,65,0,0
12023,-100,4,1,0,77,0,0
12287,-100,4,1,0,83,0,0
12552,-100,4,1,0,92,0,0
12817,-100,4,1,0,100,0,0
24023,-100,4,2,0,100,0,0
35317,-100,4,1,0,100,0,0
119846,-100,4,1,0,50,0,0
131317,-100,4,1,0,75,0,0
141111,-100,4,1,0,88,0,0
142258,-100,4,1,0,94,0,0
142611,-100,4,1,0,100,0,0
187964,-100,4,1,0,40,0,0
188140,-100,4,1,0,41,0,0
188317,-100,4,1,0,42,0,0
188493,-100,4,1,0,43,0,0
188670,-100,4,1,0,44,0,0
188846,-100,4,1,0,45,0,0
189023,-100,4,1,0,46,0,0
189199,-100,4,1,0,47,0,0
189376,-100,4,1,0,48,0,0
189552,-100,4,1,0,49,0,0
189729,-100,4,1,0,50,0,0
189905,-100,4,1,0,51,0,0
190082,-100,4,1,0,52,0,0
190258,-100,4,1,0,53,0,0
190434,-100,4,1,0,54,0,0
190611,-100,4,1,0,55,0,0
190787,-100,4,1,0,56,0,0
190964,-100,4,1,0,57,0,0
191140,-100,4,1,0,58,0,0
191317,-100,4,1,0,59,0,0
191493,-100,4,1,0,60,0,0
191670,-100,4,1,0,61,0,0
191846,-100,4,1,0,62,0,0
192023,-100,4,1,0,63,0,0
192199,-100,4,1,0,64,0,0
192376,-100,4,1,0,65,0,0
192552,-100,4,1,0,66,0,0
192729,-100,4,1,0,67,0,0
192905,-100,4,1,0,68,0,0
193082,-100,4,1,0,69,0,0
193258,-100,4,1,0,70,0,0
193434,-100,4,1,0,71,0,0
193611,-100,4,1,0,72,0,0
193787,-100,4,1,0,73,0,0
193964,-100,4,1,0,74,0,0
194140,-100,4,1,0,75,0,0
194317,-100,4,1,0,76,0,0
194493,-100,4,1,0,77,0,0
194670,-100,4,1,0,78,0,0
194846,-100,4,1,0,79,0,0
195023,-100,4,1,0,80,0,0
195199,-100,4,1,0,81,0,0
195376,-100,4,1,0,82,0,0
195552,-100,4,1,0,83,0,0
195729,-100,4,1,0,84,0,0
195905,-100,4,1,0,85,0,0
196082,-100,4,1,0,86,0,0
196258,-100,4,1,0,87,0,0
196434,-100,4,1,0,88,0,0
196611,-100,4,1,0,89,0,0
196787,-100,4,1,0,90,0,0
196964,-100,4,1,0,91,0,0
197140,-100,4,1,0,92,0,0
197317,-100,4,1,0,93,0,0
197493,-100,4,1,0,94,0,0
197670,-100,4,1,0,95,0,0
197846,-100,4,1,0,96,0,0
198023,-100,4,1,0,97,0,0
198199,-100,4,1,0,98,0,0
198376,-100,4,1,0,99,0,0
198552,-100,4,1,0,100,0,0

[HitObjects]
256,192,199,12,0,1258,0:0:0:0:
256,192,1611,5,12,0:0:0:0:
256,192,2317,1,8,0:0:0:0:
256,192,3023,1,8,0:0:0:0:
256,192,3729,1,8,0:0:0:0:
256,192,4434,1,8,0:0:0:0:
256,192,5140,1,8,0:0:0:0:
256,192,5846,1,0,0:0:0:0:
256,192,6199,1,8,0:0:0:0:
256,192,6376,1,0,0:0:0:0:
256,192,6729,1,8,0:0:0:0:
256,192,7258,5,12,0:0:0:0:
256,192,7964,1,8,0:0:0:0:
256,192,8670,1,8,0:0:0:0:
256,192,9376,1,8,0:0:0:0:
256,192,10082,1,8,0:0:0:0:
256,192,10787,1,8,0:0:0:0:
256,192,11493,1,8,0:0:0:0:
256,192,11846,1,8,0:0:0:0:
256,192,12199,1,8,0:0:0:0:
256,192,12376,1,0,0:0:0:0:
256,192,12729,1,0,0:0:0:0:
256,192,12905,1,8,0:0:0:0:
256,192,13435,1,8,0:0:0:0:
256,192,13964,1,8,0:0:0:0:
256,192,15023,12,0,15376,0:0:0:0:
256,192,15729,5,8,0:0:0:0:
256,192,16258,1,8,0:0:0:0:
256,192,16787,1,8,0:0:0:0:
256,192,17140,1,0,0:0:0:0:
256,192,17493,1,0,0:0:0:0:
256,192,17846,1,0,0:0:0:0:
256,192,18199,1,8,0:0:0:0:
256,192,18552,1,8,0:0:0:0:
256,192,19611,1,8,0:0:0:0:
256,192,20670,1,0,0:0:0:0:
256,192,21023,1,0,0:0:0:0:
256,192,21376,5,8,0:0:0:0:
256,192,21905,1,8,0:0:0:0:
256,192,22434,1,8,0:0:0:0:
256,192,22787,1,0,0:0:0:0:
256,192,22964,1,8,0:0:0:0:
256,192,23317,1,8,0:0:0:0:
256,192,23493,2,0,L|257:337,1,140
256,192,24199,1,8,0:0:0:0:
256,192,25258,1,8,0:0:0:0:
256,192,26317,1,8,0:0:0:0:
256,192,26670,1,0,0:0:0:0:
256,192,27023,1,8,0:0:0:0:
256,192,27552,1,8,0:0:0:0:
256,192,28082,1,8,0:0:0:0:
256,192,28787,1,0,0:0:0:0:
256,192,29140,1,8,0:0:0:0:
256,192,29493,1,0,0:0:0:0:
256,192,29846,1,0,0:0:0:0:
256,192,30905,1,8,0:0:0:0:
256,192,31964,1,8,0:0:0:0:
256,192,32317,1,8,0:0:0:0:
256,192,32670,1,0,0:0:0:0:
256,192,33199,1,8,0:0:0:0:
256,192,33552,1,8,0:0:0:0:
256,192,34082,12,0,35140,0:0:0:0:
256,192,35493,5,12,0:0:0:0:
256,192,36376,1,0,0:0:0:0:
256,192,36729,1,0,0:0:0:0:
256,192,37082,1,0,0:0:0:0:
256,192,37434,1,0,0:0:0:0:
256,192,37787,1,0,0:0:0:0:
256,192,37964,1,12,0:0:0:0:
256,192,38317,1,12,0:0:0:0:
256,192,39199,1,0,0:0:0:0:
256,192,39552,1,0,0:0:0:0:
256,192,39905,1,0,0:0:0:0:
256,192,40258,1,0,0:0:0:0:
256,192,40434,1,8,0:0:0:0:
256,192,40787,1,12,0:0:0:0:
256,192,41140,1,12,0:0:0:0:
256,192,42023,1,0,0:0:0:0:
256,192,42376,1,0,0:0:0:0:
256,192,42729,1,0,0:0:0:0:
256,192,43081,1,0,0:0:0:0:
256,192,43258,1,8,0:0:0:0:
256,192,43611,1,8,0:0:0:0:
256,192,43964,1,0,0:0:0:0:
256,192,44493,1,0,0:0:0:0:
256,192,44846,1,8,0:0:0:0:
256,192,45023,1,0,0:0:0:0:
256,192,45552,1,0,0:0:0:0:
256,192,45905,1,0,0:0:0:0:
256,192,46434,1,8,0:0:0:0:
256,192,46787,1,0,0:0:0:0:
256,192,47140,1,8,0:0:0:0:
256,192,47846,1,8,0:0:0:0:
256,192,48199,1,0,0:0:0:0:
256,192,48552,1,0,0:0:0:0:
256,192,48905,1,8,0:0:0:0:
256,192,49611,1,0,0:0:0:0:
256,192,49964,1,8,0:0:0:0:
256,192,50670,1,8,0:0:0:0:
256,192,51023,1,0,0:0:0:0:
256,192,51376,1,8,0:0:0:0:
256,192,51729,1,8,0:0:0:0:
256,192,52434,1,0,0:0:0:0:
256,192,52787,1,8,0:0:0:0:
256,192,53493,1,8,0:0:0:0:
256,192,53846,1,0,0:0:0:0:
256,192,54199,1,0,0:0:0:0:
256,192,54552,1,8,0:0:0:0:
256,192,55258,1,0,0:0:0:0:
256,192,55611,1,8,0:0:0:0:
256,192,56317,1,8,0:0:0:0:
256,192,56670,5,8,0:0:0:0:
256,192,57023,1,0,0:0:0:0:
256,192,57376,1,8,0:0:0:0:
224,192,57729,1,8,0:0:0:0:
256,192,58082,1,4,0:0:0:0:
256,192,58435,1,8,0:0:0:0:
256,192,59141,1,8,0:0:0:0:
256,192,59494,1,0,0:0:0:0:
256,192,59847,1,0,0:0:0:0:
256,192,60200,1,8,0:0:0:0:
256,192,60906,1,0,0:0:0:0:
256,192,61259,1,8,0:0:0:0:
256,192,61965,1,8,0:0:0:0:
256,192,62318,5,0,0:0:0:0:
256,192,62671,1,8,0:0:0:0:
256,192,63024,1,8,0:0:0:0:
256,192,63729,1,4,0:0:0:0:
256,192,64082,12,0,65846,0:0:0:0:
256,192,66199,5,0,0:0:0:0:
256,192,66552,1,4,0:0:0:0:
256,192,67258,12,0,68670,0:0:0:0:
256,192,69023,5,0,0:0:0:0:
256,192,69376,1,0,0:0:0:0:
256,192,69905,1,0,0:0:0:0:
256,192,70434,1,8,0:0:0:0:
256,192,71140,1,0,0:0:0:0:
256,192,71493,1,8,0:0:0:0:
256,192,71846,1,8,0:0:0:0:
256,192,72199,1,0,0:0:0:0:
256,192,72728,1,0,0:0:0:0:
256,192,73257,1,8,0:0:0:0:
256,192,73963,1,8,0:0:0:0:
256,192,74316,1,8,0:0:0:0:
256,192,74669,1,8,0:0:0:0:
256,192,75023,1,0,0:0:0:0:
256,192,75552,1,0,0:0:0:0:
256,192,76081,1,8,0:0:0:0:
256,192,76787,1,0,0:0:0:0:
256,192,77140,1,8,0:0:0:0:
256,192,77493,1,8,0:0:0:0:
256,192,77846,1,0,0:0:0:0:
256,192,78375,1,0,0:0:0:0:
256,192,78729,5,8,0:0:0:0:
256,192,79082,1,0,0:0:0:0:
256,192,79434,1,0,0:0:0:0:
256,192,79787,1,8,0:0:0:0:
256,192,79963,1,8,0:0:0:0:
256,192,80316,1,8,0:0:0:0:
256,192,80670,1,0,0:0:0:0:
256,192,81199,1,0,0:0:0:0:
256,192,81728,1,8,0:0:0:0:
256,192,82434,1,0,0:0:0:0:
256,192,82787,1,8,0:0:0:0:
256,192,83140,1,8,0:0:0:0:
256,192,83493,1,0,0:0:0:0:
256,192,84022,1,0,0:0:0:0:
256,192,84551,1,8,0:0:0:0:
256,192,85257,1,8,0:0:0:0:
256,192,85610,1,8,0:0:0:0:
256,192,85963,1,8,0:0:0:0:
256,192,86317,1,0,0:0:0:0:
256,192,86846,1,0,0:0:0:0:
256,192,87375,1,8,0:0:0:0:
256,192,88081,1,0,0:0:0:0:
256,192,88434,1,8,0:0:0:0:
256,192,88787,1,8,0:0:0:0:
256,192,89140,1,0,0:0:0:0:
256,192,89669,1,0,0:0:0:0:
256,192,90199,5,8,0:0:0:0:
256,192,90376,5,0,0:0:0:0:
256,192,90728,1,0,0:0:0:0:
256,192,91257,1,8,0:0:0:0:
256,192,91610,1,0,0:0:0:0:
256,192,91964,5,8,0:0:0:0:
256,192,92493,1,8,0:0:0:0:
256,192,93023,1,0,0:0:0:0:
256,192,93729,1,0,0:0:0:0:
256,192,94082,1,8,0:0:0:0:
256,192,94435,1,0,0:0:0:0:
256,192,94787,5,8,0:0:0:0:
256,192,95316,1,8,0:0:0:0:
256,192,95846,1,0,0:0:0:0:
256,192,96552,1,0,0:0:0:0:
256,192,96905,1,8,0:0:0:0:
256,192,97258,1,8,0:0:0:0:
256,192,97611,5,8,0:0:0:0:
256,192,98140,1,8,0:0:0:0:
256,192,98670,1,0,0:0:0:0:
256,192,99376,1,0,0:0:0:0:
256,192,99729,1,8,0:0:0:0:
256,192,100082,1,8,0:0:0:0:
256,192,100434,5,8,0:0:0:0:
256,192,100963,1,8,0:0:0:0:
256,192,101670,1,8,0:0:0:0:
256,192,102023,1,8,0:0:0:0:
256,192,102376,1,8,0:0:0:0:
256,192,102729,1,8,0:0:0:0:
256,192,102905,1,8,0:0:0:0:
256,192,103258,5,8,0:0:0:0:
256,192,103787,1,8,0:0:0:0:
256,192,104317,1,0,0:0:0:0:
256,192,105023,1,0,0:0:0:0:
256,192,105376,1,8,0:0:0:0:
256,192,105729,1,0,0:0:0:0:
256,192,106081,5,8,0:0:0:0:
256,192,106610,1,8,0:0:0:0:
256,192,107140,1,0,0:0:0:0:
256,192,107846,1,0,0:0:0:0:
256,192,108199,1,8,0:0:0:0:
256,192,108552,1,8,0:0:0:0:
256,192,108905,5,8,0:0:0:0:
256,192,109434,1,8,0:0:0:0:
256,192,109964,1,0,0:0:0:0:
256,192,110670,1,0,0:0:0:0:
256,192,111023,1,8,0:0:0:0:
256,192,111376,1,8,0:0:0:0:
256,192,111728,5,8,0:0:0:0:
256,192,112257,1,0,0:0:0:0:
256,192,112787,5,0,0:0:0:0:
256,192,113140,1,8,0:0:0:0:
256,192,113670,1,8,0:0:0:0:
256,192,114552,12,0,119493,0:0:0:0:
256,192,120199,5,8,0:0:0:0:
256,192,120729,1,8,0:0:0:0:
256,192,121258,1,8,0:0:0:0:
256,192,121964,1,8,0:0:0:0:
256,192,122317,1,8,0:0:0:0:
256,192,122670,1,8,0:0:0:0:
256,192,123023,5,8,0:0:0:0:
256,192,123553,1,8,0:0:0:0:
256,192,124082,1,8,0:0:0:0:
256,192,124788,1,8,0:0:0:0:
256,192,125141,1,8,0:0:0:0:
256,192,125494,1,8,0:0:0:0:
256,192,125846,5,8,0:0:0:0:
256,192,126376,1,8,0:0:0:0:
256,192,126905,1,8,0:0:0:0:
256,192,127611,1,8,0:0:0:0:
256,192,127964,1,8,0:0:0:0:
256,192,128317,1,8,0:0:0:0:
256,192,128670,1,8,0:0:0:0:
256,192,129199,1,8,0:0:0:0:
256,192,129552,1,8,0:0:0:0:
256,192,130258,1,8,0:0:0:0:
256,192,130611,1,8,0:0:0:0:
256,192,131140,1,8,0:0:0:0:
256,192,131493,5,8,0:0:0:0:
256,192,132023,1,8,0:0:0:0:
256,192,132552,1,8,0:0:0:0:
256,192,133082,1,8,0:0:0:0:
256,192,133434,1,0,0:0:0:0:
256,192,133611,1,8,0:0:0:0:
256,192,133964,1,0,0:0:0:0:
256,192,134317,5,8,0:0:0:0:
256,192,134847,1,8,0:0:0:0:
256,192,135376,1,8,0:0:0:0:
256,192,135906,1,8,0:0:0:0:
256,192,136435,1,8,0:0:0:0:
256,192,137140,5,8,0:0:0:0:
256,192,137670,1,8,0:0:0:0:
256,192,138199,1,8,0:0:0:0:
256,192,138729,1,8,0:0:0:0:
256,192,139081,1,0,0:0:0:0:
256,192,139258,1,8,0:0:0:0:
256,192,139611,1,0,0:0:0:0:
256,192,139964,5,8,0:0:0:0:
256,192,140494,1,8,0:0:0:0:
256,192,140846,5,8,0:0:0:0:
256,192,141376,1,8,0:0:0:0:
256,192,141729,1,0,0:0:0:0:
256,192,142082,1,8,0:0:0:0:
256,192,142434,1,8,0:0:0:0:
256,192,142787,5,0,0:0:0:0:
256,192,143493,1,8,0:0:0:0:
256,192,143846,1,8,0:0:0:0:
256,192,144552,1,0,0:0:0:0:
256,192,144905,1,8,0:0:0:0:
256,192,145611,1,8,0:0:0:0:
256,192,146140,1,8,0:0:0:0:
256,192,146670,1,0,0:0:0:0:
256,192,147023,1,0,0:0:0:0:
256,192,147376,1,0,0:0:0:0:
256,192,147729,1,8,0:0:0:0:
256,192,148434,5,0,0:0:0:0:
256,192,149140,1,8,0:0:0:0:
256,192,149493,1,8,0:0:0:0:
256,192,150199,1,0,0:0:0:0:
256,192,150552,1,8,0:0:0:0:
256,192,151434,1,8,0:0:0:0:
256,192,151964,1,8,0:0:0:0:
256,192,152670,12,0,153729,0:0:0:0:
256,192,154082,5,0,0:0:0:0:
256,192,154787,1,8,0:0:0:0:
256,192,155140,1,8,0:0:0:0:
256,192,155847,1,0,0:0:0:0:
256,192,156200,1,8,0:0:0:0:
256,192,156553,1,8,0:0:0:0:
256,192,156905,1,0,0:0:0:0:
256,192,157258,12,0,159376,0:0:0:0:
256,192,159729,5,0,0:0:0:0:
256,192,160434,1,8,0:0:0:0:
256,192,160788,1,8,0:0:0:0:
256,192,161494,1,8,0:0:0:0:
256,192,161847,1,8,0:0:0:0:
256,192,162200,1,8,0:0:0:0:
256,192,162553,1,0,0:0:0:0:
256,192,162905,12,0,164317,0:0:0:0:
256,192,164670,5,8,0:0:0:0:
256,192,165023,1,0,0:0:0:0:
256,192,165376,1,0,0:0:0:0:
256,192,165905,1,0,0:0:0:0:
256,192,166434,1,8,0:0:0:0:
256,192,167140,1,0,0:0:0:0:
256,192,167493,1,8,0:0:0:0:
256,192,167846,1,8,0:0:0:0:
256,192,168199,1,0,0:0:0:0:
256,192,168728,1,0,0:0:0:0:
256,192,169257,1,8,0:0:0:0:
256,192,169963,1,8,0:0:0:0:
256,192,170316,1,8,0:0:0:0:
256,192,170669,1,8,0:0:0:0:
256,192,171023,1,0,0:0:0:0:
256,192,171552,1,0,0:0:0:0:
256,192,172081,1,8,0:0:0:0:
256,192,172787,1,0,0:0:0:0:
256,192,173140,1,8,0:0:0:0:
256,192,173493,1,8,0:0:0:0:
256,192,173846,1,0,0:0:0:0:
256,192,174375,1,0,0:0:0:0:
256,192,174729,5,8,0:0:0:0:
256,192,175082,1,8,0:0:0:0:
256,192,175434,1,8,0:0:0:0:
256,192,175787,1,8,0:0:0:0:
256,192,175963,1,0,0:0:0:0:
256,192,176316,1,8,0:0:0:0:
256,192,176670,1,0,0:0:0:0:
256,192,177199,1,0,0:0:0:0:
256,192,177728,1,8,0:0:0:0:
256,192,178434,1,0,0:0:0:0:
256,192,178787,1,8,0:0:0:0:
256,192,179140,1,8,0:0:0:0:
256,192,179493,1,0,0:0:0:0:
256,192,180022,1,0,0:0:0:0:
256,192,180551,1,8,0:0:0:0:
256,192,181257,1,8,0:0:0:0:
256,192,181610,1,8,0:0:0:0:
256,192,181963,1,8,0:0:0:0:
256,192,182317,1,0,0:0:0:0:
256,192,182846,1,0,0:0:0:0:
256,192,183375,1,8,0:0:0:0:
256,192,184081,1,0,0:0:0:0:
256,192,184434,1,8,0:0:0:0:
256,192,184787,1,8,0:0:0:0:
256,192,185140,1,0,0:0:0:0:
256,192,185669,1,0,0:0:0:0:
256,192,186023,5,8,0:0:0:0:
256,192,186376,1,0,0:0:0:0:
256,192,186728,1,0,0:0:0:0:
256,192,187257,1,8,0:0:0:0:
256,192,187610,1,8,0:0:0:0:
256,192,187964,5,4,0:0:0:0:
256,192,188317,1,8,0:0:0:0:
256,192,189023,1,8,0:0:0:0:
256,192,189376,5,0,0:0:0:0:
256,192,189729,1,8,0:0:0:0:
256,192,190435,1,8,0:0:0:0:
256,192,190787,5,0,0:0:0:0:
256,192,191140,1,8,0:0:0:0:
256,192,191846,1,8,0:0:0:0:
256,192,192199,5,0,0:0:0:0:
256,192,192552,1,8,0:0:0:0:
256,192,193258,1,8,0:0:0:0:
256,192,193611,5,0,0:0:0:0:
256,192,193964,1,8,0:0:0:0:
256,192,194670,5,8,0:0:0:0:
256,192,195023,5,0,0:0:0:0:
256,192,195376,1,8,0:0:0:0:
256,192,196082,1,8,0:0:0:0:
256,192,196434,5,0,0:0:0:0:
256,192,196787,1,8,0:0:0:0:
256,192,197317,1,0,0:0:0:0:
256,192,197670,1,8,0:0:0:0:
256,192,198023,1,8,0:0:0:0:
256,192,198376,1,8,0:0:0:0:
256,192,198552,1,8,0:0:0:0:
256,192,198905,1,8,0:0:0:0:
256,192,199258,1,0,0:0:0:0:
256,192,199787,1,0,0:0:0:0:
256,192,200317,1,8,0:0:0:0:
256,192,201023,1,0,0:0:0:0:
256,192,201376,1,8,0:0:0:0:
256,192,201729,1,0,0:0:0:0:
256,192,202082,1,0,0:0:0:0:
256,192,202611,1,0,0:0:0:0:
256,192,203141,1,8,0:0:0:0:
256,192,203847,1,8,0:0:0:0:
256,192,204200,1,8,0:0:0:0:
256,192,204553,1,0,0:0:0:0:
256,192,204905,1,0,0:0:0:0:
256,192,205434,1,0,0:0:0:0:
256,192,205964,1,8,0:0:0:0:
256,192,206670,1,0,0:0:0:0:
256,192,207023,1,8,0:0:0:0:
256,192,207376,1,0,0:0:0:0:
256,192,207729,1,0,0:0:0:0:
256,192,208258,1,0,0:0:0:0:
256,192,208788,5,8,0:0:0:0:
256,192,209317,1,8,0:0:0:0:
256,192,209670,1,0,0:0:0:0:
256,192,210023,1,8,0:0:0:0:
256,192,210199,1,8,0:0:0:0:
256,192,210552,1,0,0:0:0:0:
256,192,211082,1,8,0:0:0:0:
256,192,211611,1,0,0:0:0:0:
256,192,212317,1,0,0:0:0:0:
256,192,212670,1,0,0:0:0:0:
256,192,213023,1,0,0:0:0:0:
256,192,213376,1,8,0:0:0:0:
256,192,213906,1,0,0:0:0:0:
256,192,214435,1,8,0:0:0:0:
256,192,215141,1,8,0:0:0:0:
256,192,215494,1,8,0:0:0:0:
256,192,215846,1,8,0:0:0:0:
256,192,216199,1,0,0:0:0:0:
256,192,216729,1,8,0:0:0:0:
256,192,217258,1,0,0:0:0:0:
256,192,217964,1,0,0:0:0:0:
256,192,218317,1,0,0:0:0:0:
256,192,218670,1,0,0:0:0:0:
256,192,219023,1,8,0:0:0:0:
256,192,219552,1,0,0:0:0:0:
256,192,220082,1,8,0:0:0:0:
256,192,220612,1,0,0:0:0:0:
256,192,220964,1,8,0:0:0:0:
256,192,221141,1,8,0:0:0:0:
256,192,221494,1,12,0:0:0:0:
