osu file format v14

[General]
AudioFilename: audio.mp3
AudioLeadIn: 0
PreviewTime: 79289
Countdown: 0
SampleSet: Normal
StackLeniency: 0.7
Mode: 1
LetterboxInBreaks: 0
WidescreenStoryboard: 0

[Editor]
Bookmarks: 25676,42617,65206,113206,214853,248735
DistanceSpacing: 0.5
BeatDivisor: 4
GridSize: 32
TimelineZoom: 2.2

[Metadata]
Title:Firewall
TitleUnicode:Firewall
Artist:Boom Kitty
ArtistUnicode:Boom Kitty
Creator:Jaltzu
Version:Oni
Source:
Tags:instrumental electronic dnb drum and & bass edm dance music geometry dash old school kitty vol. volume 3
BeatmapID:2606789
BeatmapSetID:1254357

[Difficulty]
HPDrainRate:5.5
CircleSize:2
OverallDifficulty:6
ApproachRate:10
SliderMultiplier:1.4
SliderTickRate:1

[Events]
//Background and Video events
0,0,"fire.jpg",0,95
//Break Periods
//Storyboard Layer 0 (Background)
//Storyboard Layer 1 (Fail)
//Storyboard Layer 2 (Pass)
//Storyboard Layer 3 (Foreground)
//Storyboard Layer 4 (Overlay)
//Storyboard Sound Samples

[TimingPoints]
275,352.941176470588,4,1,0,60,1,0
5172,-100,4,1,0,70,0,0
5370,-95.2380952380953,4,1,0,70,0,0
5458,-93.0232558139535,4,1,0,70,0,0
5547,-90.9090909090909,4,1,0,70,0,0
5635,-88.8888888888889,4,1,0,70,0,0
5723,-86.9565217391304,4,1,0,70,0,0
5811,-85.1063829787234,4,1,0,70,0,0
5899,-83.3333333333333,4,1,0,80,0,0
17172,-83.3333333333333,4,1,0,70,0,0
17524,-86.9565217391304,4,1,0,60,0,0
17701,-88.8888888888889,4,1,0,60,0,0
18054,-93.0232558139535,4,1,0,60,0,0
18230,-95.2380952380952,4,1,0,60,0,0
18319,-96.3855421686747,4,1,0,60,0,0
18407,-97.5609756097561,4,1,0,60,0,0
18583,-100,4,1,0,60,0,0
18848,-97.5609756097561,4,1,0,60,0,0
18936,-96.7773153972709,4,1,0,60,0,0
19024,-95.9969280983009,4,1,0,60,0,0
19113,-95.2380952380952,4,1,0,60,0,0
19289,-93.7470704040499,4,1,0,60,0,0
19377,-93.0232558139535,4,1,0,60,0,0
19466,-92.3105326317733,4,1,0,70,0,0
19554,-91.6002564807181,4,1,0,70,0,0
19642,-90.9090909090909,4,1,0,70,0,0
19995,-100,4,1,0,60,0,0
20348,-98.9304812834225,4,1,0,46,0,0
20524,-98.4042553191489,4,1,0,47,0,0
20701,-97.8835978835979,4,1,0,48,0,0
21054,-96.8586387434555,4,1,0,50,0,0
21230,-96.3541666666667,4,1,0,51,0,0
21407,-95.8549222797927,4,1,0,52,0,0
21760,-94.8717948717949,4,1,0,54,0,0
21936,-94.3877551020408,4,1,0,55,0,0
22113,-93.9086294416244,4,1,0,56,0,0
22289,-93.4343434343434,4,1,0,57,0,0
22466,-92.964824120603,4,1,0,58,0,0
22642,-92.5,4,1,0,59,0,0
22819,-92.0398009950249,4,1,0,60,0,0
23172,-91.1330049261084,4,1,0,62,0,0
23348,-90.6862745098039,4,1,0,63,0,0
23524,-90.2439024390244,4,1,0,64,0,0
23877,-89.3719806763285,4,1,0,66,0,0
24054,-88.9423076923077,4,1,0,67,0,0
24230,-88.5167464114833,4,1,0,68,0,0
24495,-87.6777251184834,4,1,0,69,0,0
24583,-87.2641509433962,4,1,0,70,0,0
24760,-86.8544600938967,4,1,0,75,0,0
24936,-86.4485981308411,4,1,0,75,0,0
25024,-86.046511627907,4,1,0,75,0,0
25113,-85.6481481481481,4,1,0,75,0,0
25289,-84.8623853211009,4,1,0,80,0,0
25377,-84.4748858447489,4,1,0,80,0,0
25466,-84.0909090909091,4,1,0,80,0,0
25554,-83.710407239819,4,1,0,80,0,0
25642,-83.3333333333333,4,1,0,50,0,0
25995,-85.1063829787234,4,1,0,52,0,0
26017,352.941176470588,4,1,0,52,1,8
26017,-85.1063829787234,4,1,0,52,0,0
26172,-86.0215053763441,4,1,0,53,0,0
26348,-86.9565217391304,4,1,0,54,0,0
26701,-88.8888888888889,4,1,0,56,0,0
26877,-89.8876404494382,4,1,0,57,0,0
27054,-90.9090909090909,4,1,0,58,0,0
27076,352.941176470588,4,1,0,58,1,0
27076,-90.9090909090909,4,1,0,58,0,0
27407,-90.9090909090909,4,1,0,60,0,0
27583,-90.9090909090909,4,1,0,61,0,0
27760,-90.9090909090909,4,1,0,62,0,0
28113,-90.9090909090909,4,1,0,64,0,0
28201,-90.9090909090909,4,1,0,64,0,0
28289,-90.9090909090909,4,1,0,65,0,0
28377,-90.9090909090909,4,1,0,65,0,0
28466,-90.9090909090909,4,1,0,66,0,0
28819,-90.9090909090909,4,1,0,68,0,0
28995,-90.9090909090909,4,1,0,69,0,0
29172,-90.9090909090909,4,1,0,70,0,0
29524,-90.9090909090909,4,1,0,72,0,0
29701,-90.9090909090909,4,1,0,73,0,0
29877,-90.9090909090909,4,1,0,74,0,0
29966,-90.2282775421817,4,1,0,74,0,0
30054,-89.5495656846064,4,1,0,75,0,0
30230,-88.2378893496868,4,1,0,76,0,0
30407,-86.9565217391304,4,1,0,77,0,0
30583,-85.7118368046627,4,1,0,78,0,0
30760,-84.5094228006423,4,1,0,79,0,0
30804,352.941176470588,4,1,0,79,1,8
30804,-84.5094228006423,4,1,0,79,0,0
30848,-83.9137366786943,4,1,0,79,0,0
30951,-83.3333333333333,4,1,0,80,0,0
31245,-100,4,1,0,60,0,0
31333,352.941176470588,4,1,0,60,1,0
42054,-97.5609756097561,4,1,0,60,0,0
42230,-95.2380952380952,4,1,0,60,0,0
42407,-93.0232558139535,4,1,0,60,0,0
42583,-90.9090909090909,4,1,0,60,0,0
43951,-100,4,1,0,60,0,0
51627,-100,4,1,0,61,0,0
51803,-100,4,1,0,62,0,0
51980,-100,4,1,0,63,0,0
52156,-100,4,1,0,64,0,0
52332,-93.0232558139535,4,1,0,65,0,0
52685,-93.0232558139535,4,1,0,66,0,0
52862,-93.0232558139535,4,1,0,67,0,0
53038,-93.0232558139535,4,1,0,68,0,0
53215,-93.0232558139535,4,1,0,69,0,0
53391,-86.9565217391304,4,1,0,70,0,0
53656,-85.1063829787234,4,1,0,70,0,0
53833,-83.3333333333333,4,1,0,80,0,0
76422,-83.3333333333333,4,1,0,50,0,0
78716,-83.3333333333333,4,1,0,80,0,0
78848,-82.1895290539985,4,1,0,80,0,0
78936,-81.083272520879,4,1,0,80,0,0
79024,-80,4,1,0,80,0,0
79113,-78.945290913397,4,1,0,80,0,0
79201,-77.9241019247253,4,1,0,80,0,0
79289,-76.9230769230769,4,1,0,90,0,0
79332,-76.9230769230769,4,1,0,90,0,1
90583,-76.9230769230769,4,1,0,80,0,1
90627,-76.9230769230769,4,1,0,80,0,0
90892,-83.3333333333333,4,1,0,80,0,0
91113,-84.5094228006423,4,1,0,80,0,0
91289,-85.7118368046627,4,1,0,80,0,0
91466,-86.9565217391304,4,1,0,80,0,0
91642,-88.2378893496868,4,1,0,80,0,0
91819,-89.5495656846064,4,1,0,80,0,0
91995,-90.9090909090909,4,1,0,80,0,0
92172,-92.3105326317733,4,1,0,80,0,0
92348,-93.7470704040499,4,1,0,80,0,0
92524,-95.2380952380953,4,1,0,80,0,0
92701,-96.7773153972709,4,1,0,80,0,0
92877,-98.3574309039048,4,1,0,80,0,0
93054,-100,4,1,0,80,0,0
93936,-98.0392156862745,4,1,0,80,0,0
94113,-96.1538461538462,4,1,0,80,0,0
94289,-94.3396226415095,4,1,0,80,0,0
94466,-92.5925925925926,4,1,0,80,0,0
94642,-90.9090909090909,4,1,0,80,0,0
94819,-89.2857142857143,4,1,0,80,0,0
94995,-87.719298245614,4,1,0,80,0,0
95172,-86.2068965517241,4,1,0,80,0,0
95348,-84.7457627118644,4,1,0,80,0,0
95524,-83.3333333333333,4,1,0,80,0,0
96760,-84.5094228006423,4,1,0,80,0,0
96936,-85.7118368046627,4,1,0,80,0,0
97113,-86.9565217391304,4,1,0,80,0,0
97289,-88.2378893496868,4,1,0,80,0,0
97466,-89.5495656846064,4,1,0,80,0,0
97642,-90.9090909090909,4,1,0,80,0,0
97819,-92.3105326317733,4,1,0,80,0,0
97995,-93.7470704040499,4,1,0,80,0,0
98172,-95.2380952380953,4,1,0,80,0,0
98348,-96.7773153972709,4,1,0,80,0,0
98524,-98.3574309039048,4,1,0,80,0,0
98701,-100,4,1,0,80,0,0
99583,-97.5609756097561,4,1,0,80,0,0
99760,-95.2380952380953,4,1,0,80,0,0
99936,-93.0232558139535,4,1,0,80,0,0
100289,-88.8888888888889,4,1,0,80,0,0
100466,-86.9565217391304,4,1,0,80,0,0
100642,-85.1063829787234,4,1,0,80,0,0
100819,-83.3333333333333,4,1,0,80,0,0
101348,-85.1063829787234,4,1,0,80,0,0
101524,-86.9565217391304,4,1,0,80,0,0
101701,-88.8888888888889,4,1,0,80,0,0
101877,-90.9090909090909,4,1,0,80,0,0
112819,-88.2378893496868,4,1,0,80,0,0
112907,-86.9565217391304,4,1,0,80,0,0
112995,-85.7118368046627,4,1,0,80,0,0
113083,-84.5094228006423,4,1,0,80,0,0
113172,-83.3333333333333,4,1,0,80,0,0
123936,-81.6326530612245,4,1,0,80,0,0
124024,-80.8080808080808,4,1,0,80,0,0
124113,-80,4,1,0,80,0,0
124201,-79.2079207920792,4,1,0,80,0,0
124289,-78.4313725490196,4,1,0,80,0,0
124466,-76.9230769230769,4,1,0,90,0,0
124509,-76.9230769230769,4,1,0,90,0,1
133289,-80,4,1,0,90,0,1
133466,-83.3333333333333,4,1,0,90,0,1
133819,-80,4,1,0,90,0,1
133995,-83.3333333333333,4,1,0,90,0,1
134348,-80,4,1,0,90,0,1
134568,-83.3333333333333,4,1,0,90,0,0
135010,-84.7457627118644,4,1,0,70,0,0
135407,-86.2068965517241,4,1,0,70,0,0
135760,-87.719298245614,4,1,0,70,0,0
136113,-89.2857142857143,4,1,0,70,0,0
136289,-90.0900900900901,4,1,0,70,0,0
136466,-90.9090909090909,4,1,0,70,0,0
136554,-91.324200913242,4,1,0,70,0,0
136642,-91.7431192660551,4,1,0,70,0,0
136819,-92.5925925925926,4,1,0,70,0,0
136995,-93.4579439252337,4,1,0,70,0,0
137172,-94.3396226415095,4,1,0,70,0,0
137348,-95.2380952380953,4,1,0,70,0,0
137524,-96.1538461538462,4,1,0,70,0,0
137701,-97.0873786407767,4,1,0,70,0,0
137789,-97.5609756097561,4,1,0,70,0,0
137877,-98.0392156862745,4,1,0,70,0,0
138054,-99.009900990099,4,1,0,70,0,0
138142,-99.502487562189,4,1,0,70,0,0
138245,-100,4,1,0,70,0,0
140524,-97.5609756097561,4,1,0,70,0,0
140613,-96.3855421686747,4,1,0,70,0,0
140701,-95.2380952380953,4,1,0,70,0,0
140877,-93.0232558139535,4,1,0,70,0,0
141054,-90.9090909090909,4,1,0,70,0,0
141407,-100,4,1,0,60,0,0
141760,-99.3788819875776,4,1,0,41,0,0
141936,-99.0712074303406,4,1,0,42,0,0
142113,-98.7654320987654,4,1,0,43,0,0
142466,-98.159509202454,4,1,0,45,0,0
142642,-97.8593272171254,4,1,0,46,0,0
142819,-97.5609756097561,4,1,0,47,0,0
143172,-96.969696969697,4,1,0,49,0,0
143348,-96.6767371601208,4,1,0,50,0,0
143525,-96.3855421686747,4,1,0,51,0,0
143701,-96.0960960960961,4,1,0,52,0,0
143878,-95.8083832335329,4,1,0,53,0,0
144054,-95.5223880597015,4,1,0,54,0,0
144230,-95.2380952380952,4,1,0,55,0,0
144583,-94.6745562130178,4,1,0,57,0,0
144760,-94.3952802359882,4,1,0,58,0,0
144936,-94.1176470588235,4,1,0,59,0,0
145289,-93.5672514619883,4,1,0,61,0,0
145466,-93.2944606413994,4,1,0,62,0,0
145642,-93.0232558139535,4,1,0,63,0,0
145995,-92.485549132948,4,1,0,65,0,0
146172,-92.2190201729107,4,1,0,66,0,0
146348,-91.9540229885058,4,1,0,67,0,0
146525,-91.6905444126075,4,1,0,68,0,0
146701,-91.4285714285714,4,1,0,69,0,0
146878,-91.1680911680912,4,1,0,70,0,0
147054,-90.9090909090909,4,1,0,60,0,0
147539,-100,4,1,0,60,0,0
157422,-96.3855421686747,4,1,0,64,0,0
157951,-93.0232558139535,4,1,0,68,0,0
158304,-90.9090909090909,4,1,0,70,0,0
168538,-93.0232558139535,4,1,0,70,0,0
168715,-94.1176470588235,4,1,0,70,0,0
169244,-97.5609756097561,4,1,0,70,0,0
169598,-100,4,1,0,60,0,0
169951,-100,4,1,0,58,0,0
170039,-100,4,1,0,56,0,0
170127,-100,4,1,0,54,0,0
170216,-100,4,1,0,52,0,0
170304,-100,4,1,0,50,0,0
170392,-100,4,1,0,48,0,0
170480,-100,4,1,0,46,0,0
170569,-100,4,1,0,44,0,0
170657,-100,4,1,0,42,0,0
170745,-100,4,1,0,40,0,0
170833,-100,4,1,0,38,0,0
170922,-100,4,1,0,36,0,0
171010,-100,4,1,0,34,0,0
171098,-100,4,1,0,32,0,0
171186,-100,4,1,0,30,0,0
171274,-100,4,1,0,28,0,0
171363,-100,4,1,0,26,0,0
171451,-100,4,1,0,24,0,0
171539,-100,4,1,0,22,0,0
171627,-100,4,1,0,20,0,0
171848,-100,4,1,0,25,0,0
171936,-100,4,1,0,30,0,0
172024,-100,4,1,0,35,0,0
172113,-100,4,1,0,40,0,0
172201,-100,4,1,0,45,0,0
172289,-100,4,1,0,50,0,0
172377,-100,4,1,0,55,0,0
172466,-100,4,1,0,60,0,0
174539,-100,4,1,0,40,0,0
174892,-100,4,1,0,60,0,0
175245,-100,4,1,0,60,0,0
175598,-100,4,1,0,58,0,0
175686,-100,4,1,0,56,0,0
175774,-100,4,1,0,54,0,0
175863,-100,4,1,0,52,0,0
175951,-100,4,1,0,50,0,0
176039,-100,4,1,0,48,0,0
176127,-100,4,1,0,46,0,0
176216,-100,4,1,0,44,0,0
176304,-100,4,1,0,42,0,0
176392,-100,4,1,0,40,0,0
176480,-100,4,1,0,38,0,0
176569,-100,4,1,0,36,0,0
176657,-100,4,1,0,34,0,0
176745,-100,4,1,0,32,0,0
176833,-100,4,1,0,30,0,0
176922,-100,4,1,0,28,0,0
177010,-100,4,1,0,26,0,0
177098,-100,4,1,0,24,0,0
177186,-100,4,1,0,22,0,0
177274,-100,4,1,0,20,0,0
177363,-100,4,1,0,18,0,0
177451,-100,4,1,0,16,0,0
177539,-100,4,1,0,14,0,0
177627,-100,4,1,0,12,0,0
177716,-100,4,1,0,11,0,0
177804,-100,4,1,0,10,0,0
179480,-100,4,1,0,20,0,0
179657,-100,4,1,0,22,0,0
179745,-100,4,1,0,25,0,0
179833,-100,4,1,0,27,0,0
179922,-100,4,1,0,30,0,0
180010,-100,4,1,0,32,0,0
180098,-100,4,1,0,35,0,0
180186,-100,4,1,0,37,0,0
180274,-100,4,1,0,40,0,0
180363,-100,4,1,0,42,0,0
180451,-100,4,1,0,45,0,0
180539,-100,4,1,0,47,0,0
180627,-100,4,1,0,50,0,0
180716,-100,4,1,0,52,0,0
180804,-100,4,1,0,55,0,0
180892,-111.111111111111,4,1,0,60,0,0
181422,-111.111111111111,4,1,0,50,0,0
186054,-108.108108108108,4,1,0,53,0,0
186230,-105.263157894737,4,1,0,55,0,0
186407,-102.564102564103,4,1,0,58,0,0
186583,-100,4,1,0,60,0,0
187113,-110.552763819095,4,1,0,51,0,0
187642,-109.452736318408,4,1,0,53,0,0
187819,-108.910891089109,4,1,0,54,0,0
187995,-108.374384236453,4,1,0,55,0,0
188172,-107.843137254902,4,1,0,55,0,0
188348,-107.317073170732,4,1,0,56,0,0
188701,-106.796116504854,4,1,0,57,0,0
188878,-106.280193236715,4,1,0,58,0,0
189054,-105.769230769231,4,1,0,58,0,0
189230,-105.263157894737,4,1,0,59,0,0
189407,-104.265402843602,4,1,0,61,0,0
189936,-103.286384976526,4,1,0,63,0,0
190289,-102.803738317757,4,1,0,64,0,0
190466,-102.325581395349,4,1,0,65,0,0
190642,-101.851851851852,4,1,0,66,0,0
190819,-100.917431192661,4,1,0,68,0,0
190995,-100.456621004566,4,1,0,69,0,0
191083,-100,4,1,0,70,0,0
191172,-99.5475113122172,4,1,0,71,0,0
191260,-99.0990990990991,4,1,0,72,0,0
191348,-98.6547085201794,4,1,0,72,0,0
191525,-97.7777777777778,4,1,0,74,0,0
191701,-96.9162995594714,4,1,0,76,0,0
191789,-96.4912280701754,4,1,0,77,0,0
191878,-96.0698689956332,4,1,0,78,0,0
192054,-95.6521739130435,4,1,0,79,0,0
192230,-95.2380952380952,4,1,0,80,0,0
192539,-94.8275862068965,4,1,0,70,0,0
197083,-94.4206008583691,4,1,0,71,0,0
197172,-94.017094017094,4,1,0,72,0,0
197348,-93.2203389830509,4,1,0,74,0,0
197436,-92.8270042194093,4,1,0,75,0,0
197524,-92.436974789916,4,1,0,76,0,0
197613,-92.0502092050209,4,1,0,77,0,0
197701,-91.6666666666667,4,1,0,78,0,0
197877,-90.9090909090909,4,1,0,80,0,0
200656,-83.3333333333333,4,1,0,80,0,0
202774,-86.9565217391304,4,1,0,80,0,0
202994,-87.9120879120879,4,1,0,80,0,0
203171,-88.8888888888889,4,1,0,80,0,0
203347,-89.8876404494382,4,1,0,80,0,0
203524,-90.9090909090909,4,1,0,80,0,0
213407,-76.9230769230769,4,1,0,80,0,0
214377,-77.9241019247253,4,1,0,80,0,0
214466,-78.945290913397,4,1,0,80,0,0
214598,-81.0832725208789,4,1,0,80,0,0
214774,-83.3333333333333,4,1,0,80,0,0
220465,-85.1063829787234,4,1,0,80,0,0
220951,-86.9565217391304,4,1,0,75,0,0
221657,-88.8888888888889,4,1,0,70,0,0
222363,-90.9090909090909,4,1,0,65,0,0
223245,-93.0232558139535,4,1,0,63,0,0
223774,-95.2380952380952,4,1,0,60,0,0
224480,-97.5609756097561,4,1,0,55,0,0
225186,-100,4,1,0,50,0,0
226113,-76.9230769230769,4,1,0,90,0,0
226156,-76.9230769230769,4,1,0,90,0,1
235289,-76.9230769230769,4,1,0,80,0,1
235332,-76.9230769230769,4,1,0,80,0,0
235466,-80,4,1,0,80,0,0
235642,-83.3333333333333,4,1,0,80,0,0
235819,-86.9565217391304,4,1,0,80,0,0
235995,-90.9090909090909,4,1,0,80,0,0
236172,-95.2380952380953,4,1,0,80,0,0
236348,-100,4,1,0,80,0,0
236789,-98.7654320987654,4,1,0,80,0,0
236877,-97.5609756097561,4,1,0,80,0,0
236966,-96.3855421686747,4,1,0,80,0,0
237054,-95.2380952380953,4,1,0,80,0,0
237142,-94.1176470588235,4,1,0,80,0,0
237230,-93.0232558139535,4,1,0,80,0,0
237319,-91.9540229885058,4,1,0,80,0,0
237407,-90.9090909090909,4,1,0,80,0,0
239480,-83.3333333333333,4,1,0,70,0,0
239745,-85.7118368046627,4,1,0,70,0,0
239980,-88.2378893496868,4,1,0,70,0,0
240216,-90.9090909090909,4,1,0,80,0,0
242348,-88.2378893496868,4,1,0,80,0,0
242524,-85.7118368046627,4,1,0,80,0,0
242701,-83.3333333333333,4,1,0,80,0,0
243054,-90.9090909090909,4,1,0,80,0,0
245524,-86.9565217391304,4,1,0,80,0,0
245613,-87.9120879120879,4,1,0,80,0,0
245701,-88.8888888888889,4,1,0,80,0,0
245877,-90.9090909090909,4,1,0,80,0,0
247995,-89.2857142857143,4,1,0,80,0,0
248172,-87.719298245614,4,1,0,80,0,0
248348,-86.2068965517241,4,1,0,80,0,0
248524,-84.7457627118644,4,1,0,80,0,0
248613,-84.0336134453781,4,1,0,80,0,0
248701,-83.3333333333333,4,1,0,80,0,0
259377,-82.4742268041237,4,1,0,80,0,0
259466,-81.6326530612245,4,1,0,80,0,0
259554,-80.8080808080808,4,1,0,80,0,0
259642,-80,4,1,0,80,0,0
259730,-79.2079207920792,4,1,0,80,0,0
259819,-78.4313725490196,4,1,0,80,0,0
259907,-77.6699029126214,4,1,0,80,0,0
259995,-76.9230769230769,4,1,0,90,0,0
260038,-76.9230769230769,4,1,0,90,0,1
268466,-83.3333333333333,4,1,0,80,0,1
268509,-83.3333333333333,4,1,0,80,0,0
271554,-90.9090909090909,4,1,0,70,0,0
273672,-88.2378893496868,4,1,0,73,0,0
273760,-85.7118368046627,4,1,0,77,0,0
273848,-83.3333333333333,4,1,0,80,0,0
273936,-81.083272520879,4,1,0,83,0,0
274113,-76.9230769230769,4,1,0,90,0,0
274156,-76.9230769230769,4,1,0,90,0,1
285450,-76.9230769230769,4,1,0,90,0,0
285583,-78.4313725490196,4,1,0,80,0,0
285760,-80,4,1,0,80,0,0
285936,-81.6326530612245,4,1,0,80,0,0
286113,-83.3333333333333,4,1,0,80,0,0
286289,-85.1063829787234,4,1,0,80,0,0
286466,-86.9565217391304,4,1,0,80,0,0
286642,-88.8888888888889,4,1,0,80,0,0
286819,-90.9090909090909,4,1,0,80,0,0
286995,-93.0232558139535,4,1,0,80,0,0
287172,-95.2380952380953,4,1,0,80,0,0
287348,-97.5609756097561,4,1,0,80,0,0
287524,-100,4,1,0,80,0,0
288407,-97.5609756097561,4,1,0,80,0,0
288583,-95.2380952380953,4,1,0,80,0,0
288760,-93.0232558139535,4,1,0,80,0,0
288936,-90.9090909090909,4,1,0,80,0,0
289113,-88.8888888888889,4,1,0,80,0,0
289289,-86.9565217391304,4,1,0,80,0,0
289466,-85.1063829787234,4,1,0,80,0,0
289642,-83.3333333333333,4,1,0,80,0,0
289819,-81.6326530612245,4,1,0,80,0,0
289995,-80,4,1,0,80,0,0
290172,-78.4313725490196,4,1,0,80,0,0
290348,-76.9230769230769,4,1,0,80,0,0
291230,-77.6699029126214,4,1,0,80,0,0
291407,-78.4313725490196,4,1,0,80,0,0
291583,-79.2079207920792,4,1,0,80,0,0
291760,-80,4,1,0,80,0,0
291936,-80.8080808080808,4,1,0,80,0,0
292113,-81.6326530612245,4,1,0,80,0,0
292289,-82.4742268041237,4,1,0,80,0,0
292466,-83.3333333333333,4,1,0,80,0,0
292642,-84.2105263157895,4,1,0,80,0,0
292819,-85.1063829787234,4,1,0,80,0,0
292995,-86.0215053763441,4,1,0,80,0,0
293172,-86.9565217391304,4,1,0,80,0,0
293348,-87.9120879120879,4,1,0,80,0,0
293524,-88.8888888888889,4,1,0,80,0,0
293877,-90.9090909090909,4,1,0,80,0,0
294230,-86.9565217391304,4,1,0,80,0,0
294407,-90.9090909090909,4,1,0,80,0,0
294760,-86.9565217391304,4,1,0,80,0,0
294936,-90.9090909090909,4,1,0,80,0,0
295289,-86.9565217391304,4,1,0,80,0,0
295466,-90.9090909090909,4,1,0,80,0,0

[HitObjects]
256,192,275,12,0,4863,0:0:0:0:
256,192,5216,5,8,0:0:0:0:
256,192,5392,1,8,0:0:0:0:
256,192,5480,1,8,0:0:0:0:
256,192,5569,1,0,0:0:0:0:
256,192,5657,1,0,0:0:0:0:
256,192,5745,1,0,0:0:0:0:
256,192,5922,1,12,0:0:0:0:
256,192,6274,1,8,0:0:0:0:
256,192,6451,1,4,0:0:0:0:
256,192,6804,1,8,0:0:0:0:
256,192,6980,1,4,0:0:0:0:
256,192,7333,1,8,0:0:0:0:
256,192,7510,1,4,0:0:0:0:
256,192,7863,1,8,0:0:0:0:
256,192,8039,1,4,0:0:0:0:
256,192,8216,1,8,0:0:0:0:
256,192,8304,1,8,0:0:0:0:
256,192,8392,1,0,0:0:0:0:
256,192,8480,1,8,0:0:0:0:
256,192,8569,1,0,0:0:0:0:
256,192,8745,1,12,0:0:0:0:
256,192,9098,1,8,0:0:0:0:
256,192,9274,1,4,0:0:0:0:
256,192,9627,1,8,0:0:0:0:
256,192,9804,1,4,0:0:0:0:
256,192,10157,1,8,0:0:0:0:
256,192,10333,1,4,0:0:0:0:
256,192,10686,1,8,0:0:0:0:
256,192,10863,1,4,0:0:0:0:
256,192,11039,1,8,0:0:0:0:
256,192,11127,1,8,0:0:0:0:
256,192,11216,1,8,0:0:0:0:
256,192,11304,1,8,0:0:0:0:
256,192,11392,1,0,0:0:0:0:
256,192,11569,1,12,0:0:0:0:
256,192,11922,1,8,0:0:0:0:
256,192,12098,1,4,0:0:0:0:
256,192,12451,1,8,0:0:0:0:
256,192,12627,1,4,0:0:0:0:
256,192,12804,1,0,0:0:0:0:
256,192,12892,1,0,0:0:0:0:
256,192,12980,1,8,0:0:0:0:
256,192,13157,1,4,0:0:0:0:
256,192,13333,1,8,0:0:0:0:
256,192,13510,1,8,0:0:0:0:
256,192,13686,1,4,0:0:0:0:
256,192,13863,1,8,0:0:0:0:
256,192,13951,1,8,0:0:0:0:
256,192,14039,1,0,0:0:0:0:
256,192,14127,1,8,0:0:0:0:
256,192,14216,1,0,0:0:0:0:
256,192,14392,1,12,0:0:0:0:
256,192,14657,1,0,0:0:0:0:
256,192,14745,1,8,0:0:0:0:
256,192,14922,1,4,0:0:0:0:
256,192,15098,1,8,0:0:0:0:
256,192,15274,1,8,0:0:0:0:
256,192,15451,1,4,0:0:0:0:
256,192,15627,1,8,0:0:0:0:
256,192,15804,1,8,0:0:0:0:
256,192,15980,1,4,0:0:0:0:
256,192,16333,1,8,0:0:0:0:
256,192,16510,1,4,0:0:0:0:
256,192,16686,1,8,0:0:0:0:
256,192,16774,1,8,0:0:0:0:
256,192,16863,1,0,0:0:0:0:
256,192,16951,1,8,0:0:0:0:
256,192,17039,1,0,0:0:0:0:
256,192,17216,1,4,0:0:0:0:
256,192,17569,1,8,0:0:0:0:
256,192,17745,1,0,0:0:0:0:
256,192,18098,1,0,0:0:0:0:
256,192,18274,1,8,0:0:0:0:
256,192,18363,1,8,0:0:0:0:
256,192,18451,1,0,0:0:0:0:
256,192,18627,1,8,0:0:0:0:
256,192,18892,1,0,0:0:0:0:
256,192,18980,1,8,0:0:0:0:
256,192,19069,1,8,0:0:0:0:
256,192,19157,1,0,0:0:0:0:
256,192,19333,1,0,0:0:0:0:
256,192,19422,1,8,0:0:0:0:
256,192,19510,1,0,0:0:0:0:
256,192,19686,1,12,0:0:0:0:
256,192,20039,5,4,0:0:0:0:
256,192,20392,1,8,0:0:0:0:
256,192,20569,1,8,0:0:0:0:
256,192,20745,1,0,0:0:0:0:
256,192,21098,1,8,0:0:0:0:
256,192,21274,1,8,0:0:0:0:
256,192,21451,1,0,0:0:0:0:
256,192,21804,1,8,0:0:0:0:
256,192,21980,1,8,0:0:0:0:
256,192,22157,1,0,0:0:0:0:
256,192,22333,1,8,0:0:0:0:
256,192,22510,1,8,0:0:0:0:
256,192,22686,1,8,0:0:0:0:
256,192,22863,1,0,0:0:0:0:
256,192,23216,1,8,0:0:0:0:
256,192,23392,1,8,0:0:0:0:
256,192,23569,1,0,0:0:0:0:
256,192,23922,1,8,0:0:0:0:
256,192,24098,1,8,0:0:0:0:
256,192,24274,1,0,0:0:0:0:
256,192,24539,1,0,0:0:0:0:
256,192,24804,1,8,0:0:0:0:
256,192,24980,1,0,0:0:0:0:
256,192,25069,1,8,0:0:0:0:
256,192,25157,1,0,0:0:0:0:
256,192,25333,1,8,0:0:0:0:
256,192,25422,1,8,0:0:0:0:
256,192,25510,1,8,0:0:0:0:
256,192,25686,1,4,0:0:0:0:
256,192,26017,1,0,0:0:0:0:
256,192,26193,1,0,0:0:0:0:
256,192,26369,1,8,0:0:0:0:
256,192,26722,1,0,0:0:0:0:
256,192,26899,1,0,0:0:0:0:
256,192,27076,1,8,0:0:0:0:
256,192,27428,1,0,0:0:0:0:
256,192,27605,1,0,0:0:0:0:
256,192,27781,1,8,0:0:0:0:
256,192,28134,1,8,0:0:0:0:
256,192,28223,1,8,0:0:0:0:
256,192,28311,1,0,0:0:0:0:
256,192,28399,1,0,0:0:0:0:
256,192,28487,1,8,0:0:0:0:
256,192,28840,1,0,0:0:0:0:
256,192,29017,1,8,0:0:0:0:
256,192,29193,1,8,0:0:0:0:
256,192,29546,1,0,0:0:0:0:
256,192,29723,1,0,0:0:0:0:
256,192,29899,1,8,0:0:0:0:
256,192,29987,1,0,0:0:0:0:
256,192,30076,1,0,0:0:0:0:
256,192,30252,1,0,0:0:0:0:
256,192,30428,1,0,0:0:0:0:
256,192,30605,1,8,0:0:0:0:
256,192,30804,1,0,0:0:0:0:
256,192,30892,1,8,0:0:0:0:
256,192,30980,1,8,0:0:0:0:
256,192,31333,5,8,0:0:0:0:
256,192,32744,1,0,0:0:0:0:
256,192,34156,1,0,0:0:0:0:
256,192,34685,1,0,0:0:0:0:
256,192,35215,1,0,0:0:0:0:
256,192,35568,1,8,0:0:0:0:
256,192,36980,1,8,0:0:0:0:
256,192,38038,1,8,0:0:0:0:
256,192,38215,1,0,0:0:0:0:
256,192,38391,1,8,0:0:0:0:
256,192,38921,1,8,0:0:0:0:
256,192,39450,1,0,0:0:0:0:
256,192,39803,1,0,0:0:0:0:
256,192,40156,12,0,41568,0:0:0:0:
256,192,41921,5,0,0:0:0:0:
256,192,42097,1,0,0:0:0:0:
256,192,42274,1,8,0:0:0:0:
256,192,42450,1,0,0:0:0:0:
256,192,42627,1,12,0:0:0:0:
256,192,44038,1,0,0:0:0:0:
256,192,45450,1,0,0:0:0:0:
256,192,45980,1,8,0:0:0:0:
256,192,46509,1,0,0:0:0:0:
256,192,46862,1,0,0:0:0:0:
256,192,47568,1,0,0:0:0:0:
256,192,47921,1,0,0:0:0:0:
256,192,48274,1,8,0:0:0:0:
256,192,49332,1,0,0:0:0:0:
256,192,49685,1,8,0:0:0:0:
256,192,50215,1,8,0:0:0:0:
256,192,50744,1,0,0:0:0:0:
256,192,51097,1,8,0:0:0:0:
256,192,51450,12,8,52332,0:0:0:0:
256,192,52509,12,0,53391,0:0:0:0:
256,192,53568,5,8,0:0:0:0:
256,192,53744,1,8,0:0:0:0:
256,192,53921,5,0,0:0:0:0:
256,192,54097,1,8,0:0:0:0:
256,192,54274,1,8,0:0:0:0:
256,192,54450,1,0,0:0:0:0:
256,192,54803,1,0,0:0:0:0:
256,192,54980,1,8,0:0:0:0:
256,192,55156,1,0,0:0:0:0:
256,192,55244,1,0,0:0:0:0:
256,192,55332,1,0,0:0:0:0:
256,192,55509,1,8,0:0:0:0:
256,192,55862,1,0,0:0:0:0:
256,192,56038,1,8,0:0:0:0:
256,192,56215,1,0,0:0:0:0:
256,192,56391,1,8,0:0:0:0:
256,192,56568,1,8,0:0:0:0:
256,192,56656,1,8,0:0:0:0:
256,192,56744,1,0,0:0:0:0:
256,192,56921,1,0,0:0:0:0:
256,192,57009,1,0,0:0:0:0:
256,192,57097,1,0,0:0:0:0:
256,192,57274,1,12,0:0:0:0:
256,192,57627,1,0,0:0:0:0:
256,192,57715,1,8,0:0:0:0:
256,192,57803,1,0,0:0:0:0:
256,192,57980,1,0,0:0:0:0:
256,192,58068,1,0,0:0:0:0:
256,192,58156,1,8,0:0:0:0:
256,192,58332,1,8,0:0:0:0:
256,192,58509,1,0,0:0:0:0:
256,192,58597,1,0,0:0:0:0:
256,192,58685,1,8,0:0:0:0:
256,192,58862,1,8,0:0:0:0:
256,192,59038,1,8,0:0:0:0:
256,192,59127,1,8,0:0:0:0:
256,192,59215,1,0,0:0:0:0:
256,192,59303,1,0,0:0:0:0:
256,192,59391,1,8,0:0:0:0:
256,192,59568,1,8,0:0:0:0:
256,192,59744,1,0,0:0:0:0:
256,192,59921,1,0,0:0:0:0:
256,192,60097,1,8,0:0:0:0:
256,192,60450,1,8,0:0:0:0:
256,192,60627,1,0,0:0:0:0:
256,192,60803,1,0,0:0:0:0:
256,192,60891,1,0,0:0:0:0:
256,192,60980,1,0,0:0:0:0:
256,192,61156,1,8,0:0:0:0:
256,192,61509,1,0,0:0:0:0:
256,192,61685,1,8,0:0:0:0:
256,192,61862,1,0,0:0:0:0:
256,192,62038,1,0,0:0:0:0:
256,192,62127,1,0,0:0:0:0:
256,192,62215,1,8,0:0:0:0:
256,192,62303,1,0,0:0:0:0:
256,192,62391,1,8,0:0:0:0:
256,192,62568,1,8,0:0:0:0:
256,192,62744,1,0,0:0:0:0:
256,192,62921,1,8,0:0:0:0:
256,192,63274,1,8,0:0:0:0:
256,192,63362,1,8,0:0:0:0:
256,192,63450,1,0,0:0:0:0:
256,192,63627,1,0,0:0:0:0:
256,192,63803,1,0,0:0:0:0:
256,192,63980,1,8,0:0:0:0:
256,192,64156,1,8,0:0:0:0:
256,192,64244,1,8,0:0:0:0:
256,192,64332,1,0,0:0:0:0:
256,192,64509,1,8,0:0:0:0:
256,192,64685,1,0,0:0:0:0:
256,192,64774,1,0,0:0:0:0:
256,192,64862,1,8,0:0:0:0:
256,192,64950,1,0,0:0:0:0:
256,192,65038,1,0,0:0:0:0:
256,192,65215,5,12,0:0:0:0:
256,192,65391,1,8,0:0:0:0:
256,192,65568,1,0,0:0:0:0:
256,192,65744,1,8,0:0:0:0:
256,192,66097,1,0,0:0:0:0:
256,192,66274,1,8,0:0:0:0:
256,192,66450,1,0,0:0:0:0:
256,192,66538,1,0,0:0:0:0:
256,192,66627,1,0,0:0:0:0:
256,192,66803,1,8,0:0:0:0:
256,192,66980,1,0,0:0:0:0:
256,192,67156,1,0,0:0:0:0:
256,192,67332,1,8,0:0:0:0:
256,192,67421,1,8,0:0:0:0:
256,192,67509,1,0,0:0:0:0:
256,192,67685,1,0,0:0:0:0:
256,192,67774,1,0,0:0:0:0:
256,192,67862,1,0,0:0:0:0:
256,192,67950,1,0,0:0:0:0:
256,192,68038,1,8,0:0:0:0:
256,192,68215,1,8,0:0:0:0:
256,192,68391,1,0,0:0:0:0:
256,192,68568,1,8,0:0:0:0:
256,192,68921,1,0,0:0:0:0:
256,192,69097,1,8,0:0:0:0:
256,192,69274,1,0,0:0:0:0:
256,192,69362,1,0,0:0:0:0:
256,192,69450,1,0,0:0:0:0:
256,192,69627,1,8,0:0:0:0:
256,192,69803,1,0,0:0:0:0:
256,192,69980,1,8,0:0:0:0:
256,192,70156,1,8,0:0:0:0:
256,192,70332,1,0,0:0:0:0:
256,192,70421,1,0,0:0:0:0:
256,192,70509,1,8,0:0:0:0:
256,192,70685,1,0,0:0:0:0:
256,192,70862,1,12,0:0:0:0:
256,192,71038,1,8,0:0:0:0:
256,192,71215,1,0,0:0:0:0:
256,192,71391,1,8,0:0:0:0:
256,192,71744,1,0,0:0:0:0:
256,192,71921,1,0,0:0:0:0:
256,192,72097,1,8,0:0:0:0:
256,192,72185,1,8,0:0:0:0:
256,192,72274,1,0,0:0:0:0:
256,192,72450,1,8,0:0:0:0:
256,192,72627,1,0,0:0:0:0:
256,192,72803,1,0,0:0:0:0:
256,192,72891,1,0,0:0:0:0:
256,192,72980,1,8,0:0:0:0:
256,192,73156,1,0,0:0:0:0:
256,192,73244,1,0,0:0:0:0:
256,192,73332,1,8,0:0:0:0:
256,192,73509,1,0,0:0:0:0:
256,192,73597,1,0,0:0:0:0:
256,192,73685,1,8,0:0:0:0:
256,192,73862,1,8,0:0:0:0:
256,192,74038,1,0,0:0:0:0:
256,192,74127,1,0,0:0:0:0:
256,192,74215,1,8,0:0:0:0:
256,192,74568,1,0,0:0:0:0:
256,192,74744,1,8,0:0:0:0:
256,192,74921,1,8,0:0:0:0:
256,192,75009,1,8,0:0:0:0:
256,192,75097,1,0,0:0:0:0:
256,192,75274,1,8,0:0:0:0:
256,192,75450,1,0,0:0:0:0:
256,192,75627,1,0,0:0:0:0:
256,192,75803,1,8,0:0:0:0:
256,192,75980,1,0,0:0:0:0:
256,192,76156,1,8,0:0:0:0:
256,192,76509,12,8,78627,0:0:0:0:
256,192,78803,5,0,0:0:0:0:
256,192,78891,1,0,0:0:0:0:
256,192,78980,1,8,0:0:0:0:
256,192,79068,1,8,0:0:0:0:
256,192,79156,1,0,0:0:0:0:
256,192,79332,1,4,0:0:0:0:
256,192,79509,1,0,0:0:0:0:
256,192,79685,1,8,0:0:0:0:
256,192,79862,1,8,0:0:0:0:
256,192,80127,1,8,0:0:0:0:
256,192,80215,1,0,0:0:0:0:
256,192,80391,1,8,0:0:0:0:
256,192,80480,1,8,0:0:0:0:
256,192,80568,1,0,0:0:0:0:
256,192,80656,1,8,0:0:0:0:
256,192,80744,1,0,0:0:0:0:
256,192,80921,1,0,0:0:0:0:
256,192,81097,1,8,0:0:0:0:
256,192,81274,1,12,0:0:0:0:
256,192,81538,1,8,0:0:0:0:
256,192,81627,1,0,0:0:0:0:
256,192,81803,1,8,0:0:0:0:
256,192,82156,1,0,0:0:0:0:
256,192,82332,1,0,0:0:0:0:
256,192,82509,1,8,0:0:0:0:
256,192,82685,1,0,0:0:0:0:
256,192,82774,1,8,0:0:0:0:
256,192,82950,1,8,0:0:0:0:
256,192,83038,1,0,0:0:0:0:
256,192,83215,1,0,0:0:0:0:
256,192,83303,1,0,0:0:0:0:
256,192,83391,1,8,0:0:0:0:
256,192,83480,1,8,0:0:0:0:
256,192,83568,1,0,0:0:0:0:
256,192,83744,1,0,0:0:0:0:
256,192,83921,1,8,0:0:0:0:
256,192,84097,1,0,0:0:0:0:
256,192,84450,1,0,0:0:0:0:
256,192,84627,1,8,0:0:0:0:
256,192,84803,1,8,0:0:0:0:
256,192,84980,1,4,0:0:0:0:
256,192,85156,1,0,0:0:0:0:
256,192,85332,1,8,0:0:0:0:
256,192,85509,1,0,0:0:0:0:
256,192,85774,1,8,0:0:0:0:
256,192,85862,1,0,0:0:0:0:
256,192,86038,1,8,0:0:0:0:
256,192,86127,1,8,0:0:0:0:
256,192,86215,1,0,0:0:0:0:
256,192,86303,1,8,0:0:0:0:
256,192,86391,1,0,0:0:0:0:
256,192,86568,1,0,0:0:0:0:
256,192,86744,1,8,0:0:0:0:
256,192,86921,1,12,0:0:0:0:
256,192,87185,1,8,0:0:0:0:
256,192,87274,1,0,0:0:0:0:
256,192,87450,1,8,0:0:0:0:
256,192,87803,1,0,0:0:0:0:
256,192,87980,1,0,0:0:0:0:
256,192,88156,1,8,0:0:0:0:
256,192,88332,1,0,0:0:0:0:
256,192,88421,1,8,0:0:0:0:
256,192,88509,1,8,0:0:0:0:
256,192,88597,1,8,0:0:0:0:
256,192,88685,1,0,0:0:0:0:
256,192,88862,1,0,0:0:0:0:
256,192,88950,1,0,0:0:0:0:
256,192,89038,1,0,0:0:0:0:
256,192,89127,1,0,0:0:0:0:
256,192,89215,1,8,0:0:0:0:
256,192,89391,1,0,0:0:0:0:
256,192,89568,1,8,0:0:0:0:
256,192,89744,1,0,0:0:0:0:
256,192,90097,1,0,0:0:0:0:
256,192,90274,1,8,0:0:0:0:
256,192,90450,1,0,0:0:0:0:
256,192,90538,1,8,0:0:0:0:
256,192,90627,1,0,0:0:0:0:
256,192,90980,5,12,0:0:0:0:
256,192,91156,1,0,0:0:0:0:
256,192,91332,1,0,0:0:0:0:
256,192,91509,1,12,0:0:0:0:
256,192,91685,1,0,0:0:0:0:
256,192,91862,1,0,0:0:0:0:
256,192,92038,1,12,0:0:0:0:
256,192,92215,1,0,0:0:0:0:
256,192,92391,1,0,0:0:0:0:
256,192,92568,1,12,0:0:0:0:
256,192,92744,1,0,0:0:0:0:
256,192,92921,1,0,0:0:0:0:
256,192,93097,1,12,0:0:0:0:
256,192,93450,1,0,0:0:0:0:
256,192,93803,1,12,0:0:0:0:
256,192,93980,1,0,0:0:0:0:
256,192,94156,1,0,0:0:0:0:
256,192,94332,1,12,0:0:0:0:
256,192,94509,1,0,0:0:0:0:
256,192,94685,1,0,0:0:0:0:
256,192,94862,1,12,0:0:0:0:
256,192,95038,1,0,0:0:0:0:
256,192,95215,1,0,0:0:0:0:
256,192,95391,1,12,0:0:0:0:
256,192,95568,1,0,0:0:0:0:
256,192,95744,1,0,0:0:0:0:
256,192,95832,1,0,0:0:0:0:
256,192,95921,1,8,0:0:0:0:
256,192,96009,1,8,0:0:0:0:
256,192,96097,1,0,0:0:0:0:
256,192,96274,1,0,0:0:0:0:
256,192,96450,1,0,0:0:0:0:
256,192,96627,1,12,0:0:0:0:
256,192,96803,1,0,0:0:0:0:
256,192,96980,1,0,0:0:0:0:
256,192,97156,1,12,0:0:0:0:
256,192,97332,1,0,0:0:0:0:
256,192,97509,1,0,0:0:0:0:
256,192,97685,1,12,0:0:0:0:
256,192,97862,1,0,0:0:0:0:
256,192,98038,1,0,0:0:0:0:
256,192,98215,1,12,0:0:0:0:
256,192,98391,1,0,0:0:0:0:
256,192,98568,1,0,0:0:0:0:
256,192,98744,1,12,0:0:0:0:
256,192,99097,1,0,0:0:0:0:
256,192,99450,1,12,0:0:0:0:
256,192,99627,1,0,0:0:0:0:
256,192,99803,1,0,0:0:0:0:
256,192,99980,1,12,0:0:0:0:
256,192,100332,1,12,0:0:0:0:
256,192,100509,1,0,0:0:0:0:
256,192,100685,1,12,0:0:0:0:
256,192,101038,1,0,0:0:0:0:
256,192,101127,1,0,0:0:0:0:
256,192,101215,1,8,0:0:0:0:
256,192,101391,1,0,0:0:0:0:
256,192,101568,1,8,0:0:0:0:
256,192,101744,1,0,0:0:0:0:
256,192,101921,5,4,0:0:0:0:
256,192,102274,1,8,0:0:0:0:
256,192,102450,1,0,0:0:0:0:
256,192,102627,1,8,0:0:0:0:
256,192,102803,1,0,0:0:0:0:
256,192,102980,1,8,0:0:0:0:
256,192,103156,1,8,0:0:0:0:
256,192,103332,1,0,0:0:0:0:
256,192,103509,1,0,0:0:0:0:
256,192,103685,1,8,0:0:0:0:
256,192,103862,1,0,0:0:0:0:
256,192,103950,1,0,0:0:0:0:
256,192,104038,1,0,0:0:0:0:
256,192,104215,1,0,0:0:0:0:
256,192,104391,1,8,0:0:0:0:
256,192,104568,1,0,0:0:0:0:
256,192,104921,1,0,0:0:0:0:
256,192,105097,1,8,0:0:0:0:
256,192,105274,1,8,0:0:0:0:
256,192,105450,1,0,0:0:0:0:
256,192,105627,1,0,0:0:0:0:
256,192,105803,1,8,0:0:0:0:
256,192,105980,1,8,0:0:0:0:
256,192,106156,1,0,0:0:0:0:
256,192,106332,1,0,0:0:0:0:
256,192,106509,1,8,0:0:0:0:
256,192,106685,1,0,0:0:0:0:
256,192,106774,1,8,0:0:0:0:
256,192,106950,1,8,0:0:0:0:
256,192,107038,1,0,0:0:0:0:
256,192,107215,1,8,0:0:0:0:
256,192,107391,1,8,0:0:0:0:
256,192,107568,1,0,0:0:0:0:
256,192,107921,1,8,0:0:0:0:
256,192,108097,1,0,0:0:0:0:
256,192,108274,1,8,0:0:0:0:
256,192,108450,1,0,0:0:0:0:
256,192,108627,1,8,0:0:0:0:
256,192,108803,1,8,0:0:0:0:
256,192,108980,1,0,0:0:0:0:
256,192,109156,1,0,0:0:0:0:
256,192,109332,1,8,0:0:0:0:
256,192,109509,1,0,0:0:0:0:
256,192,109597,1,0,0:0:0:0:
256,192,109685,1,0,0:0:0:0:
256,192,109862,1,0,0:0:0:0:
256,192,110038,1,8,0:0:0:0:
256,192,110215,1,0,0:0:0:0:
256,192,110568,1,0,0:0:0:0:
256,192,110744,1,8,0:0:0:0:
256,192,110921,1,0,0:0:0:0:
256,192,111097,1,8,0:0:0:0:
256,192,111274,1,0,0:0:0:0:
256,192,111450,1,12,0:0:0:0:
256,192,111627,1,0,0:0:0:0:
256,192,111803,1,8,0:0:0:0:
256,192,111980,1,8,0:0:0:0:
256,192,112156,1,0,0:0:0:0:
256,192,112332,1,0,0:0:0:0:
256,192,112509,1,8,0:0:0:0:
256,192,112685,1,0,0:0:0:0:
256,192,112862,1,8,0:0:0:0:
256,192,112950,1,8,0:0:0:0:
256,192,113038,1,0,0:0:0:0:
256,192,113215,5,4,0:0:0:0:
256,192,113568,1,8,0:0:0:0:
256,192,113744,1,0,0:0:0:0:
256,192,113921,1,8,0:0:0:0:
256,192,114009,1,8,0:0:0:0:
256,192,114097,1,0,0:0:0:0:
256,192,114274,1,8,0:0:0:0:
256,192,114450,1,8,0:0:0:0:
256,192,114627,1,0,0:0:0:0:
256,192,114803,1,0,0:0:0:0:
256,192,114980,1,8,0:0:0:0:
256,192,115156,1,0,0:0:0:0:
256,192,115332,1,8,0:0:0:0:
256,192,115421,1,8,0:0:0:0:
256,192,115509,1,0,0:0:0:0:
256,192,115685,1,0,0:0:0:0:
256,192,115862,1,8,0:0:0:0:
256,192,116038,1,0,0:0:0:0:
256,192,116215,1,0,0:0:0:0:
256,192,116391,1,8,0:0:0:0:
256,192,116568,1,0,0:0:0:0:
256,192,116744,1,0,0:0:0:0:
256,192,116921,1,0,0:0:0:0:
256,192,117097,1,8,0:0:0:0:
256,192,117274,1,0,0:0:0:0:
256,192,117450,1,8,0:0:0:0:
256,192,117538,1,8,0:0:0:0:
256,192,117627,1,0,0:0:0:0:
256,192,117803,1,8,0:0:0:0:
256,192,117980,1,0,0:0:0:0:
256,192,118332,1,0,0:0:0:0:
256,192,118509,1,8,0:0:0:0:
256,192,118685,1,0,0:0:0:0:
256,192,118774,1,8,0:0:0:0:
256,192,118862,1,0,0:0:0:0:
256,192,119215,1,8,0:0:0:0:
256,192,119391,1,0,0:0:0:0:
256,192,119568,1,8,0:0:0:0:
256,192,119656,1,0,0:0:0:0:
256,192,119744,1,0,0:0:0:0:
256,192,119921,1,8,0:0:0:0:
256,192,120097,1,0,0:0:0:0:
256,192,120274,1,0,0:0:0:0:
256,192,120450,1,0,0:0:0:0:
256,192,120627,1,8,0:0:0:0:
256,192,120803,1,0,0:0:0:0:
256,192,120980,1,8,0:0:0:0:
256,192,121068,1,0,0:0:0:0:
256,192,121156,1,0,0:0:0:0:
256,192,121332,1,8,0:0:0:0:
256,192,121509,1,0,0:0:0:0:
256,192,121862,1,0,0:0:0:0:
256,192,122038,1,8,0:0:0:0:
256,192,122215,1,0,0:0:0:0:
256,192,122303,1,8,0:0:0:0:
256,192,122391,1,0,0:0:0:0:
256,192,122568,1,0,0:0:0:0:
256,192,122656,1,0,0:0:0:0:
256,192,122744,1,8,0:0:0:0:
256,192,122921,1,0,0:0:0:0:
256,192,123009,1,0,0:0:0:0:
256,192,123097,1,0,0:0:0:0:
256,192,123274,1,8,0:0:0:0:
256,192,123450,1,0,0:0:0:0:
256,192,123627,1,8,0:0:0:0:
256,192,123803,1,8,0:0:0:0:
256,192,123980,1,0,0:0:0:0:
256,192,124068,1,0,0:0:0:0:
256,192,124156,1,8,0:0:0:0:
256,192,124244,1,0,0:0:0:0:
256,192,124332,1,8,0:0:0:0:
256,192,124509,5,4,0:0:0:0:
256,192,124862,1,8,0:0:0:0:
256,192,125038,1,0,0:0:0:0:
256,192,125127,1,8,0:0:0:0:
256,192,125215,1,8,0:0:0:0:
256,192,125391,1,0,0:0:0:0:
256,192,125568,1,8,0:0:0:0:
256,192,125744,1,0,0:0:0:0:
256,192,125921,1,0,0:0:0:0:
256,192,126097,1,0,0:0:0:0:
256,192,126274,1,8,0:0:0:0:
256,192,126450,1,0,0:0:0:0:
256,192,126538,1,0,0:0:0:0:
256,192,126627,1,8,0:0:0:0:
256,192,126803,1,0,0:0:0:0:
256,192,126980,1,8,0:0:0:0:
256,192,127068,1,8,0:0:0:0:
256,192,127156,1,0,0:0:0:0:
256,192,127244,1,8,0:0:0:0:
256,192,127332,1,0,0:0:0:0:
256,192,127685,1,8,0:0:0:0:
256,192,127862,1,0,0:0:0:0:
256,192,127950,1,8,0:0:0:0:
256,192,128038,1,0,0:0:0:0:
256,192,128215,1,0,0:0:0:0:
256,192,128391,1,8,0:0:0:0:
256,192,128568,1,8,0:0:0:0:
256,192,128744,1,0,0:0:0:0:
256,192,128921,1,0,0:0:0:0:
256,192,129097,1,8,0:0:0:0:
256,192,129274,1,0,0:0:0:0:
256,192,129362,1,8,0:0:0:0:
256,192,129538,1,8,0:0:0:0:
256,192,129627,1,0,0:0:0:0:
256,192,129803,1,8,0:0:0:0:
256,192,129980,1,0,0:0:0:0:
256,192,130068,1,8,0:0:0:0:
256,192,130156,1,0,0:0:0:0:
256,192,130509,1,8,0:0:0:0:
256,192,130685,1,0,0:0:0:0:
256,192,130774,1,8,0:0:0:0:
256,192,130862,1,8,0:0:0:0:
256,192,131038,1,0,0:0:0:0:
256,192,131215,1,8,0:0:0:0:
256,192,131391,1,0,0:0:0:0:
256,192,131480,1,8,0:0:0:0:
256,192,131568,1,0,0:0:0:0:
256,192,131744,1,0,0:0:0:0:
256,192,131921,1,8,0:0:0:0:
256,192,132097,1,0,0:0:0:0:
256,192,132185,1,8,0:0:0:0:
256,192,132362,1,8,0:0:0:0:
256,192,132450,1,0,0:0:0:0:
256,192,132627,1,8,0:0:0:0:
256,192,132980,1,4,0:0:0:0:
256,192,133332,1,8,0:0:0:0:
256,192,133509,1,4,0:0:0:0:
256,192,133862,1,0,0:0:0:0:
256,192,134038,1,4,0:0:0:0:
256,192,134391,1,8,0:0:0:0:
256,192,134568,1,4,0:0:0:0:
256,192,135097,1,8,0:0:0:0:
256,192,135450,1,8,0:0:0:0:
256,192,135803,1,8,0:0:0:0:
256,192,136156,1,0,0:0:0:0:
256,192,136332,1,8,0:0:0:0:
256,192,136509,1,0,0:0:0:0:
256,192,136597,1,0,0:0:0:0:
256,192,136685,1,8,0:0:0:0:
256,192,136862,1,8,0:0:0:0:
256,192,137038,1,0,0:0:0:0:
256,192,137215,1,0,0:0:0:0:
256,192,137391,1,8,0:0:0:0:
256,192,137568,1,8,0:0:0:0:
256,192,137744,1,0,0:0:0:0:
256,192,137832,1,0,0:0:0:0:
256,192,137921,1,0,0:0:0:0:
256,192,138097,1,8,0:0:0:0:
256,192,138185,1,0,0:0:0:0:
256,192,138274,1,8,0:0:0:0:
256,192,138450,1,0,0:0:0:0:
256,192,138627,1,12,0:0:0:0:
256,192,138980,1,0,0:0:0:0:
256,192,139156,1,12,0:0:0:0:
256,192,139509,1,0,0:0:0:0:
256,192,139685,1,12,0:0:0:0:
256,192,139862,1,0,0:0:0:0:
256,192,140038,1,8,0:0:0:0:
256,192,140127,1,8,0:0:0:0:
256,192,140215,1,0,0:0:0:0:
256,192,140391,1,0,0:0:0:0:
256,192,140568,1,0,0:0:0:0:
256,192,140656,1,0,0:0:0:0:
256,192,140744,1,0,0:0:0:0:
256,192,140921,1,0,0:0:0:0:
256,192,141097,1,12,0:0:0:0:
256,192,141450,5,8,0:0:0:0:
256,192,141803,1,8,0:0:0:0:
256,192,141980,1,8,0:0:0:0:
256,192,142156,1,0,0:0:0:0:
256,192,142509,1,8,0:0:0:0:
256,192,142685,1,8,0:0:0:0:
256,192,142862,1,0,0:0:0:0:
256,192,143215,1,8,0:0:0:0:
256,192,143391,1,8,0:0:0:0:
256,192,143568,1,0,0:0:0:0:
256,192,143744,1,0,0:0:0:0:
256,192,143921,1,8,0:0:0:0:
256,192,144097,1,0,0:0:0:0:
256,192,144274,1,0,0:0:0:0:
256,192,144627,1,8,0:0:0:0:
256,192,144803,1,8,0:0:0:0:
256,192,144980,1,0,0:0:0:0:
256,192,145332,1,8,0:0:0:0:
256,192,145509,1,8,0:0:0:0:
256,192,145685,1,0,0:0:0:0:
256,192,146038,1,8,0:0:0:0:
256,192,146215,1,8,0:0:0:0:
256,192,146391,1,0,0:0:0:0:
256,192,146568,1,8,0:0:0:0:
256,192,146744,1,8,0:0:0:0:
256,192,146921,1,8,0:0:0:0:
256,192,147097,5,4,0:0:0:0:
256,192,147627,1,8,0:0:0:0:
256,192,148156,1,0,0:0:0:0:
256,192,148509,1,8,0:0:0:0:
256,192,149038,1,8,0:0:0:0:
256,192,149921,1,0,0:0:0:0:
256,192,150450,1,8,0:0:0:0:
256,192,150980,1,8,0:0:0:0:
256,192,151332,1,0,0:0:0:0:
256,192,151862,1,8,0:0:0:0:
256,192,152744,1,8,0:0:0:0:
256,192,153274,1,8,0:0:0:0:
256,192,153803,1,0,0:0:0:0:
256,192,154156,1,0,0:0:0:0:
256,192,154862,1,8,0:0:0:0:
256,192,155568,1,0,0:0:0:0:
256,192,156097,1,8,0:0:0:0:
256,192,156627,1,0,0:0:0:0:
256,192,156980,1,0,0:0:0:0:
256,192,157509,1,8,0:0:0:0:
256,192,158038,1,8,0:0:0:0:
256,192,158391,5,4,0:0:0:0:
256,192,158921,1,8,0:0:0:0:
256,192,159450,1,0,0:0:0:0:
256,192,159803,1,0,0:0:0:0:
256,192,160156,1,0,0:0:0:0:
256,192,160332,1,0,0:0:0:0:
256,192,160509,1,8,0:0:0:0:
256,192,160862,1,0,0:0:0:0:
256,192,161038,1,8,0:0:0:0:
256,192,161215,1,0,0:0:0:0:
256,192,161744,1,8,0:0:0:0:
256,192,162274,1,8,0:0:0:0:
256,192,162627,1,0,0:0:0:0:
256,192,162980,1,0,0:0:0:0:
256,192,163156,1,0,0:0:0:0:
256,192,163332,1,8,0:0:0:0:
256,192,163685,1,8,0:0:0:0:
256,192,163862,1,8,0:0:0:0:
256,192,164038,1,0,0:0:0:0:
256,192,164568,1,8,0:0:0:0:
256,192,164744,1,0,0:0:0:0:
256,192,165097,1,0,0:0:0:0:
256,192,165450,1,8,0:0:0:0:
256,192,165803,1,8,0:0:0:0:
256,192,165980,1,0,0:0:0:0:
256,192,166156,1,8,0:0:0:0:
256,192,166509,1,0,0:0:0:0:
256,192,166862,1,8,0:0:0:0:
256,192,167391,1,8,0:0:0:0:
256,192,167921,1,8,0:0:0:0:
256,192,168274,1,0,0:0:0:0:
256,192,168627,1,0,0:0:0:0:
256,192,168803,1,8,0:0:0:0:
256,192,169332,1,8,0:0:0:0:
256,192,169685,5,12,0:0:0:0:
256,192,169862,12,0,171627,0:0:0:0:
256,192,171803,5,0,0:0:0:0:
256,192,171980,1,0,0:0:0:0:
256,192,172156,1,0,0:0:0:0:
256,192,172244,1,0,0:0:0:0:
256,192,172332,1,0,0:0:0:0:
256,192,172509,1,12,0:0:0:0:
256,192,174627,1,8,0:0:0:0:
256,192,174980,1,0,0:0:0:0:
256,192,175156,1,0,0:0:0:0:
256,192,175332,1,12,0:0:0:0:
256,192,175509,12,0,178156,0:0:0:0:
256,192,179568,12,0,180803,0:0:0:0:
256,192,180980,5,12,0:0:0:0:
256,192,181509,1,8,0:0:0:0:
256,192,182038,1,0,0:0:0:0:
256,192,182215,1,0,0:0:0:0:
256,192,182391,1,8,0:0:0:0:
256,192,182568,1,8,0:0:0:0:
256,192,182744,1,0,0:0:0:0:
256,192,183097,1,8,0:0:0:0:
256,192,183274,1,8,0:0:0:0:
256,192,183450,1,0,0:0:0:0:
256,192,183627,1,0,0:0:0:0:
256,192,183803,1,8,0:0:0:0:
256,192,184332,1,8,0:0:0:0:
256,192,184862,1,0,0:0:0:0:
256,192,185038,1,0,0:0:0:0:
256,192,185215,1,8,0:0:0:0:
256,192,185391,1,0,0:0:0:0:
256,192,185568,1,8,0:0:0:0:
256,192,185921,1,0,0:0:0:0:
256,192,186097,1,8,0:0:0:0:
256,192,186274,1,8,0:0:0:0:
256,192,186450,1,0,0:0:0:0:
256,192,186627,1,12,0:0:0:0:
256,192,187156,1,8,0:0:0:0:
256,192,187685,1,0,0:0:0:0:
256,192,187862,1,0,0:0:0:0:
256,192,188038,1,8,0:0:0:0:
256,192,188215,1,8,0:0:0:0:
256,192,188391,1,0,0:0:0:0:
256,192,188744,1,8,0:0:0:0:
256,192,188921,1,8,0:0:0:0:
256,192,189097,1,0,0:0:0:0:
256,192,189274,1,0,0:0:0:0:
256,192,189450,1,8,0:0:0:0:
256,192,189980,1,8,0:0:0:0:
256,192,190332,1,0,0:0:0:0:
256,192,190509,1,8,0:0:0:0:
256,192,190685,1,0,0:0:0:0:
256,192,190862,1,8,0:0:0:0:
256,192,191038,1,0,0:0:0:0:
256,192,191127,1,0,0:0:0:0:
256,192,191215,1,0,0:0:0:0:
256,192,191303,1,0,0:0:0:0:
256,192,191391,1,8,0:0:0:0:
256,192,191568,1,8,0:0:0:0:
256,192,191744,1,0,0:0:0:0:
256,192,191832,1,0,0:0:0:0:
256,192,191921,1,8,0:0:0:0:
256,192,192097,1,0,0:0:0:0:
256,192,192274,5,12,0:0:0:0:
256,192,192627,1,0,0:0:0:0:
256,192,192803,1,8,0:0:0:0:
256,192,193156,1,0,0:0:0:0:
256,192,193332,1,8,0:0:0:0:
256,192,193509,1,8,0:0:0:0:
256,192,193597,1,8,0:0:0:0:
256,192,193685,1,0,0:0:0:0:
256,192,193862,1,8,0:0:0:0:
256,192,194215,1,0,0:0:0:0:
256,192,194391,1,8,0:0:0:0:
256,192,194744,1,8,0:0:0:0:
256,192,195097,1,8,0:0:0:0:
256,192,195274,1,0,0:0:0:0:
256,192,195450,1,0,0:0:0:0:
256,192,195627,1,8,0:0:0:0:
256,192,195803,1,0,0:0:0:0:
256,192,195980,1,0,0:0:0:0:
256,192,196156,1,0,0:0:0:0:
256,192,196332,1,8,0:0:0:0:
256,192,196421,1,8,0:0:0:0:
256,192,196509,1,0,0:0:0:0:
256,192,196685,1,8,0:0:0:0:
256,192,196862,1,0,0:0:0:0:
256,192,197038,1,0,0:0:0:0:
256,192,197127,1,0,0:0:0:0:
256,192,197215,1,8,0:0:0:0:
256,192,197391,1,0,0:0:0:0:
256,192,197480,1,0,0:0:0:0:
256,192,197568,1,8,0:0:0:0:
256,192,197656,1,0,0:0:0:0:
256,192,197744,1,0,0:0:0:0:
256,192,197921,1,12,0:0:0:0:
256,192,198274,1,0,0:0:0:0:
256,192,198450,1,8,0:0:0:0:
256,192,198803,1,0,0:0:0:0:
256,192,198891,1,8,0:0:0:0:
256,192,198980,1,0,0:0:0:0:
256,192,199156,1,0,0:0:0:0:
256,192,199244,1,0,0:0:0:0:
256,192,199332,1,8,0:0:0:0:
256,192,199509,1,8,0:0:0:0:
256,192,199597,1,8,0:0:0:0:
256,192,199685,1,0,0:0:0:0:
256,192,199862,1,8,0:0:0:0:
256,192,199950,1,8,0:0:0:0:
256,192,200038,1,0,0:0:0:0:
256,192,200127,1,8,0:0:0:0:
256,192,200215,1,0,0:0:0:0:
256,192,200391,1,0,0:0:0:0:
256,192,200480,1,0,0:0:0:0:
256,192,200568,1,8,0:0:0:0:
256,192,200744,1,4,0:0:0:0:
256,192,201274,1,4,0:0:0:0:
256,192,201803,1,4,0:0:0:0:
256,192,202332,1,4,0:0:0:0:
256,192,202862,1,8,0:0:0:0:
256,192,203038,1,0,0:0:0:0:
256,192,203215,1,8,0:0:0:0:
256,192,203391,1,0,0:0:0:0:
256,192,203568,5,4,0:0:0:0:
256,192,203744,1,0,0:0:0:0:
256,192,203921,1,8,0:0:0:0:
256,192,204097,1,0,0:0:0:0:
256,192,204185,1,8,0:0:0:0:
256,192,204362,1,8,0:0:0:0:
256,192,204450,1,0,0:0:0:0:
256,192,204627,1,8,0:0:0:0:
256,192,204803,1,8,0:0:0:0:
256,192,204980,1,0,0:0:0:0:
256,192,205156,1,0,0:0:0:0:
256,192,205332,1,8,0:0:0:0:
256,192,205509,1,0,0:0:0:0:
256,192,205685,1,8,0:0:0:0:
256,192,205774,1,8,0:0:0:0:
256,192,205862,1,0,0:0:0:0:
256,192,206038,1,8,0:0:0:0:
256,192,206391,1,0,0:0:0:0:
256,192,206568,1,0,0:0:0:0:
256,192,206744,1,8,0:0:0:0:
256,192,206921,1,0,0:0:0:0:
256,192,207009,1,8,0:0:0:0:
256,192,207185,1,8,0:0:0:0:
256,192,207274,1,0,0:0:0:0:
256,192,207450,1,8,0:0:0:0:
256,192,207627,1,8,0:0:0:0:
256,192,207803,1,0,0:0:0:0:
256,192,207980,1,0,0:0:0:0:
256,192,208156,1,8,0:0:0:0:
256,192,208332,1,0,0:0:0:0:
256,192,208421,1,8,0:0:0:0:
256,192,208509,1,0,0:0:0:0:
256,192,208597,1,8,0:0:0:0:
256,192,208685,1,0,0:0:0:0:
256,192,208862,1,8,0:0:0:0:
256,192,209038,1,8,0:0:0:0:
256,192,209215,1,0,0:0:0:0:
256,192,209391,1,0,0:0:0:0:
256,192,209568,1,8,0:0:0:0:
256,192,209744,1,0,0:0:0:0:
256,192,209832,1,8,0:0:0:0:
256,192,210009,1,8,0:0:0:0:
256,192,210097,1,0,0:0:0:0:
256,192,210274,1,8,0:0:0:0:
256,192,210450,1,8,0:0:0:0:
256,192,210627,1,0,0:0:0:0:
256,192,210803,1,0,0:0:0:0:
256,192,210980,1,8,0:0:0:0:
256,192,211156,1,0,0:0:0:0:
256,192,211332,1,8,0:0:0:0:
256,192,211421,1,8,0:0:0:0:
256,192,211509,1,0,0:0:0:0:
256,192,211685,1,8,0:0:0:0:
256,192,212038,1,0,0:0:0:0:
256,192,212215,1,0,0:0:0:0:
256,192,212391,1,8,0:0:0:0:
256,192,212568,1,0,0:0:0:0:
256,192,212656,1,8,0:0:0:0:
256,192,212832,1,8,0:0:0:0:
256,192,212921,1,0,0:0:0:0:
256,192,213097,1,8,0:0:0:0:
256,192,213274,1,0,0:0:0:0:
256,192,213450,1,12,0:0:0:0:
256,192,213715,1,4,0:0:0:0:
256,192,213980,1,12,0:0:0:0:
256,192,214332,1,0,0:0:0:0:
256,192,214421,1,0,0:0:0:0:
256,192,214509,1,8,0:0:0:0:
256,192,214685,1,8,0:0:0:0:
256,192,214862,5,4,0:0:0:0:
256,192,215038,1,0,0:0:0:0:
256,192,215215,1,8,0:0:0:0:
256,192,215391,1,0,0:0:0:0:
256,192,215480,1,8,0:0:0:0:
256,192,215568,1,0,0:0:0:0:
256,192,215744,1,0,0:0:0:0:
256,192,215921,1,8,0:0:0:0:
256,192,216097,1,0,0:0:0:0:
256,192,216185,1,0,0:0:0:0:
256,192,216274,1,0,0:0:0:0:
256,192,216450,1,0,0:0:0:0:
256,192,216627,1,8,0:0:0:0:
256,192,216803,1,0,0:0:0:0:
256,192,216891,1,8,0:0:0:0:
256,192,216980,1,8,0:0:0:0:
256,192,217068,1,8,0:0:0:0:
256,192,217156,1,0,0:0:0:0:
256,192,217332,1,8,0:0:0:0:
256,192,217685,1,0,0:0:0:0:
256,192,217862,1,0,0:0:0:0:
256,192,218038,1,8,0:0:0:0:
256,192,218215,1,0,0:0:0:0:
256,192,218303,1,8,0:0:0:0:
256,192,218391,1,0,0:0:0:0:
256,192,218568,1,0,0:0:0:0:
256,192,218744,1,8,0:0:0:0:
256,192,218921,1,0,0:0:0:0:
256,192,219009,1,0,0:0:0:0:
256,192,219097,1,0,0:0:0:0:
256,192,219274,1,0,0:0:0:0:
256,192,219450,1,8,0:0:0:0:
256,192,219627,1,0,0:0:0:0:
256,192,219715,1,8,0:0:0:0:
256,192,219891,1,8,0:0:0:0:
256,192,219980,1,0,0:0:0:0:
256,192,220068,1,0,0:0:0:0:
256,192,220156,1,8,0:0:0:0:
256,192,220509,1,4,0:0:0:0:
256,192,220685,1,4,0:0:0:0:
256,192,221038,1,8,0:0:0:0:
256,192,221127,1,8,0:0:0:0:
256,192,221215,1,8,0:0:0:0:
256,192,221391,1,0,0:0:0:0:
256,192,221744,1,8,0:0:0:0:
256,192,221832,1,8,0:0:0:0:
256,192,221921,1,8,0:0:0:0:
256,192,222097,1,0,0:0:0:0:
256,192,222450,1,0,0:0:0:0:
256,192,222538,1,0,0:0:0:0:
256,192,222627,1,0,0:0:0:0:
256,192,222803,1,0,0:0:0:0:
256,192,222980,1,8,0:0:0:0:
256,192,223332,1,8,0:0:0:0:
256,192,223509,1,0,0:0:0:0:
256,192,223862,1,0,0:0:0:0:
256,192,224038,1,8,0:0:0:0:
256,192,224215,1,0,0:0:0:0:
256,192,224568,1,0,0:0:0:0:
256,192,224744,1,8,0:0:0:0:
256,192,224921,1,8,0:0:0:0:
256,192,225274,1,0,0:0:0:0:
256,192,225450,1,8,0:0:0:0:
256,192,225627,1,0,0:0:0:0:
256,192,225803,1,12,0:0:0:0:
256,192,226156,5,4,0:0:0:0:
256,192,226509,1,8,0:0:0:0:
256,192,226685,1,12,0:0:0:0:
256,192,226862,1,4,0:0:0:0:
256,192,227215,1,8,0:0:0:0:
256,192,227391,1,12,0:0:0:0:
256,192,227568,1,4,0:0:0:0:
256,192,227744,1,0,0:0:0:0:
256,192,227832,1,0,0:0:0:0:
256,192,227921,1,8,0:0:0:0:
256,192,228097,1,0,0:0:0:0:
256,192,228274,1,8,0:0:0:0:
256,192,228450,1,8,0:0:0:0:
256,192,228803,1,4,0:0:0:0:
256,192,229156,1,0,0:0:0:0:
256,192,229244,1,0,0:0:0:0:
256,192,229332,1,8,0:0:0:0:
256,192,229509,1,12,0:0:0:0:
256,192,229685,1,4,0:0:0:0:
256,192,229862,1,0,0:0:0:0:
256,192,229950,1,0,0:0:0:0:
256,192,230038,1,8,0:0:0:0:
256,192,230215,1,4,0:0:0:0:
256,192,230391,1,12,0:0:0:0:
256,192,230568,1,0,0:0:0:0:
256,192,230656,1,0,0:0:0:0:
256,192,230744,1,8,0:0:0:0:
256,192,230921,1,4,0:0:0:0:
256,192,231097,1,12,0:0:0:0:
256,192,231274,1,0,0:0:0:0:
256,192,231450,1,8,0:0:0:0:
256,192,231627,1,8,0:0:0:0:
256,192,231803,1,4,0:0:0:0:
256,192,232156,1,8,0:0:0:0:
256,192,232332,1,12,0:0:0:0:
256,192,232509,1,4,0:0:0:0:
256,192,232862,1,8,0:0:0:0:
256,192,233038,1,12,0:0:0:0:
256,192,233215,1,4,0:0:0:0:
256,192,233568,1,0,0:0:0:0:
256,192,233744,1,0,0:0:0:0:
256,192,233832,1,8,0:0:0:0:
256,192,233921,1,0,0:0:0:0:
256,192,234097,1,8,0:0:0:0:
256,192,234274,1,8,0:0:0:0:
256,192,234450,1,4,0:0:0:0:
256,192,234803,1,4,0:0:0:0:
256,192,235156,1,12,0:0:0:0:
256,192,235332,1,4,0:0:0:0:
256,192,235509,1,0,0:0:0:0:
256,192,235685,1,8,0:0:0:0:
256,192,235862,1,8,0:0:0:0:
256,192,236038,1,0,0:0:0:0:
256,192,236215,1,0,0:0:0:0:
256,192,236568,1,0,0:0:0:0:
256,192,236744,1,8,0:0:0:0:
256,192,236921,1,8,0:0:0:0:
256,192,237009,1,8,0:0:0:0:
256,192,237097,1,0,0:0:0:0:
256,192,237185,1,0,0:0:0:0:
256,192,237274,1,8,0:0:0:0:
256,192,237450,5,4,0:0:0:0:
256,192,237803,1,8,0:0:0:0:
256,192,237980,1,0,0:0:0:0:
256,192,238156,1,0,0:0:0:0:
256,192,238332,1,0,0:0:0:0:
256,192,238509,1,8,0:0:0:0:
256,192,238685,1,8,0:0:0:0:
256,192,238862,1,0,0:0:0:0:
256,192,239038,1,0,0:0:0:0:
256,192,239215,1,8,0:0:0:0:
256,192,239568,1,4,0:0:0:0:
256,192,239803,1,4,0:0:0:0:
256,192,240038,1,4,0:0:0:0:
256,192,240274,1,8,0:0:0:0:
256,192,240627,1,8,0:0:0:0:
256,192,240803,1,8,0:0:0:0:
256,192,240980,1,0,0:0:0:0:
256,192,241156,1,0,0:0:0:0:
256,192,241332,1,8,0:0:0:0:
256,192,241509,1,8,0:0:0:0:
256,192,241685,1,0,0:0:0:0:
256,192,241862,1,0,0:0:0:0:
256,192,242038,1,8,0:0:0:0:
256,192,242215,1,0,0:0:0:0:
256,192,242391,1,12,0:0:0:0:
256,192,242568,1,0,0:0:0:0:
256,192,242744,1,12,0:0:0:0:
256,192,243097,1,0,0:0:0:0:
256,192,243450,1,8,0:0:0:0:
256,192,243627,1,0,0:0:0:0:
256,192,243803,1,0,0:0:0:0:
256,192,243980,1,0,0:0:0:0:
256,192,244156,1,8,0:0:0:0:
256,192,244332,1,0,0:0:0:0:
256,192,244509,1,8,0:0:0:0:
256,192,244685,1,0,0:0:0:0:
256,192,244862,1,8,0:0:0:0:
256,192,245038,1,8,0:0:0:0:
256,192,245215,1,0,0:0:0:0:
256,192,245391,1,0,0:0:0:0:
256,192,245568,1,8,0:0:0:0:
256,192,245656,1,0,0:0:0:0:
256,192,245744,1,0,0:0:0:0:
256,192,245921,1,8,0:0:0:0:
256,192,246274,1,8,0:0:0:0:
256,192,246450,1,8,0:0:0:0:
256,192,246627,1,0,0:0:0:0:
256,192,246803,1,0,0:0:0:0:
256,192,246980,1,8,0:0:0:0:
256,192,247156,1,0,0:0:0:0:
256,192,247332,1,0,0:0:0:0:
256,192,247509,1,8,0:0:0:0:
256,192,247685,1,8,0:0:0:0:
256,192,247862,1,0,0:0:0:0:
256,192,248038,1,12,0:0:0:0:
256,192,248215,1,0,0:0:0:0:
256,192,248391,1,12,0:0:0:0:
256,192,248568,1,0,0:0:0:0:
256,192,248744,5,4,0:0:0:0:
256,192,249097,1,8,0:0:0:0:
256,192,249274,1,0,0:0:0:0:
256,192,249450,1,8,0:0:0:0:
256,192,249538,1,8,0:0:0:0:
256,192,249627,1,0,0:0:0:0:
256,192,249803,1,8,0:0:0:0:
256,192,249980,1,8,0:0:0:0:
256,192,250156,1,0,0:0:0:0:
256,192,250332,1,0,0:0:0:0:
256,192,250509,1,8,0:0:0:0:
256,192,250685,1,0,0:0:0:0:
256,192,250862,1,8,0:0:0:0:
256,192,250950,1,8,0:0:0:0:
256,192,251038,1,0,0:0:0:0:
256,192,251215,1,0,0:0:0:0:
256,192,251391,1,8,0:0:0:0:
256,192,251568,1,0,0:0:0:0:
256,192,251744,1,0,0:0:0:0:
256,192,251921,1,8,0:0:0:0:
256,192,252097,1,0,0:0:0:0:
256,192,252274,1,0,0:0:0:0:
256,192,252450,1,0,0:0:0:0:
256,192,252627,1,8,0:0:0:0:
256,192,252803,1,0,0:0:0:0:
256,192,252980,1,8,0:0:0:0:
256,192,253068,1,8,0:0:0:0:
256,192,253156,1,0,0:0:0:0:
256,192,253332,1,8,0:0:0:0:
256,192,253509,1,0,0:0:0:0:
256,192,253862,1,0,0:0:0:0:
256,192,254038,1,8,0:0:0:0:
256,192,254215,1,0,0:0:0:0:
256,192,254303,1,8,0:0:0:0:
256,192,254391,1,0,0:0:0:0:
256,192,254744,1,8,0:0:0:0:
256,192,254921,1,0,0:0:0:0:
256,192,255097,1,8,0:0:0:0:
256,192,255185,1,0,0:0:0:0:
256,192,255274,1,0,0:0:0:0:
256,192,255450,1,8,0:0:0:0:
256,192,255627,1,0,0:0:0:0:
256,192,255803,1,0,0:0:0:0:
256,192,255980,1,0,0:0:0:0:
256,192,256156,1,8,0:0:0:0:
256,192,256332,1,0,0:0:0:0:
256,192,256509,1,8,0:0:0:0:
256,192,256597,1,0,0:0:0:0:
256,192,256685,1,0,0:0:0:0:
256,192,256862,1,8,0:0:0:0:
256,192,257038,1,0,0:0:0:0:
256,192,257391,1,0,0:0:0:0:
256,192,257568,1,8,0:0:0:0:
256,192,257744,1,0,0:0:0:0:
256,192,257832,1,8,0:0:0:0:
256,192,257921,1,0,0:0:0:0:
256,192,258097,1,0,0:0:0:0:
256,192,258185,1,0,0:0:0:0:
256,192,258274,1,8,0:0:0:0:
256,192,258450,1,0,0:0:0:0:
256,192,258538,1,0,0:0:0:0:
256,192,258627,1,0,0:0:0:0:
256,192,258803,1,8,0:0:0:0:
256,192,258980,1,0,0:0:0:0:
256,192,259156,1,8,0:0:0:0:
256,192,259332,1,8,0:0:0:0:
256,192,259509,1,0,0:0:0:0:
256,192,259597,1,0,0:0:0:0:
256,192,259685,1,8,0:0:0:0:
256,192,259774,1,0,0:0:0:0:
256,192,259862,1,8,0:0:0:0:
256,192,260038,5,4,0:0:0:0:
256,192,260391,1,8,0:0:0:0:
256,192,260568,1,0,0:0:0:0:
256,192,260656,1,8,0:0:0:0:
256,192,260744,1,8,0:0:0:0:
256,192,260921,1,0,0:0:0:0:
256,192,261097,1,8,0:0:0:0:
256,192,261274,1,0,0:0:0:0:
256,192,261450,1,0,0:0:0:0:
256,192,261627,1,0,0:0:0:0:
256,192,261803,1,8,0:0:0:0:
256,192,261980,1,0,0:0:0:0:
256,192,262068,1,0,0:0:0:0:
256,192,262156,1,8,0:0:0:0:
256,192,262332,1,0,0:0:0:0:
256,192,262509,1,8,0:0:0:0:
256,192,262597,1,8,0:0:0:0:
256,192,262685,1,0,0:0:0:0:
256,192,262774,1,8,0:0:0:0:
256,192,262862,1,0,0:0:0:0:
256,192,263215,1,8,0:0:0:0:
256,192,263391,1,0,0:0:0:0:
256,192,263480,1,8,0:0:0:0:
256,192,263568,1,0,0:0:0:0:
256,192,263744,1,0,0:0:0:0:
256,192,263921,1,8,0:0:0:0:
256,192,264097,1,8,0:0:0:0:
256,192,264274,1,0,0:0:0:0:
256,192,264450,1,0,0:0:0:0:
256,192,264627,1,8,0:0:0:0:
256,192,264803,1,0,0:0:0:0:
256,192,264891,1,8,0:0:0:0:
256,192,265068,1,8,0:0:0:0:
256,192,265156,1,0,0:0:0:0:
256,192,265332,1,8,0:0:0:0:
256,192,265509,1,0,0:0:0:0:
256,192,265597,1,8,0:0:0:0:
256,192,265685,1,0,0:0:0:0:
256,192,266038,1,8,0:0:0:0:
256,192,266215,1,0,0:0:0:0:
256,192,266303,1,8,0:0:0:0:
256,192,266391,1,8,0:0:0:0:
256,192,266568,1,0,0:0:0:0:
256,192,266744,1,8,0:0:0:0:
256,192,266921,1,0,0:0:0:0:
256,192,267009,1,8,0:0:0:0:
256,192,267097,1,0,0:0:0:0:
256,192,267274,1,0,0:0:0:0:
256,192,267450,1,8,0:0:0:0:
256,192,267627,1,0,0:0:0:0:
256,192,267715,1,8,0:0:0:0:
256,192,267891,1,8,0:0:0:0:
256,192,267980,1,0,0:0:0:0:
256,192,268156,1,8,0:0:0:0:
256,192,268509,1,4,0:0:0:0:
256,192,269215,1,4,0:0:0:0:
256,192,269921,1,4,0:0:0:0:
256,192,270627,1,4,0:0:0:0:
256,192,270980,1,8,0:0:0:0:
256,192,271068,1,8,0:0:0:0:
256,192,271156,1,8,0:0:0:0:
256,192,271332,5,4,0:0:0:0:
256,192,271685,1,0,0:0:0:0:
256,192,271862,1,8,0:0:0:0:
256,192,272038,1,0,0:0:0:0:
256,192,272215,1,8,0:0:0:0:
256,192,272391,1,8,0:0:0:0:
256,192,272568,1,0,0:0:0:0:
256,192,272744,1,12,0:0:0:0:
256,192,272921,1,0,0:0:0:0:
256,192,273097,1,0,0:0:0:0:
256,192,273274,1,12,0:0:0:0:
256,192,273450,1,0,0:0:0:0:
256,192,273627,1,8,0:0:0:0:
256,192,273715,1,8,0:0:0:0:
256,192,273803,1,0,0:0:0:0:
256,192,273891,1,8,0:0:0:0:
256,192,273980,1,0,0:0:0:0:
256,192,274156,5,4,0:0:0:0:
256,192,274332,1,0,0:0:0:0:
256,192,274509,1,8,0:0:0:0:
256,192,274685,1,8,0:0:0:0:
256,192,274950,1,8,0:0:0:0:
256,192,275038,1,0,0:0:0:0:
256,192,275215,1,8,0:0:0:0:
256,192,275303,1,8,0:0:0:0:
256,192,275391,1,0,0:0:0:0:
256,192,275480,1,8,0:0:0:0:
256,192,275568,1,0,0:0:0:0:
256,192,275744,1,0,0:0:0:0:
256,192,275921,1,8,0:0:0:0:
256,192,276097,1,12,0:0:0:0:
256,192,276362,1,8,0:0:0:0:
256,192,276450,1,0,0:0:0:0:
256,192,276627,1,8,0:0:0:0:
256,192,276980,1,0,0:0:0:0:
256,192,277156,1,0,0:0:0:0:
256,192,277332,1,8,0:0:0:0:
256,192,277509,1,0,0:0:0:0:
256,192,277597,1,8,0:0:0:0:
256,192,277774,1,8,0:0:0:0:
256,192,277862,1,0,0:0:0:0:
256,192,278038,1,0,0:0:0:0:
256,192,278127,1,0,0:0:0:0:
256,192,278215,1,8,0:0:0:0:
256,192,278303,1,8,0:0:0:0:
256,192,278391,1,0,0:0:0:0:
256,192,278568,1,0,0:0:0:0:
256,192,278744,1,8,0:0:0:0:
256,192,278921,1,0,0:0:0:0:
256,192,279274,1,0,0:0:0:0:
256,192,279450,1,8,0:0:0:0:
256,192,279627,1,8,0:0:0:0:
256,192,279803,1,4,0:0:0:0:
256,192,279980,1,0,0:0:0:0:
256,192,280156,1,8,0:0:0:0:
256,192,280332,1,0,0:0:0:0:
256,192,280597,1,8,0:0:0:0:
256,192,280685,1,0,0:0:0:0:
256,192,280862,1,8,0:0:0:0:
256,192,280950,1,8,0:0:0:0:
256,192,281038,1,0,0:0:0:0:
256,192,281127,1,8,0:0:0:0:
256,192,281215,1,0,0:0:0:0:
256,192,281391,1,0,0:0:0:0:
256,192,281568,1,8,0:0:0:0:
256,192,281744,1,12,0:0:0:0:
256,192,282009,1,8,0:0:0:0:
256,192,282097,1,0,0:0:0:0:
256,192,282274,1,8,0:0:0:0:
256,192,282627,1,0,0:0:0:0:
256,192,282803,1,0,0:0:0:0:
256,192,282980,1,8,0:0:0:0:
256,192,283156,1,0,0:0:0:0:
256,192,283244,1,8,0:0:0:0:
256,192,283332,1,8,0:0:0:0:
256,192,283421,1,8,0:0:0:0:
256,192,283509,1,0,0:0:0:0:
256,192,283685,1,0,0:0:0:0:
256,192,283774,1,0,0:0:0:0:
256,192,283862,1,0,0:0:0:0:
256,192,283950,1,0,0:0:0:0:
256,192,284038,1,8,0:0:0:0:
256,192,284215,1,0,0:0:0:0:
256,192,284391,1,8,0:0:0:0:
256,192,284568,1,0,0:0:0:0:
256,192,284921,1,0,0:0:0:0:
256,192,285097,1,8,0:0:0:0:
256,192,285274,1,0,0:0:0:0:
256,192,285450,5,12,0:0:0:0:
256,192,285627,1,0,0:0:0:0:
256,192,285803,1,0,0:0:0:0:
256,192,285980,1,12,0:0:0:0:
256,192,286156,1,0,0:0:0:0:
256,192,286332,1,0,0:0:0:0:
256,192,286509,1,12,0:0:0:0:
256,192,286685,1,0,0:0:0:0:
256,192,286862,1,0,0:0:0:0:
256,192,287038,1,12,0:0:0:0:
256,192,287215,1,0,0:0:0:0:
256,192,287391,1,0,0:0:0:0:
256,192,287568,1,12,0:0:0:0:
256,192,287744,1,0,0:0:0:0:
256,192,287921,1,12,0:0:0:0:
256,192,288274,1,12,0:0:0:0:
256,192,288450,1,0,0:0:0:0:
256,192,288627,1,0,0:0:0:0:
256,192,288803,1,12,0:0:0:0:
256,192,288980,1,0,0:0:0:0:
256,192,289156,1,0,0:0:0:0:
256,192,289332,1,12,0:0:0:0:
256,192,289509,1,0,0:0:0:0:
256,192,289685,1,0,0:0:0:0:
256,192,289862,1,12,0:0:0:0:
256,192,290038,1,0,0:0:0:0:
256,192,290215,1,0,0:0:0:0:
256,192,290391,1,12,0:0:0:0:
256,192,290568,1,0,0:0:0:0:
256,192,290656,1,8,0:0:0:0:
256,192,290744,1,8,0:0:0:0:
256,192,290832,1,8,0:0:0:0:
256,192,290921,1,0,0:0:0:0:
256,192,291097,1,12,0:0:0:0:
256,192,291274,1,0,0:0:0:0:
256,192,291450,1,0,0:0:0:0:
256,192,291627,1,12,0:0:0:0:
256,192,291803,1,0,0:0:0:0:
256,192,291980,1,0,0:0:0:0:
256,192,292156,1,12,0:0:0:0:
256,192,292332,1,0,0:0:0:0:
256,192,292509,1,0,0:0:0:0:
256,192,292685,1,12,0:0:0:0:
256,192,292862,1,0,0:0:0:0:
256,192,293038,1,0,0:0:0:0:
256,192,293215,1,12,0:0:0:0:
256,192,293391,1,0,0:0:0:0:
256,192,293568,1,12,0:0:0:0:
256,192,293921,1,4,0:0:0:0:
256,192,294274,1,8,0:0:0:0:
256,192,294450,1,4,0:0:0:0:
256,192,294803,1,0,0:0:0:0:
256,192,294980,1,4,0:0:0:0:
256,192,295332,1,8,0:0:0:0:
256,192,295509,1,4,0:0:0:0:
