osu file format v14

[General]
AudioFilename: audio.mp3
AudioLeadIn: 0
PreviewTime: 79289
Countdown: 0
SampleSet: Normal
StackLeniency: 0.7
Mode: 1
LetterboxInBreaks: 0
WidescreenStoryboard: 0

[Editor]
Bookmarks: 25676,42617,53922,65206,113206,203569,214853,248735
DistanceSpacing: 1.1
BeatDivisor: 2
GridSize: 32
TimelineZoom: 2.2

[Metadata]
Title:Firewall
TitleUnicode:Firewall
Artist:Boom Kitty
ArtistUnicode:Boom Kitty
Creator:Jaltzu
Version:Futsuu
Source:
Tags:instrumental electronic dnb drum and & bass edm dance music geometry dash old school kitty vol. volume 3
BeatmapID:2829227
BeatmapSetID:1254357

[Difficulty]
HPDrainRate:6.5
CircleSize:2
OverallDifficulty:4
ApproachRate:10
SliderMultiplier:1.4
SliderTickRate:1

[Events]
//Background and Video events
0,0,"fire.jpg",0,95
//Break Periods
//Storyboard Layer 0 (Background)
//Storyboard Layer 1 (Fail)
//Storyboard Layer 2 (Pass)
//Storyboard Layer 3 (Foreground)
//Storyboard Layer 4 (Overlay)
//Storyboard Sound Samples

[TimingPoints]
275,352.941176470588,4,1,0,60,1,0
5172,-100,4,1,0,70,0,0
5877,-100,4,1,0,80,0,0
17172,-100,4,1,0,70,0,0
17701,-100,4,1,0,60,0,0
19466,-100,4,1,0,70,0,0
19995,-100,4,1,0,60,0,0
20348,-100,4,1,0,46,0,0
20524,-100,4,1,0,47,0,0
20701,-100,4,1,0,48,0,0
21054,-100,4,1,0,50,0,0
21230,-100,4,1,0,51,0,0
21407,-100,4,1,0,52,0,0
21760,-100,4,1,0,54,0,0
21936,-100,4,1,0,55,0,0
22113,-100,4,1,0,56,0,0
22289,-100,4,1,0,57,0,0
22466,-100,4,1,0,58,0,0
22819,-100,4,1,0,60,0,0
23172,-100,4,1,0,62,0,0
23348,-100,4,1,0,63,0,0
23524,-100,4,1,0,64,0,0
23877,-100,4,1,0,66,0,0
24054,-100,4,1,0,67,0,0
24230,-100,4,1,0,68,0,0
24495,-100,4,1,0,69,0,0
24760,-100,4,1,0,75,0,0
25289,-100,4,1,0,80,0,0
25642,-100,4,1,0,50,0,0
26017,352.941176470588,4,1,0,52,1,8
26172,-100,4,1,0,53,0,0
26348,-100,4,1,0,54,0,0
26701,-100,4,1,0,56,0,0
26877,-100,4,1,0,57,0,0
27054,-100,4,1,0,58,0,0
27076,352.941176470588,4,1,0,58,1,0
27076,-100,4,1,0,58,0,0
27407,-100,4,1,0,60,0,0
27583,-100,4,1,0,61,0,0
27760,-100,4,1,0,62,0,0
28113,-100,4,1,0,64,0,0
28201,-100,4,1,0,64,0,0
28289,-100,4,1,0,65,0,0
28377,-100,4,1,0,65,0,0
28466,-100,4,1,0,66,0,0
28819,-100,4,1,0,68,0,0
28995,-100,4,1,0,69,0,0
29172,-100,4,1,0,70,0,0
29524,-100,4,1,0,72,0,0
29701,-100,4,1,0,73,0,0
29877,-100,4,1,0,74,0,0
30054,-100,4,1,0,75,0,0
30230,-100,4,1,0,76,0,0
30407,-100,4,1,0,77,0,0
30583,-100,4,1,0,78,0,0
30760,-100,4,1,0,79,0,0
30804,352.941176470588,4,1,0,79,1,8
30936,-100,4,1,0,80,0,0
31245,-100,4,1,0,60,0,0
31333,352.941176470588,4,1,0,60,1,0
51627,-100,4,1,0,61,0,0
51803,-100,4,1,0,62,0,0
51980,-100,4,1,0,63,0,0
52156,-100,4,1,0,64,0,0
52332,-100,4,1,0,65,0,0
52685,-100,4,1,0,66,0,0
52862,-100,4,1,0,67,0,0
53038,-100,4,1,0,68,0,0
53215,-100,4,1,0,69,0,0
53391,-100,4,1,0,70,0,0
53833,-100,4,1,0,80,0,0
76422,-100,4,1,0,50,0,0
78716,-96.1538461538461,4,1,0,80,0,0
78936,-94.3396226415094,4,1,0,80,0,0
79113,-92.5925925925926,4,1,0,80,0,0
79289,-90.9090909090909,4,1,0,90,0,0
79332,-90.9090909090909,4,1,0,90,0,1
90583,-90.9090909090909,4,1,0,80,0,1
90627,-90.9090909090909,4,1,0,80,0,0
90892,-90.9090909090909,4,1,0,80,0,0
91466,-93.0232558139535,4,1,0,80,0,0
91995,-95.2380952380952,4,1,0,80,0,0
92524,-97.5609756097561,4,1,0,80,0,0
93054,-100,4,1,0,80,0,0
94289,-96.7773153972709,4,1,0,80,0,0
94819,-93.7470704040499,4,1,0,80,0,0
95348,-90.9090909090909,4,1,0,80,0,0
97113,-93.0232558139535,4,1,0,80,0,0
97642,-95.2380952380952,4,1,0,80,0,0
98172,-97.5609756097561,4,1,0,80,0,0
98701,-100,4,1,0,80,0,0
99936,-95.8864704190239,4,1,0,80,0,0
100289,-93.3358222885944,4,1,0,80,0,0
100466,-92.1064750851985,4,1,0,80,0,0
100642,-90.9090909090909,4,1,0,80,0,0
101347,-93.0232558139535,4,1,0,80,0,0
101524,-95.2380952380952,4,1,0,80,0,0
101877,-100,4,1,0,80,0,0
123936,-96.1538461538461,4,1,0,80,0,0
124113,-94.3396226415094,4,1,0,80,0,0
124289,-92.5925925925926,4,1,0,80,0,0
124466,-90.9090909090909,4,1,0,90,0,0
124509,-90.9090909090909,4,1,0,90,0,1
134568,-90.9090909090909,4,1,0,90,0,0
135010,-93.0232558139535,4,1,0,70,0,0
135760,-97.5609756097561,4,1,0,70,0,0
136113,-100,4,1,0,70,0,0
141407,-100,4,1,0,60,0,0
141760,-100,4,1,0,41,0,0
141936,-100,4,1,0,42,0,0
142113,-100,4,1,0,43,0,0
142466,-100,4,1,0,45,0,0
142642,-100,4,1,0,46,0,0
142819,-100,4,1,0,47,0,0
143172,-100,4,1,0,49,0,0
143348,-100,4,1,0,50,0,0
143525,-100,4,1,0,51,0,0
143701,-100,4,1,0,52,0,0
143878,-100,4,1,0,53,0,0
144054,-100,4,1,0,54,0,0
144230,-100,4,1,0,55,0,0
144583,-100,4,1,0,57,0,0
144760,-100,4,1,0,58,0,0
144936,-100,4,1,0,59,0,0
145289,-100,4,1,0,61,0,0
145466,-100,4,1,0,62,0,0
145642,-100,4,1,0,63,0,0
145995,-100,4,1,0,65,0,0
146172,-100,4,1,0,66,0,0
146348,-100,4,1,0,67,0,0
146525,-100,4,1,0,68,0,0
146701,-100,4,1,0,69,0,0
146878,-100,4,1,0,70,0,0
147054,-100,4,1,0,60,0,0
157422,-100,4,1,0,64,0,0
157951,-100,4,1,0,68,0,0
158304,-100,4,1,0,70,0,0
169598,-100,4,1,0,60,0,0
169951,-100,4,1,0,58,0,0
170039,-100,4,1,0,56,0,0
170127,-100,4,1,0,54,0,0
170216,-100,4,1,0,52,0,0
170304,-100,4,1,0,50,0,0
170392,-100,4,1,0,48,0,0
170480,-100,4,1,0,46,0,0
170569,-100,4,1,0,44,0,0
170657,-100,4,1,0,42,0,0
170745,-100,4,1,0,40,0,0
170833,-100,4,1,0,38,0,0
170922,-100,4,1,0,36,0,0
171010,-100,4,1,0,34,0,0
171098,-100,4,1,0,32,0,0
171186,-100,4,1,0,30,0,0
171274,-100,4,1,0,28,0,0
171363,-100,4,1,0,26,0,0
171451,-100,4,1,0,24,0,0
171539,-100,4,1,0,22,0,0
171627,-100,4,1,0,20,0,0
172068,-100,4,1,0,40,0,0
172289,-100,4,1,0,50,0,0
172466,-100,4,1,0,60,0,0
174539,-100,4,1,0,40,0,0
174892,-100,4,1,0,60,0,0
175598,-100,4,1,0,58,0,0
175686,-100,4,1,0,56,0,0
175774,-100,4,1,0,54,0,0
175863,-100,4,1,0,52,0,0
175951,-100,4,1,0,50,0,0
176039,-100,4,1,0,48,0,0
176127,-100,4,1,0,46,0,0
176216,-100,4,1,0,44,0,0
176304,-100,4,1,0,42,0,0
176392,-100,4,1,0,40,0,0
176480,-100,4,1,0,38,0,0
176569,-100,4,1,0,36,0,0
176657,-100,4,1,0,34,0,0
176745,-100,4,1,0,32,0,0
176833,-100,4,1,0,30,0,0
176922,-100,4,1,0,28,0,0
177010,-100,4,1,0,26,0,0
177098,-100,4,1,0,24,0,0
177186,-100,4,1,0,22,0,0
177274,-100,4,1,0,20,0,0
177363,-100,4,1,0,18,0,0
177451,-100,4,1,0,16,0,0
177539,-100,4,1,0,14,0,0
177627,-100,4,1,0,12,0,0
177716,-100,4,1,0,11,0,0
177804,-100,4,1,0,10,0,0
179480,-100,4,1,0,20,0,0
179657,-100,4,1,0,22,0,0
179745,-100,4,1,0,25,0,0
179833,-100,4,1,0,27,0,0
179922,-100,4,1,0,30,0,0
180010,-100,4,1,0,32,0,0
180098,-100,4,1,0,35,0,0
180186,-100,4,1,0,37,0,0
180274,-100,4,1,0,40,0,0
180363,-100,4,1,0,42,0,0
180451,-100,4,1,0,45,0,0
180539,-100,4,1,0,47,0,0
180627,-100,4,1,0,50,0,0
180716,-100,4,1,0,52,0,0
180804,-100,4,1,0,55,0,0
180892,-100,4,1,0,60,0,0
181422,-100,4,1,0,50,0,0
186230,-100,4,1,0,55,0,0
186583,-100,4,1,0,60,0,0
187113,-100,4,1,0,51,0,0
187642,-100,4,1,0,53,0,0
187995,-100,4,1,0,55,0,0
188348,-100,4,1,0,56,0,0
188701,-100,4,1,0,57,0,0
188878,-100,4,1,0,58,0,0
189407,-100,4,1,0,61,0,0
189936,-100,4,1,0,63,0,0
190289,-100,4,1,0,64,0,0
190466,-100,4,1,0,65,0,0
190819,-100,4,1,0,68,0,0
191172,-100,4,1,0,71,0,0
191525,-100,4,1,0,74,0,0
191701,-100,4,1,0,76,0,0
191878,-100,4,1,0,78,0,0
192230,-100,4,1,0,80,0,0
197172,-100,4,1,0,72,0,0
197348,-100,4,1,0,74,0,0
197524,-100,4,1,0,76,0,0
197877,-100,4,1,0,80,0,0
220951,-100,4,1,0,75,0,0
221657,-100,4,1,0,70,0,0
222363,-100,4,1,0,65,0,0
223245,-100,4,1,0,63,0,0
223774,-100,4,1,0,60,0,0
224480,-100,4,1,0,55,0,0
225186,-96.7773153972709,4,1,0,50,0,0
225715,-93.7470704040499,4,1,0,50,0,0
226113,-90.9090909090909,4,1,0,90,0,0
226156,-90.9090909090909,4,1,0,90,0,1
235289,-90.9090909090909,4,1,0,80,0,1
235332,-90.9090909090909,4,1,0,80,0,0
235819,-95.2380952380952,4,1,0,80,0,0
236524,-100,4,1,0,80,0,0
239480,-100,4,1,0,70,0,0
240216,-100,4,1,0,80,0,0
259466,-96.1538461538461,4,1,0,80,0,0
259642,-94.3396226415094,4,1,0,80,0,0
259819,-93.0232558139535,4,1,0,80,0,0
259995,-90.9090909090909,4,1,0,90,0,0
260038,-90.9090909090909,4,1,0,90,0,1
268466,-90.9090909090909,4,1,0,80,0,1
268509,-90.9090909090909,4,1,0,80,0,0
271554,-100,4,1,0,70,0,0
273760,-94.3396226415094,4,1,0,77,0,0
273936,-92.5925925925926,4,1,0,83,0,0
274113,-90.9090909090909,4,1,0,90,0,0
274156,-90.9090909090909,4,1,0,90,0,1
285450,-90.9090909090909,4,1,0,90,0,0
285936,-93.0232558139535,4,1,0,80,0,0
286466,-95.2380952380952,4,1,0,80,0,0
286819,-96.7773153972709,4,1,0,80,0,0
286995,-97.5609756097561,4,1,0,80,0,0
287524,-99.9999999999999,4,1,0,80,0,0
288760,-97.5609756097561,4,1,0,80,0,0
289289,-98.0392156862745,4,1,0,80,0,0
289642,-93.7470704040499,4,1,0,80,0,0
289819,-93.0232558139535,4,1,0,80,0,0
290348,-90.9090909090909,4,1,0,80,0,0
291583,-92.485549132948,4,1,0,80,0,0
292113,-94.1176470588235,4,1,0,80,0,0
292466,-95.2380952380952,4,1,0,80,0,0
292642,-95.8083832335329,4,1,0,80,0,0
293172,-97.5609756097561,4,1,0,80,0,0
293524,-98.7654320987654,4,1,0,80,0,0
293877,-100,4,1,0,80,0,0

[HitObjects]
256,192,275,12,0,4863,0:0:0:0:
256,192,5216,5,8,0:0:0:0:
256,192,5569,1,0,0:0:0:0:
256,192,5745,1,0,0:0:0:0:
256,192,5922,1,12,0:0:0:0:
256,192,6451,1,4,0:0:0:0:
256,192,6980,1,4,0:0:0:0:
256,192,7510,1,4,0:0:0:0:
256,192,8039,1,4,0:0:0:0:
256,192,8216,1,8,0:0:0:0:
256,192,8392,1,0,0:0:0:0:
256,192,8569,1,0,0:0:0:0:
256,192,8745,1,12,0:0:0:0:
256,192,9274,1,4,0:0:0:0:
256,192,9804,1,4,0:0:0:0:
256,192,10333,1,4,0:0:0:0:
256,192,10863,1,4,0:0:0:0:
256,192,11039,1,8,0:0:0:0:
256,192,11216,1,8,0:0:0:0:
256,192,11392,1,0,0:0:0:0:
256,192,11569,1,12,0:0:0:0:
256,192,12098,1,4,0:0:0:0:
256,192,12627,1,4,0:0:0:0:
256,192,13157,1,4,0:0:0:0:
256,192,13686,1,4,0:0:0:0:
256,192,13863,1,8,0:0:0:0:
256,192,14039,1,0,0:0:0:0:
256,192,14216,1,0,0:0:0:0:
256,192,14392,1,12,0:0:0:0:
256,192,14922,1,4,0:0:0:0:
256,192,15098,1,8,0:0:0:0:
256,192,15274,1,8,0:0:0:0:
256,192,15451,1,4,0:0:0:0:
256,192,15980,1,4,0:0:0:0:
256,192,16510,1,4,0:0:0:0:
256,192,16686,1,8,0:0:0:0:
256,192,16863,1,0,0:0:0:0:
256,192,17039,1,8,0:0:0:0:
256,192,17216,1,4,0:0:0:0:
256,192,17745,1,0,0:0:0:0:
256,192,18274,1,8,0:0:0:0:
256,192,18627,1,0,0:0:0:0:
256,192,18980,1,8,0:0:0:0:
256,192,19333,1,8,0:0:0:0:
256,192,19510,1,0,0:0:0:0:
256,192,19686,1,12,0:0:0:0:
256,192,20039,5,4,0:0:0:0:
256,192,20745,1,0,0:0:0:0:
256,192,21098,1,8,0:0:0:0:
256,192,21451,1,0,0:0:0:0:
256,192,22157,1,8,0:0:0:0:
256,192,22333,1,0,0:0:0:0:
256,192,22510,1,8,0:0:0:0:
256,192,22863,1,0,0:0:0:0:
256,192,23569,1,0,0:0:0:0:
256,192,23922,1,8,0:0:0:0:
256,192,24274,1,0,0:0:0:0:
256,192,24804,1,8,0:0:0:0:
256,192,25333,1,8,0:0:0:0:
256,192,25510,1,8,0:0:0:0:
256,192,25686,1,4,0:0:0:0:
256,192,26193,1,0,0:0:0:0:
256,192,26369,1,8,0:0:0:0:
256,192,26899,1,0,0:0:0:0:
256,192,27076,1,8,0:0:0:0:
256,192,27605,1,0,0:0:0:0:
256,192,27781,1,8,0:0:0:0:
256,192,28134,1,8,0:0:0:0:
256,192,28311,1,8,0:0:0:0:
256,192,28487,1,0,0:0:0:0:
256,192,29017,1,8,0:0:0:0:
256,192,29193,1,8,0:0:0:0:
256,192,29899,1,8,0:0:0:0:
256,192,30076,1,0,0:0:0:0:
256,192,30428,1,0,0:0:0:0:
256,192,30605,1,8,0:0:0:0:
256,192,30980,1,12,0:0:0:0:
256,192,31333,5,8,0:0:0:0:
256,192,32744,1,0,0:0:0:0:
256,192,34156,1,0,0:0:0:0:
256,192,35215,1,0,0:0:0:0:
256,192,35568,1,8,0:0:0:0:
256,192,36980,1,8,0:0:0:0:
256,192,38038,1,8,0:0:0:0:
256,192,38391,1,8,0:0:0:0:
256,192,39450,1,0,0:0:0:0:
256,192,39803,1,0,0:0:0:0:
256,192,40156,12,0,41568,0:0:0:0:
256,192,41921,5,0,0:0:0:0:
256,192,42274,1,8,0:0:0:0:
256,192,42627,1,12,0:0:0:0:
256,192,44038,1,0,0:0:0:0:
256,192,45450,1,0,0:0:0:0:
256,192,45980,1,8,0:0:0:0:
256,192,46862,1,0,0:0:0:0:
256,192,47568,1,0,0:0:0:0:
256,192,47921,1,0,0:0:0:0:
256,192,48274,1,8,0:0:0:0:
256,192,49332,1,0,0:0:0:0:
256,192,49685,1,8,0:0:0:0:
256,192,50215,1,8,0:0:0:0:
256,192,51097,1,0,0:0:0:0:
256,192,51450,12,8,52332,0:0:0:0:
256,192,52509,12,0,53568,0:0:0:0:
256,192,53921,5,0,0:0:0:0:
256,192,54274,1,8,0:0:0:0:
256,192,54450,1,0,0:0:0:0:
256,192,54803,1,0,0:0:0:0:
256,192,54980,1,8,0:0:0:0:
256,192,55332,1,0,0:0:0:0:
256,192,56038,1,8,0:0:0:0:
256,192,56391,1,0,0:0:0:0:
256,192,56744,1,0,0:0:0:0:
256,192,57097,1,0,0:0:0:0:
256,192,57274,1,12,0:0:0:0:
256,192,57803,1,0,0:0:0:0:
256,192,58156,1,8,0:0:0:0:
256,192,58332,1,8,0:0:0:0:
256,192,58685,1,8,0:0:0:0:
256,192,58862,1,8,0:0:0:0:
256,192,59215,1,0,0:0:0:0:
256,192,59568,1,8,0:0:0:0:
256,192,59921,1,0,0:0:0:0:
256,192,60097,1,8,0:0:0:0:
256,192,60450,1,8,0:0:0:0:
256,192,60627,1,0,0:0:0:0:
256,192,61156,1,8,0:0:0:0:
256,192,61685,1,8,0:0:0:0:
256,192,62038,1,0,0:0:0:0:
256,192,62391,1,8,0:0:0:0:
256,192,62744,1,0,0:0:0:0:
256,192,62921,1,8,0:0:0:0:
256,192,63450,1,0,0:0:0:0:
256,192,63803,1,0,0:0:0:0:
256,192,63980,1,8,0:0:0:0:
256,192,64332,1,0,0:0:0:0:
256,192,64509,1,8,0:0:0:0:
256,192,64685,1,8,0:0:0:0:
256,192,64862,1,0,0:0:0:0:
256,192,65215,5,12,0:0:0:0:
256,192,65568,1,0,0:0:0:0:
256,192,65744,1,8,0:0:0:0:
256,192,66097,1,0,0:0:0:0:
256,192,66274,1,8,0:0:0:0:
256,192,66803,1,8,0:0:0:0:
256,192,67332,1,8,0:0:0:0:
256,192,67685,1,0,0:0:0:0:
256,192,67862,1,0,0:0:0:0:
256,192,68038,1,8,0:0:0:0:
256,192,68391,1,0,0:0:0:0:
256,192,68568,1,8,0:0:0:0:
256,192,69097,1,0,0:0:0:0:
256,192,69450,1,8,0:0:0:0:
256,192,69627,1,8,0:0:0:0:
256,192,69980,1,0,0:0:0:0:
256,192,70156,1,8,0:0:0:0:
256,192,70509,1,8,0:0:0:0:
256,192,70862,1,12,0:0:0:0:
256,192,71215,1,0,0:0:0:0:
256,192,71391,1,8,0:0:0:0:
256,192,71744,1,0,0:0:0:0:
256,192,71921,1,8,0:0:0:0:
256,192,72450,1,8,0:0:0:0:
256,192,72980,1,8,0:0:0:0:
256,192,73332,1,0,0:0:0:0:
256,192,73509,1,0,0:0:0:0:
256,192,73685,1,8,0:0:0:0:
256,192,74038,1,0,0:0:0:0:
256,192,74215,1,8,0:0:0:0:
256,192,74744,1,8,0:0:0:0:
256,192,75097,1,0,0:0:0:0:
256,192,75274,1,8,0:0:0:0:
256,192,75450,1,0,0:0:0:0:
256,192,75803,1,8,0:0:0:0:
256,192,75980,1,0,0:0:0:0:
256,192,76156,1,8,0:0:0:0:
256,192,76509,12,8,77921,0:0:0:0:
256,192,78803,5,8,0:0:0:0:
256,192,78980,1,8,0:0:0:0:
256,192,79156,1,8,0:0:0:0:
256,192,79332,5,4,0:0:0:0:
256,192,79685,1,0,0:0:0:0:
256,192,79862,1,8,0:0:0:0:
256,192,80215,1,0,0:0:0:0:
256,192,80391,1,8,0:0:0:0:
256,192,80568,1,8,0:0:0:0:
256,192,80744,1,0,0:0:0:0:
256,192,80921,1,0,0:0:0:0:
256,192,81274,1,12,0:0:0:0:
256,192,81803,1,8,0:0:0:0:
256,192,82156,1,0,0:0:0:0:
256,192,82332,1,0,0:0:0:0:
256,192,82509,1,8,0:0:0:0:
256,192,82685,1,8,0:0:0:0:
256,192,83038,1,0,0:0:0:0:
256,192,83215,1,8,0:0:0:0:
256,192,83568,1,0,0:0:0:0:
256,192,83744,1,0,0:0:0:0:
256,192,83921,1,8,0:0:0:0:
256,192,84097,1,0,0:0:0:0:
256,192,84627,1,8,0:0:0:0:
256,192,84803,1,8,0:0:0:0:
256,192,84980,1,4,0:0:0:0:
256,192,85332,1,0,0:0:0:0:
256,192,85509,1,8,0:0:0:0:
256,192,85862,1,0,0:0:0:0:
256,192,86038,1,8,0:0:0:0:
256,192,86215,1,8,0:0:0:0:
256,192,86391,1,0,0:0:0:0:
256,192,86568,1,0,0:0:0:0:
256,192,86921,1,12,0:0:0:0:
256,192,87450,1,8,0:0:0:0:
256,192,87803,1,0,0:0:0:0:
256,192,87980,1,0,0:0:0:0:
256,192,88156,1,8,0:0:0:0:
256,192,88332,1,8,0:0:0:0:
256,192,88685,1,0,0:0:0:0:
256,192,88862,1,8,0:0:0:0:
256,192,89215,1,8,0:0:0:0:
256,192,89391,1,0,0:0:0:0:
256,192,89568,1,8,0:0:0:0:
256,192,89744,1,0,0:0:0:0:
256,192,90274,1,8,0:0:0:0:
256,192,90450,1,0,0:0:0:0:
256,192,90627,1,0,0:0:0:0:
256,192,90980,1,12,0:0:0:0:
256,192,91509,1,4,0:0:0:0:
256,192,92038,1,12,0:0:0:0:
256,192,92568,1,4,0:0:0:0:
256,192,93097,1,12,0:0:0:0:
256,192,93450,1,4,0:0:0:0:
256,192,93803,1,12,0:0:0:0:
256,192,94332,1,4,0:0:0:0:
256,192,94862,1,12,0:0:0:0:
256,192,95391,1,12,0:0:0:0:
256,192,95921,1,8,0:0:0:0:
256,192,96097,1,8,0:0:0:0:
256,192,96274,1,0,0:0:0:0:
256,192,96627,1,12,0:0:0:0:
256,192,97156,1,4,0:0:0:0:
256,192,97685,1,12,0:0:0:0:
256,192,98215,1,4,0:0:0:0:
256,192,98744,1,12,0:0:0:0:
256,192,99097,1,4,0:0:0:0:
256,192,99450,1,12,0:0:0:0:
256,192,99980,1,12,0:0:0:0:
256,192,100332,1,12,0:0:0:0:
256,192,100685,1,12,0:0:0:0:
256,192,101215,1,8,0:0:0:0:
256,192,101391,1,0,0:0:0:0:
256,192,101568,1,8,0:0:0:0:
256,192,101921,5,4,0:0:0:0:
256,192,102450,1,0,0:0:0:0:
256,192,102980,1,8,0:0:0:0:
256,192,103509,1,8,0:0:0:0:
256,192,104038,1,8,0:0:0:0:
256,192,104568,1,8,0:0:0:0:
256,192,104921,1,0,0:0:0:0:
256,192,105274,1,0,0:0:0:0:
256,192,105450,1,8,0:0:0:0:
256,192,106156,1,0,0:0:0:0:
256,192,106685,1,8,0:0:0:0:
256,192,107038,1,8,0:0:0:0:
256,192,107391,1,8,0:0:0:0:
256,192,107568,1,0,0:0:0:0:
256,192,108097,1,0,0:0:0:0:
256,192,108627,1,8,0:0:0:0:
256,192,109156,1,0,0:0:0:0:
256,192,109685,1,8,0:0:0:0:
256,192,109862,1,8,0:0:0:0:
256,192,110215,1,0,0:0:0:0:
256,192,110568,1,8,0:0:0:0:
256,192,110921,1,8,0:0:0:0:
256,192,111097,1,0,0:0:0:0:
256,192,111803,1,8,0:0:0:0:
256,192,112332,1,8,0:0:0:0:
256,192,112685,1,0,0:0:0:0:
256,192,112862,1,8,0:0:0:0:
256,192,113038,1,8,0:0:0:0:
256,192,113215,5,4,0:0:0:0:
256,192,113568,1,8,0:0:0:0:
256,192,113744,1,0,0:0:0:0:
256,192,114274,1,8,0:0:0:0:
256,192,114803,1,0,0:0:0:0:
256,192,114980,1,8,0:0:0:0:
256,192,115332,1,8,0:0:0:0:
256,192,115685,1,8,0:0:0:0:
256,192,115862,1,0,0:0:0:0:
256,192,116215,1,0,0:0:0:0:
256,192,116391,1,8,0:0:0:0:
256,192,116921,1,0,0:0:0:0:
256,192,117450,1,0,0:0:0:0:
256,192,117980,1,8,0:0:0:0:
256,192,118509,1,8,0:0:0:0:
256,192,118685,1,8,0:0:0:0:
256,192,118862,1,0,0:0:0:0:
256,192,119215,1,0,0:0:0:0:
256,192,119391,1,8,0:0:0:0:
256,192,119921,1,8,0:0:0:0:
256,192,120450,1,0,0:0:0:0:
256,192,120627,1,8,0:0:0:0:
256,192,120980,1,8,0:0:0:0:
256,192,121156,1,8,0:0:0:0:
256,192,121509,1,8,0:0:0:0:
256,192,121862,1,0,0:0:0:0:
256,192,122038,1,8,0:0:0:0:
256,192,122744,1,8,0:0:0:0:
256,192,122921,1,0,0:0:0:0:
256,192,123097,1,8,0:0:0:0:
256,192,123450,1,0,0:0:0:0:
256,192,123627,1,8,0:0:0:0:
256,192,123980,1,0,0:0:0:0:
256,192,124156,1,0,0:0:0:0:
256,192,124332,1,8,0:0:0:0:
256,192,124509,5,4,0:0:0:0:
256,192,124862,1,8,0:0:0:0:
256,192,125038,1,8,0:0:0:0:
256,192,125391,1,0,0:0:0:0:
256,192,125568,1,8,0:0:0:0:
256,192,125921,1,0,0:0:0:0:
256,192,126097,1,8,0:0:0:0:
256,192,126274,1,8,0:0:0:0:
256,192,126450,1,0,0:0:0:0:
256,192,126627,1,8,0:0:0:0:
256,192,127332,1,0,0:0:0:0:
256,192,127685,1,8,0:0:0:0:
256,192,127862,1,0,0:0:0:0:
256,192,128215,1,0,0:0:0:0:
256,192,128391,1,8,0:0:0:0:
256,192,128744,1,0,0:0:0:0:
256,192,128921,1,8,0:0:0:0:
256,192,129274,1,0,0:0:0:0:
256,192,129450,1,8,0:0:0:0:
256,192,129627,1,0,0:0:0:0:
256,192,129803,1,8,0:0:0:0:
256,192,130156,1,4,0:0:0:0:
256,192,130509,1,8,0:0:0:0:
256,192,130685,1,8,0:0:0:0:
256,192,131038,1,0,0:0:0:0:
256,192,131215,1,8,0:0:0:0:
256,192,131568,1,0,0:0:0:0:
256,192,131744,1,8,0:0:0:0:
256,192,131921,1,8,0:0:0:0:
256,192,132097,1,0,0:0:0:0:
256,192,132274,1,8,0:0:0:0:
256,192,132980,1,4,0:0:0:0:
256,192,133509,1,4,0:0:0:0:
256,192,134038,1,4,0:0:0:0:
256,192,134568,1,4,0:0:0:0:
256,192,135097,1,8,0:0:0:0:
256,192,135803,1,8,0:0:0:0:
256,192,136156,1,0,0:0:0:0:
256,192,136332,1,8,0:0:0:0:
256,192,136685,1,0,0:0:0:0:
256,192,136862,1,8,0:0:0:0:
256,192,137215,1,8,0:0:0:0:
256,192,137568,1,0,0:0:0:0:
256,192,137921,1,8,0:0:0:0:
256,192,138097,1,8,0:0:0:0:
256,192,138274,1,0,0:0:0:0:
256,192,138627,1,12,0:0:0:0:
256,192,139156,1,12,0:0:0:0:
256,192,139685,1,12,0:0:0:0:
256,192,140038,1,0,0:0:0:0:
256,192,140215,1,0,0:0:0:0:
256,192,140391,1,8,0:0:0:0:
256,192,140744,1,8,0:0:0:0:
256,192,140921,1,0,0:0:0:0:
256,192,141097,1,12,0:0:0:0:
256,192,141450,5,8,0:0:0:0:
256,192,142156,1,0,0:0:0:0:
256,192,142509,1,0,0:0:0:0:
256,192,142862,1,0,0:0:0:0:
256,192,143568,1,0,0:0:0:0:
256,192,143921,1,8,0:0:0:0:
256,192,144274,1,0,0:0:0:0:
256,192,144980,1,0,0:0:0:0:
256,192,145332,1,0,0:0:0:0:
256,192,145685,1,0,0:0:0:0:
256,192,146391,1,8,0:0:0:0:
256,192,146744,1,8,0:0:0:0:
256,192,147097,1,4,0:0:0:0:
256,192,147627,1,8,0:0:0:0:
256,192,148509,1,8,0:0:0:0:
256,192,149038,1,8,0:0:0:0:
256,192,149921,1,0,0:0:0:0:
256,192,150450,1,8,0:0:0:0:
256,192,151332,1,0,0:0:0:0:
256,192,151862,1,0,0:0:0:0:
256,192,152744,1,8,0:0:0:0:
256,192,153274,1,8,0:0:0:0:
256,192,154156,1,0,0:0:0:0:
256,192,154862,1,8,0:0:0:0:
256,192,155568,1,0,0:0:0:0:
256,192,156097,1,8,0:0:0:0:
256,192,156980,1,0,0:0:0:0:
256,192,157509,1,8,0:0:0:0:
256,192,158038,1,8,0:0:0:0:
256,192,158391,5,4,0:0:0:0:
256,192,158921,1,8,0:0:0:0:
256,192,159450,1,0,0:0:0:0:
256,192,159803,1,0,0:0:0:0:
256,192,160509,1,8,0:0:0:0:
256,192,160862,1,8,0:0:0:0:
256,192,161215,1,0,0:0:0:0:
256,192,161744,1,8,0:0:0:0:
256,192,162274,1,8,0:0:0:0:
256,192,162627,1,0,0:0:0:0:
256,192,163332,1,8,0:0:0:0:
256,192,163685,1,0,0:0:0:0:
256,192,164038,1,0,0:0:0:0:
256,192,164568,1,8,0:0:0:0:
256,192,165097,1,0,0:0:0:0:
256,192,165450,1,8,0:0:0:0:
256,192,166156,1,0,0:0:0:0:
256,192,166862,1,0,0:0:0:0:
256,192,167391,1,8,0:0:0:0:
256,192,167921,1,8,0:0:0:0:
256,192,168274,1,0,0:0:0:0:
256,192,168803,1,8,0:0:0:0:
256,192,169332,1,8,0:0:0:0:
256,192,169685,1,12,0:0:0:0:
256,192,170038,12,0,171803,0:0:0:0:
256,192,172156,5,0,0:0:0:0:
256,192,172332,1,0,0:0:0:0:
256,192,172509,1,12,0:0:0:0:
256,192,174627,1,8,0:0:0:0:
256,192,174980,1,0,0:0:0:0:
256,192,175156,1,0,0:0:0:0:
256,192,175332,1,12,0:0:0:0:
256,192,175685,12,0,178156,0:0:0:0:
256,192,179568,12,0,180627,0:0:0:0:
256,192,180980,5,12,0:0:0:0:
256,192,181509,1,8,0:0:0:0:
256,192,182038,1,0,0:0:0:0:
256,192,182391,1,8,0:0:0:0:
256,192,183097,1,8,0:0:0:0:
256,192,183450,1,0,0:0:0:0:
256,192,183803,1,8,0:0:0:0:
256,192,184332,1,8,0:0:0:0:
256,192,184862,1,0,0:0:0:0:
256,192,185215,1,8,0:0:0:0:
256,192,185921,1,0,0:0:0:0:
256,192,186274,1,8,0:0:0:0:
256,192,186627,1,12,0:0:0:0:
256,192,187156,1,8,0:0:0:0:
256,192,187685,1,0,0:0:0:0:
256,192,188038,1,8,0:0:0:0:
256,192,188568,1,0,0:0:0:0:
256,192,188744,1,8,0:0:0:0:
256,192,189097,1,0,0:0:0:0:
256,192,189450,1,8,0:0:0:0:
256,192,189980,1,8,0:0:0:0:
256,192,190332,1,0,0:0:0:0:
256,192,190509,1,8,0:0:0:0:
256,192,190862,1,0,0:0:0:0:
256,192,191215,1,0,0:0:0:0:
256,192,191568,1,0,0:0:0:0:
256,192,191744,1,8,0:0:0:0:
256,192,191921,1,0,0:0:0:0:
256,192,192274,5,12,0:0:0:0:
256,192,192803,1,8,0:0:0:0:
256,192,193332,1,8,0:0:0:0:
256,192,193685,1,0,0:0:0:0:
256,192,193862,1,8,0:0:0:0:
256,192,194391,1,8,0:0:0:0:
256,192,194744,1,8,0:0:0:0:
256,192,195097,1,8,0:0:0:0:
256,192,195450,1,0,0:0:0:0:
256,192,195627,1,8,0:0:0:0:
256,192,196156,1,0,0:0:0:0:
256,192,196509,1,0,0:0:0:0:
256,192,196685,1,8,0:0:0:0:
256,192,197215,1,8,0:0:0:0:
256,192,197391,1,0,0:0:0:0:
256,192,197568,1,8,0:0:0:0:
256,192,197921,1,12,0:0:0:0:
256,192,198450,1,8,0:0:0:0:
256,192,198980,1,0,0:0:0:0:
256,192,199332,1,0,0:0:0:0:
256,192,199685,1,0,0:0:0:0:
256,192,199862,1,8,0:0:0:0:
256,192,200038,1,0,0:0:0:0:
256,192,200215,1,0,0:0:0:0:
256,192,200391,1,8,0:0:0:0:
256,192,200744,1,4,0:0:0:0:
256,192,201274,1,4,0:0:0:0:
256,192,201803,1,4,0:0:0:0:
256,192,202332,1,4,0:0:0:0:
256,192,202862,1,8,0:0:0:0:
256,192,203215,1,8,0:0:0:0:
256,192,203568,5,4,0:0:0:0:
256,192,204097,1,0,0:0:0:0:
256,192,204274,1,8,0:0:0:0:
256,192,204803,1,8,0:0:0:0:
256,192,204980,1,0,0:0:0:0:
256,192,205685,1,8,0:0:0:0:
256,192,206038,1,8,0:0:0:0:
256,192,206391,1,0,0:0:0:0:
256,192,206921,1,0,0:0:0:0:
256,192,207097,1,8,0:0:0:0:
256,192,207627,1,8,0:0:0:0:
256,192,207803,1,0,0:0:0:0:
256,192,208509,1,8,0:0:0:0:
256,192,208685,1,0,0:0:0:0:
256,192,208862,1,8,0:0:0:0:
256,192,209215,1,0,0:0:0:0:
256,192,209744,1,0,0:0:0:0:
256,192,209921,1,8,0:0:0:0:
256,192,210450,1,8,0:0:0:0:
256,192,210627,1,0,0:0:0:0:
256,192,211332,1,8,0:0:0:0:
256,192,211685,1,8,0:0:0:0:
256,192,212038,1,0,0:0:0:0:
256,192,212568,1,0,0:0:0:0:
256,192,212744,1,8,0:0:0:0:
256,192,213274,1,0,0:0:0:0:
256,192,213450,1,12,0:0:0:0:
256,192,213980,1,12,0:0:0:0:
256,192,214509,1,8,0:0:0:0:
256,192,214862,5,4,0:0:0:0:
256,192,215391,1,0,0:0:0:0:
256,192,215568,1,8,0:0:0:0:
256,192,216097,1,8,0:0:0:0:
256,192,216274,1,0,0:0:0:0:
256,192,216803,1,0,0:0:0:0:
256,192,216980,1,8,0:0:0:0:
256,192,217156,1,0,0:0:0:0:
256,192,217332,1,8,0:0:0:0:
256,192,217685,1,0,0:0:0:0:
256,192,218215,1,0,0:0:0:0:
256,192,218391,1,8,0:0:0:0:
256,192,218921,1,8,0:0:0:0:
256,192,219097,1,0,0:0:0:0:
256,192,219627,1,0,0:0:0:0:
256,192,219803,1,8,0:0:0:0:
256,192,219980,1,0,0:0:0:0:
256,192,220156,1,8,0:0:0:0:
256,192,220509,1,4,0:0:0:0:
256,192,220685,1,4,0:0:0:0:
256,192,221215,1,0,0:0:0:0:
256,192,221391,1,0,0:0:0:0:
256,192,221921,1,0,0:0:0:0:
256,192,222097,1,0,0:0:0:0:
256,192,222627,1,8,0:0:0:0:
256,192,222980,1,8,0:0:0:0:
256,192,223332,1,0,0:0:0:0:
256,192,223509,1,0,0:0:0:0:
256,192,224038,1,8,0:0:0:0:
256,192,224215,1,0,0:0:0:0:
256,192,224744,1,8,0:0:0:0:
256,192,224921,1,8,0:0:0:0:
256,192,225450,1,8,0:0:0:0:
256,192,225803,1,12,0:0:0:0:
256,192,226156,5,4,0:0:0:0:
256,192,226685,1,12,0:0:0:0:
256,192,226862,1,4,0:0:0:0:
256,192,227391,1,12,0:0:0:0:
256,192,227568,1,4,0:0:0:0:
256,192,227921,1,8,0:0:0:0:
256,192,228097,1,0,0:0:0:0:
256,192,228274,1,8,0:0:0:0:
256,192,228450,1,8,0:0:0:0:
256,192,228803,1,4,0:0:0:0:
256,192,229332,1,0,0:0:0:0:
256,192,229509,1,12,0:0:0:0:
256,192,229685,1,4,0:0:0:0:
256,192,230215,1,4,0:0:0:0:
256,192,230391,1,12,0:0:0:0:
256,192,230744,1,8,0:0:0:0:
256,192,230921,1,4,0:0:0:0:
256,192,231097,1,12,0:0:0:0:
256,192,231803,1,4,0:0:0:0:
256,192,232332,1,12,0:0:0:0:
256,192,232509,1,4,0:0:0:0:
256,192,233038,1,12,0:0:0:0:
256,192,233215,1,4,0:0:0:0:
256,192,233568,1,8,0:0:0:0:
256,192,233744,1,0,0:0:0:0:
256,192,233921,1,0,0:0:0:0:
256,192,234097,1,8,0:0:0:0:
256,192,234450,1,4,0:0:0:0:
256,192,234803,1,4,0:0:0:0:
256,192,235156,1,12,0:0:0:0:
256,192,235332,1,4,0:0:0:0:
256,192,235862,1,8,0:0:0:0:
256,192,236038,1,0,0:0:0:0:
256,192,236744,1,8,0:0:0:0:
256,192,236921,1,0,0:0:0:0:
256,192,237097,1,0,0:0:0:0:
256,192,237274,1,8,0:0:0:0:
256,192,237450,5,4,0:0:0:0:
256,192,237980,1,0,0:0:0:0:
256,192,238509,1,0,0:0:0:0:
256,192,239038,1,0,0:0:0:0:
256,192,239215,1,8,0:0:0:0:
256,192,239568,1,4,0:0:0:0:
256,192,239803,1,4,0:0:0:0:
256,192,240038,1,4,0:0:0:0:
256,192,240274,1,8,0:0:0:0:
256,192,240803,1,8,0:0:0:0:
256,192,241332,1,0,0:0:0:0:
256,192,241862,1,0,0:0:0:0:
256,192,242038,1,8,0:0:0:0:
256,192,242391,1,8,0:0:0:0:
256,192,242744,1,12,0:0:0:0:
256,192,243097,1,0,0:0:0:0:
256,192,243627,1,0,0:0:0:0:
256,192,244156,1,8,0:0:0:0:
256,192,244685,1,0,0:0:0:0:
256,192,244862,1,8,0:0:0:0:
256,192,245215,1,0,0:0:0:0:
256,192,245568,1,8,0:0:0:0:
256,192,245744,1,0,0:0:0:0:
256,192,245921,1,8,0:0:0:0:
256,192,246450,1,8,0:0:0:0:
256,192,246980,1,8,0:0:0:0:
256,192,247509,1,0,0:0:0:0:
256,192,247685,1,8,0:0:0:0:
256,192,248038,1,8,0:0:0:0:
256,192,248391,1,12,0:0:0:0:
256,192,248744,5,4,0:0:0:0:
256,192,249097,1,8,0:0:0:0:
256,192,249274,1,0,0:0:0:0:
256,192,249803,1,8,0:0:0:0:
256,192,250332,1,0,0:0:0:0:
256,192,250509,1,8,0:0:0:0:
256,192,250862,1,8,0:0:0:0:
256,192,251215,1,8,0:0:0:0:
256,192,251391,1,0,0:0:0:0:
256,192,251744,1,0,0:0:0:0:
256,192,251921,1,8,0:0:0:0:
256,192,252450,1,0,0:0:0:0:
256,192,252980,1,0,0:0:0:0:
256,192,253509,1,8,0:0:0:0:
256,192,254038,1,8,0:0:0:0:
256,192,254215,1,8,0:0:0:0:
256,192,254391,1,0,0:0:0:0:
256,192,254744,1,0,0:0:0:0:
256,192,254921,1,8,0:0:0:0:
256,192,255450,1,8,0:0:0:0:
256,192,255980,1,0,0:0:0:0:
256,192,256156,1,8,0:0:0:0:
256,192,256509,1,8,0:0:0:0:
256,192,256685,1,8,0:0:0:0:
256,192,257038,1,8,0:0:0:0:
256,192,257391,1,0,0:0:0:0:
256,192,257568,1,8,0:0:0:0:
256,192,258274,1,8,0:0:0:0:
256,192,258450,1,0,0:0:0:0:
256,192,258627,1,8,0:0:0:0:
256,192,258980,1,0,0:0:0:0:
256,192,259156,1,8,0:0:0:0:
256,192,259509,1,0,0:0:0:0:
256,192,259685,1,0,0:0:0:0:
256,192,259862,1,8,0:0:0:0:
256,192,260038,5,4,0:0:0:0:
256,192,260391,1,8,0:0:0:0:
256,192,260568,1,8,0:0:0:0:
256,192,260921,1,0,0:0:0:0:
256,192,261097,1,8,0:0:0:0:
256,192,261450,1,0,0:0:0:0:
256,192,261627,1,8,0:0:0:0:
256,192,261803,1,8,0:0:0:0:
256,192,261980,1,0,0:0:0:0:
256,192,262156,1,8,0:0:0:0:
256,192,262862,1,0,0:0:0:0:
256,192,263215,1,8,0:0:0:0:
256,192,263391,1,0,0:0:0:0:
256,192,263744,1,0,0:0:0:0:
256,192,263921,1,8,0:0:0:0:
256,192,264274,1,0,0:0:0:0:
256,192,264450,1,8,0:0:0:0:
256,192,264803,1,0,0:0:0:0:
256,192,264980,1,8,0:0:0:0:
256,192,265156,1,0,0:0:0:0:
256,192,265332,1,8,0:0:0:0:
256,192,265685,1,4,0:0:0:0:
256,192,266038,1,8,0:0:0:0:
256,192,266215,1,8,0:0:0:0:
256,192,266568,1,0,0:0:0:0:
256,192,266744,1,8,0:0:0:0:
256,192,267097,1,0,0:0:0:0:
256,192,267274,1,8,0:0:0:0:
256,192,267450,1,8,0:0:0:0:
256,192,267627,1,0,0:0:0:0:
256,192,267803,1,8,0:0:0:0:
256,192,268509,1,4,0:0:0:0:
256,192,269215,1,4,0:0:0:0:
256,192,269921,1,4,0:0:0:0:
256,192,270627,1,4,0:0:0:0:
256,192,270980,1,8,0:0:0:0:
256,192,271332,1,4,0:0:0:0:
256,192,272038,1,0,0:0:0:0:
256,192,272391,1,8,0:0:0:0:
256,192,272744,1,12,0:0:0:0:
256,192,273274,1,12,0:0:0:0:
256,192,273803,1,8,0:0:0:0:
256,192,273980,1,8,0:0:0:0:
256,192,274156,5,4,0:0:0:0:
256,192,274509,1,0,0:0:0:0:
256,192,274685,1,8,0:0:0:0:
256,192,275038,1,0,0:0:0:0:
256,192,275215,1,8,0:0:0:0:
256,192,275391,1,8,0:0:0:0:
256,192,275568,1,0,0:0:0:0:
256,192,275744,1,0,0:0:0:0:
256,192,276097,1,12,0:0:0:0:
256,192,276627,1,8,0:0:0:0:
256,192,276980,1,0,0:0:0:0:
256,192,277156,1,0,0:0:0:0:
256,192,277332,1,8,0:0:0:0:
256,192,277509,1,8,0:0:0:0:
256,192,277862,1,0,0:0:0:0:
256,192,278038,1,8,0:0:0:0:
256,192,278391,1,0,0:0:0:0:
256,192,278568,1,0,0:0:0:0:
256,192,278744,1,8,0:0:0:0:
256,192,278921,1,0,0:0:0:0:
256,192,279450,1,8,0:0:0:0:
256,192,279627,1,8,0:0:0:0:
256,192,279803,1,4,0:0:0:0:
256,192,280156,1,0,0:0:0:0:
256,192,280332,1,8,0:0:0:0:
256,192,280685,1,0,0:0:0:0:
256,192,280862,1,8,0:0:0:0:
256,192,281038,1,8,0:0:0:0:
256,192,281215,1,0,0:0:0:0:
256,192,281391,1,0,0:0:0:0:
256,192,281744,1,12,0:0:0:0:
256,192,282274,1,8,0:0:0:0:
256,192,282627,1,0,0:0:0:0:
256,192,282803,1,0,0:0:0:0:
256,192,282980,1,8,0:0:0:0:
256,192,283156,1,8,0:0:0:0:
256,192,283509,1,0,0:0:0:0:
256,192,283685,1,8,0:0:0:0:
256,192,284038,1,8,0:0:0:0:
256,192,284215,1,0,0:0:0:0:
256,192,284391,1,8,0:0:0:0:
256,192,284568,1,0,0:0:0:0:
256,192,285097,1,8,0:0:0:0:
256,192,285274,1,0,0:0:0:0:
256,192,285450,5,12,0:0:0:0:
256,192,285980,1,4,0:0:0:0:
256,192,286509,1,4,0:0:0:0:
256,192,287038,1,12,0:0:0:0:
256,192,287568,1,12,0:0:0:0:
256,192,287921,1,4,0:0:0:0:
256,192,288274,1,12,0:0:0:0:
256,192,288803,1,12,0:0:0:0:
256,192,289332,1,4,0:0:0:0:
256,192,289862,1,12,0:0:0:0:
256,192,290391,1,12,0:0:0:0:
256,192,290568,1,0,0:0:0:0:
256,192,290744,1,8,0:0:0:0:
256,192,291097,1,12,0:0:0:0:
256,192,291627,1,4,0:0:0:0:
256,192,292156,1,4,0:0:0:0:
256,192,292685,1,12,0:0:0:0:
256,192,293215,1,12,0:0:0:0:
256,192,293568,1,12,0:0:0:0:
256,192,293921,1,4,0:0:0:0:
256,192,294450,1,4,0:0:0:0:
256,192,294980,1,4,0:0:0:0:
256,192,295509,1,4,0:0:0:0:
