osu file format v14

[General]
AudioFilename: audio.mp3
AudioLeadIn: 0
PreviewTime: 46210
Countdown: 1
SampleSet: Soft
StackLeniency: 0.4
Mode: 0
LetterboxInBreaks: 0
WidescreenStoryboard: 0

[Editor]
Bookmarks: 16210,31210,46210,72460,79960,94960,109960,117430,124960,139960,154960,196210
DistanceSpacing: 1.8
BeatDivisor: 4
GridSize: 32
TimelineZoom: 3.100005

[Metadata]
Title:Danque
TitleUnicode:Danque
Artist:Boom Kitty
ArtistUnicode:Boom Kitty
Creator:TheAlphaSheep
Version:JUMP
Source:
Tags:
BeatmapID:1862190
BeatmapSetID:890785

[Difficulty]
HPDrainRate:5.5
CircleSize:3.8
OverallDifficulty:8.2
ApproachRate:9.6
SliderMultiplier:1.4
SliderTickRate:1

[Events]
//Background and Video events
0,0,"Konachan.com - 260176 sample.jpg",0,0
//Break Periods
2,76410,78044
//Storyboard Layer 0 (Background)
//Storyboard Layer 1 (Fail)
//Storyboard Layer 2 (Pass)
//Storyboard Layer 3 (Foreground)
//Storyboard Sound Samples

[TimingPoints]
1210,468.75,4,2,0,100,1,0
1210,-50,4,2,0,100,0,0
15741,-33.3333333333333,4,2,0,100,0,0
16210,-45.4545454545455,4,2,0,100,0,0
29335,-33.3333333333333,4,2,0,100,0,0
31210,-45.4545454545455,4,2,0,100,0,0
34608,-31.25,4,2,0,100,0,0
34842,-45.4545454545455,4,2,0,100,0,0
42108,-31.25,4,2,0,100,0,0
42342,-45.4545454545455,4,2,0,100,0,0
46210,-40,4,2,0,100,0,1
72460,-45.4545454545455,4,2,0,100,0,0
73866,-31.25,4,2,0,100,0,0
74335,-45.4545454545455,4,2,0,100,0,0
79491,-33.3333333333333,4,2,0,100,0,0
79960,-45.4545454545455,4,2,0,100,0,0
86991,-33.3333333333333,4,2,0,100,0,0
87460,-45.4545454545455,4,2,0,100,0,0
94725,-29.8507462686567,4,2,0,100,0,0
94960,-45.4545454545455,4,2,0,100,0,0
108085,-33.3333333333333,4,2,0,100,0,0
109960,-200,4,2,0,100,0,0
124960,-33.3333333333333,4,2,0,100,0,0
130116,-33.3333333333333,4,2,0,100,0,0
131991,571.428571428571,4,2,0,100,1,0
132133,652.173913043478,4,2,0,100,1,0
132459,468.75,4,2,0,100,1,0
132459,-33.3333333333333,4,2,0,100,0,0
135271,-25,4,2,0,100,0,0
135740,571.428571428571,4,2,0,100,1,0
135882,652.173913043478,4,2,0,100,1,0
136208,468.75,4,2,0,100,1,0
136208,-33.3333333333333,4,2,0,100,0,0
137614,-33.3333333333333,4,2,0,5,0,0
137848,-33.3333333333333,4,2,0,15,0,0
138083,-33.3333333333333,4,2,0,25,0,0
138317,-33.3333333333333,4,2,0,35,0,0
138551,-33.3333333333333,4,2,0,45,0,0
138786,-33.3333333333333,4,2,0,55,0,0
139020,-33.3333333333333,4,2,0,65,0,0
139254,-33.3333333333333,4,2,0,75,0,0
139489,-33.3333333333333,4,2,0,85,0,0
139723,-33.3333333333333,4,2,0,95,0,0
139958,-45.4545454545455,4,2,0,100,0,0
143356,-31.25,4,2,0,100,0,0
143708,-45.4545454545455,4,2,0,100,0,0
150856,-31.25,4,2,0,100,0,0
151208,-45.4545454545455,4,2,0,100,0,0
153083,-29.4117647058824,4,2,0,100,0,0
153434,-45.4545454545455,4,2,0,100,0,0
154958,-40,4,2,0,100,0,1
196208,-45.4545454545455,4,2,0,100,0,0
197614,-31.25,4,2,0,100,0,0

[HitObjects]
97,128,1210,6,0,P|166:117|235:111,1,140
345,213,1561,2,0,P|275:202|206:196,1,140
97,128,1913,2,0,P|166:117|235:111,1,140
345,213,2264,2,0,P|310:207|275:202,2,70
116,212,2616,1,0,0:0:0:0:
361,74,3085,6,0,P|350:143|344:212,1,140
238,282,3436,2,0,P|248:212|254:143,1,140
361,74,3788,2,0,P|350:143|344:212,1,140
238,282,4139,2,0,P|243:247|248:212,2,70
272,58,4491,1,0,0:0:0:0:
376,265,4960,6,0,P|306:275|237:281,1,140
146,191,5311,2,0,P|215:180|284:174,1,140
376,265,5663,2,0,P|306:275|237:281,1,140
146,191,6014,2,0,P|180:185|215:180,2,70
371,210,6366,1,0,0:0:0:0:
129,52,6835,6,0,P|139:121|145:190,1,140
265,251,7186,2,0,P|258:181|248:112,1,140
129,52,7538,2,0,P|139:121|145:190,1,140
265,251,7889,2,0,P|261:216|257:181,2,70
236,43,8241,2,0,P|253:146|265:251,1,210
269,320,8710,6,0,P|265:250|257:180,1,140
158,123,9061,2,0,P|153:192|146:262,1,140
269,320,9413,2,0,P|265:250|257:180,1,140
158,123,9764,2,0,P|156:157|152:192,2,70
187,340,10116,1,0,0:0:0:0:
297,134,10585,6,0,P|227:129|157:122,1,140
86,219,10936,2,0,P|155:223|225:230,1,140
297,134,11288,2,0,P|227:129|157:122,1,140
86,219,11639,2,0,P|120:220|155:223,2,70
314,220,11991,1,0,0:0:0:0:
85,218,12225,6,0,P|120:220|155:223,1,70
297,134,12460,6,0,P|366:138|436:145,1,140
371,252,12811,2,0,P|301:247|231:240,1,140
297,134,13163,2,0,P|366:138|436:145,1,140
371,252,13514,2,0,P|336:250|301:247,2,70
210,151,13866,1,0,0:0:0:0:
436,145,14335,6,0,P|429:214|424:284,1,140
305,337,14686,2,0,P|308:267|315:197,1,140
436,145,15038,2,0,P|432:179|429:214,1,70
305,337,15272,5,0,0:0:0:0:
316,197,15389,5,0,0:0:0:0:
312,231,15447,1,0,0:0:0:0:
310,266,15506,1,0,0:0:0:0:
322,127,15624,1,0,0:0:0:0:
305,337,15741,6,0,P|308:284|311:232,1,105.000004005432
190,53,16210,6,0,P|180:89|174:129,2,77.0000023498536
183,205,16561,5,0,0:0:0:0:
306,51,16678,2,0,P|316:86|321:126,1,77.0000023498536
346,257,16913,2,0,P|354:221|370:184,1,77.0000023498536
454,84,17147,5,0,0:0:0:0:
466,247,17264,2,0,P|476:282|481:322,1,77.0000023498536
346,257,17499,5,0,0:0:0:0:
454,84,17616,2,0,P|444:119|438:159,1,77.0000023498536
306,51,17850,2,0,P|316:86|322:126,1,77.0000023498536
247,284,18085,6,0,P|252:245|262:208,2,77.0000023498536,0|0|0,0:0|0:0|0:0,0:0:0:0:
195,140,18436,5,0,0:0:0:0:
123,314,18553,2,0,P|117:275|107:238,1,77.0000023498536,0|0,0:0|0:0,0:0:0:0:
43,110,18788,2,0,P|28:145|19:183,1,77.0000023498536,0|0,0:0|0:0,0:0:0:0:
148,33,19022,5,0,0:0:0:0:
199,216,19139,2,0,P|199:178|195:140,1,77.0000023498536,0|0,0:0|0:0,0:0:0:0:
43,110,19374,5,0,0:0:0:0:
0,327,19491,2,0,P|0:288|4:250,1,77.0000023498536,0|0,0:0|0:0,0:0:0:0:
110,161,19725,2,0,P|110:200|105:238,1,77.0000023498536,0|0,0:0|0:0,0:0:0:0:
241,359,19960,6,0,P|241:321|246:283,2,77.0000023498536
275,211,20311,5,0,0:0:0:0:
132,346,20428,2,0,P|94:346|56:341,1,77.0000023498536,0|0,0:0|0:0,0:0:0:0:
196,148,20663,2,0,P|196:186|191:225,1,77.0000023498536,0|0,0:0|0:0,0:0:0:0:
241,359,20897,5,0,0:0:0:0:
295,191,21014,2,0,P|295:152|300:114,1,77.0000023498536,0|0,0:0|0:0,0:0:0:0:
368,277,21249,5,0,0:0:0:0:
207,145,21366,2,0,P|207:106|212:68,1,77.0000023498536,0|0,0:0|0:0,0:0:0:0:
93,213,21600,2,0,P|93:251|98:289,1,77.0000023498536,0|0,0:0|0:0,0:0:0:0:
128,54,21835,6,0,P|128:92|123:130,2,77.0000023498536,0|0|0,0:0|0:0|0:0,0:0:0:0:
175,222,22186,5,0,0:0:0:0:
294,36,22303,2,0,P|294:74|300:113,1,77.0000023498536
338,246,22538,2,0,P|352:210|371:177,1,77.0000023498536
448,51,22772,5,0,0:0:0:0:
470,232,22889,2,0,P|466:269|458:307,1,77.0000023498536
374,82,23124,5,0,0:0:0:0:
273,332,23241,2,0,P|264:295|261:257,1,77.0000023498536
211,68,23475,2,0,P|206:106|207:145,1,77.0000023498536
69,312,23710,6,0,P|59:274|45:239,2,77.0000023498536
128,160,24061,1,0,0:0:0:0:
207,343,24178,6,0,P|216:305|230:270,1,77.0000023498536
357,175,24413,2,0,P|367:211|372:250,1,77.0000023498536
283,366,24647,5,0,0:0:0:0:
183,217,24764,2,0,P|192:179|206:144,1,77.0000023498536
231,293,24999,5,0,0:0:0:0:
333,102,25116,2,0,P|347:137|357:175,1,77.0000023498536
395,295,25350,2,0,P|404:257|418:222,1,77.0000023498536
422,27,25585,6,0,P|426:65|426:103,2,77.0000023498536
341,186,25936,5,0,0:0:0:0:
184,32,26053,2,0,P|180:70|180:108,1,77.0000023498536
264,239,26288,2,0,P|268:201|268:163,1,77.0000023498536
343,45,26522,5,0,0:0:0:0:
422,231,26639,2,0,P|418:269|418:307,1,77.0000023498536
433,113,26874,5,0,0:0:0:0:
279,275,26991,2,0,P|268:237|262:199,1,77.0000023498536
203,35,27225,2,0,P|193:72|179:108,1,77.0000023498536
95,285,27460,6,0,P|85:247|79:209,2,77.0000023498536
178,108,27811,5,0,0:0:0:0:
279,275,27928,2,0,P|288:237|294:199,1,77.0000023498536
390,67,28163,2,0,P|392:105|398:143,1,77.0000023498536
397,276,28397,5,0,0:0:0:0:
281,137,28514,2,0,P|271:99|265:61,1,77.0000023498536
279,275,28749,5,0,0:0:0:0:
408,140,28866,2,0,P|417:102|423:64,1,77.0000023498536
399,296,29100,5,0,0:0:0:0:
403,330,29158,1,0,0:0:0:0:
407,364,29217,1,0,0:0:0:0:
292,162,29335,6,0,L|289:57,1,105.000004005432
172,214,29686,6,0,L|168:108,1,105.000004005432
51,265,30038,6,0,L|47:159,1,105.000004005432
175,318,30272,5,0,0:0:0:0:
172,214,30389,1,0,0:0:0:0:
260,306,30506,5,0,0:0:0:0:
267,165,30623,1,0,0:0:0:0:
345,294,30741,5,0,0:0:0:0:
369,118,30858,1,0,0:0:0:0:
430,282,30975,5,0,0:0:0:0:
478,73,31092,1,0,0:0:0:0:
300,301,31210,6,0,L|284:376,1,77.0000023498536
189,133,31444,2,0,L|204:57,1,77.0000023498536
112,326,31913,5,0,0:0:0:0:
42,96,32147,2,0,P|117:101|190:133,1,154.000004699707
282,183,32499,2,0,P|357:197|432:186,1,154.000004699707
487,96,32850,2,0,P|482:57|471:20,1,77.0000023498536
419,292,33085,5,0,0:0:0:0:
296,85,33436,1,0,0:0:0:0:
212,311,33788,1,0,0:0:0:0:
68,164,34022,5,0,0:0:0:0:
166,93,34139,1,0,0:0:0:0:
289,204,34256,2,0,P|327:209|366:208,1,77.0000023498536
99,286,34491,5,0,0:0:0:0:
284,70,34608,2,0,P|381:105|364:207,1,224
258,276,34960,5,0,0:0:0:0:
89,88,35428,6,0,P|127:93|166:92,1,77.0000023498536
311,61,35663,1,0,0:0:0:0:
202,304,35897,6,0,P|228:232|231:156,1,154.000004699707
311,61,36249,2,0,P|316:137|346:206,1,154.000004699707
329,351,36600,2,0,P|318:313|302:277,1,77.0000023498536
427,134,36835,5,0,0:0:0:0:
423,168,36893,1,0,0:0:0:0:
419,202,36952,1,0,0:0:0:0:
311,61,37069,5,0,0:0:0:0:
303,278,37186,2,0,P|302:238|296:200,1,77.0000023498536
217,35,37420,5,0,0:0:0:0:
111,269,37538,2,0,P|111:229|117:191,1,77.0000023498536
75,42,37772,5,0,0:0:0:0:
75,42,37889,1,0,0:0:0:0:
208,196,38006,5,0,0:0:0:0:
311,61,38124,1,0,0:0:0:0:
393,251,38241,5,0,0:0:0:0:
261,130,38359,1,0,0:0:0:0:
214,341,38474,5,0,0:0:0:0:
327,190,38592,1,0,0:0:0:0:
133,50,38710,6,0,L|144:126,1,77.0000023498536
62,307,38944,2,0,L|50:230,1,77.0000023498536
203,113,39413,5,0,0:0:0:0:
390,309,39647,6,0,P|403:233|392:158,1,154.000004699707
298,50,39999,2,0,P|284:125|295:200,1,154.000004699707
244,334,40350,2,0,P|233:296|217:260,1,77.0000023498536
86,88,40585,5,0,0:0:0:0:
109,335,40936,1,0,0:0:0:0:
271,144,41288,1,0,0:0:0:0:
336,357,41522,5,0,0:0:0:0:
226,270,41639,1,0,0:0:0:0:
405,205,41756,2,0,P|443:216|479:232,1,77.0000023498536
180,172,41991,5,0,0:0:0:0:
449,75,42108,2,0,P|527:140|476:230,1,224
316,124,42460,5,0,0:0:0:0:
250,334,42928,6,0,P|245:294|236:256,1,77.0000023498536
166,110,43163,1,0,0:0:0:0:
330,269,43397,6,0,P|400:301|475:310,1,154.000004699707
351,114,43749,2,0,P|290:161|218:188,1,154.000004699707
218,350,44100,2,0,P|229:312|245:276,1,77.0000023498536,0|0,3:0|3:0,3:0:0:0:
105,135,44335,5,0,0:0:0:0:
103,169,44393,1,0,0:0:0:0:
101,203,44452,1,0,0:0:0:0:
215,35,44569,1,0,0:0:0:0:
355,182,44686,5,0,0:0:0:0:
353,148,44745,1,0,0:0:0:0:
351,114,44803,1,0,0:0:0:0:
252,289,44920,1,0,0:0:0:0:
183,115,45038,5,0,0:0:0:0:
355,182,45155,1,0,0:0:0:0:
113,211,45272,5,0,0:0:0:0:
278,214,45389,1,0,0:0:0:0:
80,321,45506,5,0,0:0:0:0:
219,273,45623,1,0,0:0:0:0:
29,164,45741,6,0,L|20:267,1,77.0000023498536
142,374,45975,2,0,L|148:297,1,77.0000023498536
285,49,46210,6,0,L|292:136,1,87.5
413,311,46444,2,0,L|405:223,1,87.5
170,115,46678,1,0,0:0:0:0:
288,326,46913,5,0,0:0:0:0:
327,209,47030,1,0,0:0:0:0:
244,328,47147,5,0,0:0:0:0:
148,223,47264,1,0,0:0:0:0:
322,183,47381,1,0,0:0:0:0:
122,329,47499,5,0,0:0:0:0:
169,115,47616,2,0,P|184:156|191:199,1,87.5
288,326,47850,2,0,P|296:283|311:242,1,87.5
461,53,48085,6,0,P|438:137|444:224,1,175
288,326,48436,5,0,0:0:0:0:
169,115,48553,2,0,P|210:100|253:92,1,87.5
106,264,48788,5,0,0:0:0:0:
37,140,48905,1,0,0:0:0:0:
235,193,49022,5,0,0:0:0:0:
39,221,49139,1,0,0:0:0:0:
240,101,49256,2,0,P|284:102|327:111,1,87.5
39,221,49491,5,0,0:0:0:0:
229,17,49608,2,0,P|316:16|398:44,1,175
384,273,49960,6,0,P|369:187|327:111,1,175
216,282,50311,1,0,0:0:0:0:
192,95,50428,2,0,P|206:54|228:16,1,87.5
71,238,50663,5,0,0:0:0:0:
192,95,50780,1,0,0:0:0:0:
308,255,50897,2,0,P|350:263|394:263,1,87.5
105,144,51131,5,0,0:0:0:0:
216,282,51249,1,0,0:0:0:0:
311,108,51366,2,0,P|307:65|296:22,1,87.5
121,234,51600,2,0,P|124:276|135:319,1,87.5
216,40,51835,6,0,P|226:80|230:124,1,87.5
283,270,52069,1,0,0:0:0:0:
398,138,52186,5,0,0:0:0:0:
410,329,52303,1,0,0:0:0:0:
309,182,52420,5,0,0:0:0:0:
288,342,52538,1,0,0:0:0:0:
402,172,52655,2,0,P|406:128|402:84,1,87.5
348,329,52889,5,0,0:0:0:0:
256,146,53006,2,0,P|252:102|256:58,1,87.5
87,272,53241,5,0,0:0:0:0:
171,120,53358,1,0,0:0:0:0:
283,270,53475,2,0,P|327:274|371:270,1,87.5
87,272,53710,6,0,P|86:228|94:185,1,87.5
163,33,53944,2,0,P|162:76|170:119,1,87.5
283,270,54178,1,0,0:0:0:0:
363,38,54413,5,0,0:0:0:0:
419,166,54530,1,0,0:0:0:0:
293,38,54647,5,0,0:0:0:0:
259,191,54764,1,0,0:0:0:0:
421,76,54881,1,0,0:0:0:0:
384,270,54999,5,0,0:0:0:0:
244,107,55116,2,0,P|201:106|158:114,1,87.5
114,264,55350,2,0,P|143:232|179:208,1,87.5
352,74,55585,6,0,P|317:153|311:240,1,175
192,360,55936,5,0,0:0:0:0:
202,147,56053,2,0,P|192:104|174:64,1,87.5
272,296,56288,5,0,0:0:0:0:
346,155,56405,1,0,0:0:0:0:
357,319,56522,5,0,0:0:0:0:
272,151,56639,1,0,0:0:0:0:
192,360,56756,2,0,P|194:316|187:273,1,87.5
270,58,56991,5,0,0:0:0:0:
357,319,57108,2,0,P|360:231|391:150,1,175
150,73,57460,6,0,P|171:111|184:152,1,87.5
241,314,57694,2,0,P|252:271|273:233,1,87.5
430,85,57928,2,0,P|450:123|462:165,1,87.5
390,353,58163,5,0,0:0:0:0:
272,233,58280,1,0,0:0:0:0:
462,165,58397,5,0,0:0:0:0:
297,329,58514,1,0,0:0:0:0:
352,158,58631,1,0,0:0:0:0:
457,321,58749,5,0,0:0:0:0:
257,223,58866,2,0,P|246:181|245:138,1,87.5
423,25,59100,2,0,P|422:68|412:110,1,87.5
357,281,59335,6,0,P|356:238|346:196,1,87.5
249,68,59569,1,0,0:0:0:0:
215,296,59686,5,0,0:0:0:0:
246,105,59803,2,0,P|244:61|234:18,1,87.5
277,243,60038,5,0,0:0:0:0:
336,49,60155,1,0,0:0:0:0:
357,281,60272,5,0,0:0:0:0:
246,105,60389,1,0,0:0:0:0:
215,296,60506,2,0,P|204:253|203:209,1,87.5
336,49,60741,5,0,0:0:0:0:
289,316,60858,1,0,0:0:0:0:
142,89,60975,2,0,P|143:45|153:2,1,87.5
145,322,61210,6,0,P|144:278|134:235,1,87.5
246,105,61444,2,0,P|235:147|234:191,1,87.5
289,316,61678,1,0,0:0:0:0:
80,150,61913,5,0,0:0:0:0:
234,191,62030,1,0,0:0:0:0:
54,275,62147,5,0,0:0:0:0:
207,258,62264,1,0,0:0:0:0:
80,150,62381,1,0,0:0:0:0:
278,83,62499,5,0,0:0:0:0:
207,258,62616,2,0,P|197:215|196:171,1,87.5
69,63,62850,2,0,P|78:105|79:149,1,87.5
103,332,63085,6,0,P|106:244|137:163,1,175
319,41,63436,5,0,0:0:0:0:
284,263,63553,2,0,P|266:223|256:180,1,87.5
413,308,63788,5,0,0:0:0:0:
472,157,63905,1,0,0:0:0:0:
492,317,64022,5,0,0:0:0:0:
406,138,64139,1,0,0:0:0:0:
326,343,64256,2,0,P|286:360|243:370,1,87.5
472,157,64491,5,0,0:0:0:0:
266,277,64608,2,0,P|178:278|96:251,1,175
246,0,64960,6,0,P|252:43|251:86,1,87.5
266,277,65194,1,0,0:0:0:0:
259,184,65311,1,0,0:0:0:0:
336,344,65428,5,0,0:0:0:0:
266,277,65545,1,0,0:0:0:0:
416,206,65663,1,0,0:0:0:0:
182,237,65780,1,0,0:0:0:0:
336,344,65897,5,0,0:0:0:0:
340,175,66014,1,0,0:0:0:0:
214,356,66131,1,0,0:0:0:0:
239,150,66249,5,0,0:0:0:0:
370,364,66366,2,0,P|371:320|365:277,1,87.5
458,43,66600,2,0,P|445:85|440:128,1,87.5
365,277,66835,6,0,P|356:233|354:190,1,87.5
268,44,67069,5,0,0:0:0:0:
157,242,67186,2,0,P|165:198|167:155,1,87.5
248,346,67420,5,0,0:0:0:0:
351,167,67538,1,0,0:0:0:0:
375,332,67655,1,0,0:0:0:0:
256,172,67772,5,0,0:0:0:0:
314,355,67890,1,0,0:0:0:0:
428,175,68007,2,0,P|436:131|438:88,1,87.5
167,155,68241,5,0,0:0:0:0:
400,253,68358,1,0,0:0:0:0:
147,244,68475,5,0,3:0:0:0:
351,167,68592,1,0,3:0:0:0:
95,82,68710,6,0,P|86:125|84:168,1,87.5
136,330,68944,2,0,P|145:287|147:244,1,87.5
223,79,69178,1,0,0:0:0:0:
327,323,69413,5,0,0:0:0:0:
351,167,69530,1,0,0:0:0:0:
146,243,69647,5,0,0:0:0:0:
306,241,69764,1,0,0:0:0:0:
134,137,69881,1,0,0:0:0:0:
227,331,69999,5,0,0:0:0:0:
285,126,70116,2,0,P|271:84|251:45,1,87.5
424,275,70350,2,0,P|438:233|458:194,1,87.5
227,331,70585,6,0,P|234:244|212:159,1,175
335,336,70936,1,0,0:0:0:0:
446,108,71053,2,0,P|454:151|457:195,1,87.5
446,328,71288,5,0,0:0:0:0:
332,196,71405,1,0,0:0:0:0:
227,331,71522,5,0,0:0:0:0:
392,262,71639,1,0,0:0:0:0:
171,186,71756,2,0,P|134:209|101:238,1,87.5
332,196,71991,5,0,0:0:0:0:
117,67,72108,2,0,P|94:151|101:238,1,175
227,331,72460,5,0,0:0:0:0:
225,296,72519,1,0,0:0:0:0:
224,262,72577,1,0,0:0:0:0:
326,98,72694,5,0,0:0:0:0:
389,331,72811,5,0,0:0:0:0:
391,296,72870,1,0,0:0:0:0:
392,262,72928,1,0,0:0:0:0:
290,98,73045,5,0,0:0:0:0:
227,331,73163,5,0,0:0:0:0:
225,296,73222,1,0,0:0:0:0:
224,262,73280,1,0,0:0:0:0:
326,98,73397,5,0,0:0:0:0:
391,296,73514,1,0,0:0:0:0:
428,78,73631,2,0,P|418:115|415:153,1,77.0000023498536
308,336,73866,6,0,L|288:173,1,112
187,75,74100,2,0,L|167:238,1,112
159,297,74335,5,0,0:0:0:0:
159,297,74452,1,0,0:0:0:0:
243,150,74569,5,0,0:0:0:0:
294,224,74686,1,0,0:0:0:0:
248,301,74803,1,0,0:0:0:0:
229,135,74921,5,0,0:0:0:0:
331,111,75038,1,0,0:0:0:0:
396,199,75155,1,0,0:0:0:0:
201,144,75272,1,0,0:0:0:0:
268,23,75389,5,0,0:0:0:0:
294,224,75506,1,0,0:0:0:0:
187,129,75624,1,0,0:0:0:0:
441,101,75741,6,0,P|451:138|454:176,1,77.0000023498536
287,300,75975,2,0,P|286:261|293:224,1,77.0000023498536
150,53,76210,1,0,0:0:0:0:
148,170,78553,5,0,0:0:0:0:
286,238,78670,1,0,0:0:0:0:
107,268,78788,5,0,0:0:0:0:
268,125,78905,1,0,0:0:0:0:
21,99,79022,5,0,0:0:0:0:
286,238,79139,1,0,0:0:0:0:
9,229,79256,5,0,0:0:0:0:
268,125,79374,1,0,0:0:0:0:
32,368,79491,6,0,L|13:253,1,105.000004005432
136,93,79725,2,0,L|155:208,1,105.000004005432
308,342,79960,6,0,P|309:265|322:189,1,154.000004699707
405,31,80311,5,0,0:0:0:0:
216,88,80428,2,0,L|310:98,1,77.0000023498536
78,214,80663,2,0,P|114:203|152:196,1,77.0000023498536
276,262,80897,5,0,0:0:0:0:
131,376,81014,2,0,P|128:337|122:299,1,77.0000023498536,0|0,3:0|3:0,3:0:0:0:
58,144,81248,5,0,3:0:0:0:
5,362,81366,2,0,P|7:323|13:285,1,77.0000023498536,0|0,3:0|3:0,3:0:0:0:
135,120,81600,2,0,P|145:156|152:194,1,77.0000023498536,0|0,3:0|3:0,3:0:0:0:
246,357,81835,6,0,P|267:283|300:213,1,154.000004699707
431,106,82186,5,0,0:0:0:0:
395,308,82303,2,0,L|382:227,1,77.0000023498536,0|0,3:0|3:0,3:0:0:0:
246,357,82538,2,0,P|255:319|267:283,1,77.0000023498536,0|0,3:0|3:0,3:0:0:0:
198,175,82772,5,0,0:0:0:0:
56,289,82889,2,0,P|94:287|132:282,1,77.0000023498536,0|0,3:0|3:0,3:0:0:0:
3,152,83124,5,0,0:0:0:0:
126,358,83241,2,0,P|127:319|132:281,1,77.0000023498536,0|0,3:0|3:0,3:0:0:0:
198,175,83475,1,0,0:0:0:0:
198,175,83592,1,0,0:0:0:0:
419,269,83710,6,0,P|342:270|266:283,1,154.000004699707
397,103,84061,5,0,0:0:0:0:
198,175,84178,2,0,L|285:181,1,77.0000023498536
51,82,84413,2,0,P|90:81|128:77,1,77.0000023498536,0|0,3:0|2:0,3:0:0:0:
137,245,84647,5,0,0:0:0:0:
295,93,84764,2,0,P|256:94|218:99,1,77.0000023498536
304,262,84999,5,0,0:0:0:0:
397,103,85116,2,0,P|405:140|410:178,1,77.0000023498536
297,338,85350,2,0,P|298:300|304:262,1,77.0000023498536
143,119,85585,6,0,P|219:111|294:92,1,154.000004699707
428,7,85936,5,0,0:0:0:0:
359,211,86053,2,0,L|346:135,1,77.0000023498536
460,350,86288,2,0,P|464:311|473:274,1,77.0000023498536,0|0,3:0|0:0,0:0:0:0:
246,285,86522,5,0,0:0:0:0:
378,229,86639,1,0,0:0:0:0:
182,128,86756,5,0,0:0:0:0:
296,214,86873,1,0,0:0:0:0:
90,280,86991,2,0,L|103:176,1,105.000004005432
253,67,87225,2,0,L|240:171,1,105.000004005432
391,306,87460,6,0,P|378:230|377:153,1,154.000004699707
442,1,87811,5,0,0:0:0:0:
229,115,87928,2,0,L|315:124,1,77.0000023498536
91,19,88163,2,0,P|130:15|167:6,1,77.0000023498536,0|0,3:0|0:0,0:0:0:0:
144,204,88397,5,0,0:0:0:0:
272,53,88514,2,0,P|291:87|304:122,1,77.0000023498536,0|0,3:0|0:0,0:0:0:0:
336,265,88749,5,0,0:0:0:0:
200,108,88866,2,0,P|162:98|124:95,1,77.0000023498536,0|0,3:0|0:0,0:0:0:0:
394,24,89100,2,0,P|431:14|469:11,1,77.0000023498536,0|0,3:0|0:0,0:0:0:0:
336,265,89335,6,0,P|324:188|302:115,1,154.000004699707
228,287,89686,5,0,0:0:0:0:
160,99,89803,2,0,L|150:191,1,77.0000023498536
308,0,90038,2,0,P|301:37|300:76,1,77.0000023498536,0|0,3:0|0:0,0:0:0:0:
330,212,90272,5,0,0:0:0:0:
207,81,90389,2,0,P|170:68|132:61,1,77.0000023498536,0|0,3:0|0:0,0:0:0:0:
174,249,90624,5,0,0:0:0:0:
300,76,90741,2,0,P|312:112|319:150,1,77.0000023498536,0|0,3:0|0:0,0:0:0:0:
324,304,90975,1,0,0:0:0:0:
324,304,91092,1,0,0:0:0:0:
470,123,91210,6,0,P|395:142|319:150,1,154.000004699707
485,255,91561,5,0,0:0:0:0:
248,178,91678,2,0,L|319:150,1,77.0000023498536
112,286,91913,2,0,P|148:297|183:313,1,77.0000023498536,0|0,3:0|3:3,0:0:0:0:
58,153,92147,5,0,0:0:0:0:
256,102,92264,2,0,P|254:140|248:178,1,77.0000023498536,0|0,3:0|3:3,0:0:0:0:
104,36,92499,5,0,0:0:0:0:
326,53,92616,2,0,P|357:75|385:101,1,77.0000023498536,0|0,3:0|3:3,0:0:0:0:
200,238,92850,2,0,P|222:206|248:178,1,77.0000023498536,0|0,3:0|3:3,3:0:0:0:
474,233,93085,6,0,P|407:194|335:167,1,154.000004699707
332,342,93436,5,0,0:0:0:0:
170,181,93553,2,0,L|247:178,1,77.0000023498536
52,317,93788,2,0,P|90:319|127:328,1,77.0000023498536,0|0,3:0|3:3,3:0:0:0:
106,95,94022,5,0,0:0:0:0:
117,212,94139,1,0,0:0:0:0:
128,329,94256,1,0,0:0:0:0:
113,174,94374,5,0,0:0:0:0:
117,212,94433,1,0,0:0:0:0:
121,251,94491,1,0,0:0:0:0:
106,95,94608,5,0,0:0:0:0:
128,329,94725,2,0,L|117:212,1,117.250000447273
268,104,94960,6,0,P|253:139|246:176,2,77.0000023498536,0|0|0,3:0|3:3|3:0,3:0:0:0:
284,253,95311,5,0,0:0:0:0:
388,100,95428,2,0,P|402:135|409:172,1,77.0000023498536,0|0,3:0|3:3,3:0:0:0:
426,334,95663,2,0,P|409:299|385:268,1,77.0000023498536,0|0,3:0|3:3,3:0:0:0:
246,177,95897,5,0,0:0:0:0:
180,338,96014,2,0,P|218:340|256:335,1,77.0000023498536,0|0,3:0|3:3,3:0:0:0:
328,158,96249,5,0,0:0:0:0:
377,344,96366,2,0,P|377:305|385:267,1,77.0000023498536,0|0,3:0|3:3,3:0:0:0:
486,162,96600,2,0,P|499:197|507:235,1,77.0000023498536,0|0,3:0|3:3,3:0:0:0:
256,334,96835,6,0,P|218:327|182:313,2,77.0000023498536,0|0|0,3:0|3:3|3:0,3:0:0:0:
328,158,97186,5,0,0:0:0:0:
377,344,97303,2,0,P|377:305|385:267,1,77.0000023498536,0|0,3:0|3:3,3:0:0:0:
424,109,97538,2,0,P|424:148|416:186,1,77.0000023498536,0|0,3:0|3:3,3:0:0:0:
470,329,97772,5,0,0:0:0:0:
486,162,97889,2,0,P|486:201|494:239,1,77.0000023498536,0|0,3:0|3:3,3:0:0:0:
377,344,98124,5,0,0:0:0:0:
328,158,98241,2,0,P|317:195|315:234,1,77.0000023498536,0|0,3:0|3:3,3:0:0:0:
206,330,98475,2,0,P|203:291|193:254,1,77.0000023498536,0|0,3:0|3:3,3:0:0:0:
93,75,98710,6,0,P|86:112|86:151,2,77.0000023498536,0|0|0,3:0|3:3|3:0,3:0:0:0:
108,224,99061,5,0,0:0:0:0:
235,77,99178,2,0,P|242:114|242:153,1,77.0000023498536,0|0,3:0|3:3,3:0:0:0:
288,304,99413,2,0,P|297:266|314:232,1,77.0000023498536,0|0,3:0|3:3,3:0:0:0:
417,116,99647,5,0,0:0:0:0:
437,321,99764,2,0,P|427:283|410:249,1,77.0000023498536,0|0,3:0|3:3,3:0:0:0:
330,136,99999,5,0,0:0:0:0:
206,330,100116,2,0,P|196:292|193:254,1,77.0000023498536,0|0,3:0|3:3,3:0:0:0:
86,150,100350,2,0,P|83:188|73:226,1,77.0000023498536,0|0,3:0|3:3,3:0:0:0:
254,27,100585,6,0,P|256:65|266:102,2,77.0000023498536,0|0|0,3:0|3:3|3:0,3:0:0:0:
308,203,100936,5,0,0:0:0:0:
427,77,101053,2,0,P|436:39|439:1,1,77.0000023498536,0|0,3:0|3:3,3:0:0:0:
433,272,101288,2,0,P|423:234|420:196,1,77.0000023498536,0|0,3:0|3:3,3:0:0:0:
341,50,101522,5,0,0:0:0:0:
307,202,101639,2,0,P|304:240|295:278,1,77.0000023498536,0|0,3:0|3:3,3:0:0:0:
254,27,101874,5,0,0:0:0:0:
164,254,101991,2,0,P|154:216|151:178,1,77.0000023498536,0|0,3:0|3:3,3:0:0:0:
57,28,102225,2,0,P|54:66|44:103,1,77.0000023498536,0|0,3:0|3:3,3:0:0:0:
57,258,102460,6,0,P|66:221|70:183,2,77.0000023498536,0|0|0,3:0|3:3|3:0,3:0:0:0:
127,98,102811,5,0,0:0:0:0:
233,257,102928,2,0,P|236:217|246:181,1,77.0000023498536,0|0,3:0|3:3,3:0:0:0:
254,27,103163,2,0,P|250:65|240:102,1,77.0000023498536,0|0,3:0|3:3,3:0:0:0:
319,221,103397,5,0,0:0:0:0:
399,71,103514,2,0,P|402:109|412:146,1,77.0000023498536,0|0,3:0|3:3,3:0:0:0:
439,294,103749,5,0,0:0:0:0:
312,144,103866,2,0,P|318:181|318:220,1,77.0000023498536,0|0,3:0|3:3,3:0:0:0:
239,333,104100,2,0,P|232:295|232:256,1,77.0000023498536,0|0,3:0|3:3,3:0:0:0:
151,94,104335,6,0,P|151:132|144:170,2,77.0000023498536,0|0|0,3:0|3:3|3:0,3:0:0:0:
232,256,104686,5,0,0:0:0:0:
305,67,104803,2,0,P|304:105|311:143,1,77.0000023498536,0|0,3:0|3:3,3:0:0:0:
365,287,105038,2,0,P|368:249|379:212,1,77.0000023498536,0|0,3:0|3:3,3:0:0:0:
432,97,105272,5,0,0:0:0:0:
298,233,105389,2,0,P|294:194|284:157,1,77.0000023498536,0|0,3:0|3:3,3:0:0:0:
222,42,105624,5,0,0:0:0:0:
131,245,105741,2,0,P|134:206|144:169,1,77.0000023498536,0|0,3:0|3:3,3:0:0:0:
66,21,105975,2,0,P|62:59|52:96,1,77.0000023498536,0|0,3:0|3:3,3:0:0:0:
56,255,106210,6,0,P|53:216|43:179,2,77.0000023498536,0|0|0,3:0|3:3|3:0,3:0:0:0:
135,87,106561,5,0,0:0:0:0:
202,260,106678,2,0,P|205:221|215:184,1,77.0000023498536,0|0,3:0|3:3,3:0:0:0:
305,67,106913,2,0,P|312:105|312:143,1,77.0000023498536,0|0,3:0|3:3,3:0:0:0:
352,271,107147,5,0,0:0:0:0:
432,97,107264,2,0,P|424:135|424:173,1,77.0000023498536,0|0,3:0|3:3,3:0:0:0:
459,316,107499,5,0,0:0:0:0:
508,127,107616,2,0,P|507:88|500:50,1,77.0000023498536,0|0,3:0|3:3,3:0:0:0:
354,233,107850,5,0,0:0:0:0:
352,271,107909,1,0,0:0:0:0:
351,310,107967,1,0,0:0:0:0:
258,71,108085,6,0,L|247:175,1,105.000004005432
260,292,108319,1,0,0:0:0:0:
154,51,108436,6,0,L|143:155,1,105.000004005432
156,272,108670,1,0,0:0:0:0:
50,31,108788,6,0,L|39:135,1,105.000004005432
65,369,109022,5,0,0:0:0:0:
52,252,109139,1,0,0:0:0:0:
170,358,109256,5,0,0:0:0:0:
151,213,109374,1,0,0:0:0:0:
274,347,109491,5,0,0:0:0:0:
249,174,109608,1,0,0:0:0:0:
381,336,109725,5,0,0:0:0:0:
348,134,109842,1,0,0:0:0:0:
221,352,109960,6,0,B|95:371|50:186|203:120|297:192|289:282|289:282|399:269|352:317|457:295|457:295|529:263|535:182|486:106|383:118|354:186|354:186|323:126|261:84|167:55|69:109|10:211|43:318,1,1408.75
256,192,119627,12,0,124491,0:0:0:0:
73,94,124960,6,0,P|177:101|281:90,1,210.000008010865
421,219,125311,2,0,P|316:211|212:222,1,210.000008010865
72,94,125663,2,0,P|125:100|177:100,1,105.000004005432
382,64,125897,5,0,0:0:0:0:
111,248,126131,1,0,0:0:0:0:
382,64,126366,5,0,0:0:0:0:
111,248,126483,1,0,0:0:0:0:
111,248,126717,5,0,0:0:0:0:
178,101,126835,1,0,0:0:0:0:
315,211,126952,1,0,0:0:0:0:
382,64,127070,1,0,0:0:0:0:
336,313,127186,2,0,P|328:261|315:211,1,105.000004005432
280,82,127420,5,0,0:0:0:0:
280,82,127538,1,0,0:0:0:0:
111,248,127655,1,0,0:0:0:0:
111,248,127889,5,0,0:0:0:0:
280,82,128006,1,0,0:0:0:0:
336,313,128124,5,0,0:0:0:0:
328,261,128182,1,0,0:0:0:0:
314,210,128241,1,0,0:0:0:0:
349,138,128358,1,0,0:0:0:0:
111,248,128475,5,0,0:0:0:0:
417,190,128592,1,0,0:0:0:0:
76,130,128710,6,0,P|108:229|123:333,1,210.000008010865
270,215,129061,2,0,P|237:115|222:11,1,210.000008010865
76,130,129413,2,0,P|94:179|107:230,1,105.000004005432
222,12,129647,5,0,0:0:0:0:
123,332,130116,6,0,B|118:231|76:130|76:130|171:191|270:215|270:215|230:126|221:11|221:11|184:64|156:135|163:221|189:280|243:341|243:341|311:293|340:212|340:212|356:262|393:302,1,1260.00004806519
403,22,131991,5,0,0:0:0:0:
398,162,132133,5,0,0:0:0:0:
393,303,132296,5,0,0:0:0:0:
403,22,132459,6,0,P|395:125|406:230,1,210.000008010865
246,330,132810,2,0,P|253:226|242:121,1,210.000008010865
403,22,133162,2,0,P|397:74|396:126,1,105.000004005432
246,330,133396,5,0,0:0:0:0:
397,127,133630,1,0,0:0:0:0:
246,330,133865,5,0,0:0:0:0:
403,22,133982,1,0,0:0:0:0:
393,324,134216,5,0,0:0:0:0:
241,120,134334,2,0,P|241:173|235:225,1,105.000004005432
403,22,134568,1,0,0:0:0:0:
315,275,134802,5,0,0:0:0:0:
241,120,134919,1,0,0:0:0:0:
396,231,135037,5,0,0:0:0:0:
397,127,135154,1,0,0:0:0:0:
246,330,135271,6,0,B|243:305|243:305|246:295|246:295|233:266|248:252|248:252|251:233|251:233|241:216|239:189,1,140
313,38,135505,2,0,B|316:63|316:63|313:73|313:73|326:102|311:116|311:116|308:135|308:135|318:152|320:179,1,140
407,344,135740,5,0,0:0:0:0:
401,287,135811,1,0,0:0:0:0:
396,231,135882,1,0,0:0:0:0:
411,192,135963,1,0,0:0:0:0:
403,159,136045,1,0,0:0:0:0:
397,127,136126,1,0,0:0:0:0:
409,78,136208,6,0,P|395:181|400:286,1,210.000008010865
246,330,136559,2,0,P|259:226|254:121,1,210.000008010865
409,78,136911,2,0,P|399:130|396:182,1,105.000004005432
246,330,137614,5,0,0:0:0:0:
207,244,137848,5,0,0:0:0:0:
280,123,138083,5,0,0:0:0:0:
330,302,138317,5,0,0:0:0:0:
100,273,138551,5,0,0:0:0:0:
366,194,138786,5,0,0:0:0:0:
63,74,139020,5,0,0:0:0:0:
429,14,139254,5,0,0:0:0:0:
100,273,139489,5,0,0:0:0:0:
483,327,139723,5,0,0:0:0:0:
366,194,139840,1,0,0:0:0:0:
223,356,139958,6,0,L|204:259,1,77.0000023498536
85,197,140192,2,0,L|104:294,1,77.0000023498536
314,38,140661,5,0,0:0:0:0:
485,167,140895,2,0,P|411:152|332:164,1,154.000004699707
235,200,141247,2,0,P|159:211|84:196,1,154.000004699707
22,112,141598,2,0,P|14:74|14:35,1,77.0000023498536
75,282,141833,5,0,0:0:0:0:
235,200,142184,1,0,0:0:0:0:
75,282,142536,1,0,0:0:0:0:
347,290,142770,5,0,0:0:0:0:
235,200,142887,1,0,0:0:0:0:
395,122,143004,2,0,P|433:124|470:134,1,77.0000023498536
134,233,143356,6,0,P|159:142|235:200,1,224
231,350,143708,5,0,0:0:0:0:
158,144,144059,1,0,0:0:0:0:
370,210,144411,1,0,0:0:0:0:
154,294,144645,6,0,P|169:220|157:141,1,154.000004699707
235,53,144997,2,0,P|243:129|277:197,1,154.000004699707
315,310,145348,2,0,P|326:273|346:240,1,77.0000023498536
484,133,145583,6,0,P|479:171|482:209,1,77.0000023498536
444,320,145817,5,0,0:0:0:0:
327,183,145934,2,0,P|365:178|403:181,1,77.0000023498536
315,310,146168,5,0,0:0:0:0:
254,118,146286,2,0,P|249:156|252:194,1,77.0000023498536
195,347,146520,2,0,P|191:308|196:270,1,77.0000023498536
119,84,146754,5,0,0:0:0:0:
252,194,146872,1,0,0:0:0:0:
79,213,146989,5,0,0:0:0:0:
237,81,147107,1,0,0:0:0:0:
28,90,147223,5,0,0:0:0:0:
252,194,147341,1,0,0:0:0:0:
4,296,147458,6,0,L|19:172,1,77.0000023498536
178,81,147692,2,0,L|168:157,1,77.0000023498536
242,329,148161,5,0,0:0:0:0:
351,139,148395,2,0,P|336:214|347:289,1,154.000004699707
242,329,148747,2,0,P|217:256|169:196,1,154.000004699707
237,81,149098,2,0,P|249:117|268:151,1,77.0000023498536
242,329,149333,5,0,0:0:0:0:
86,240,149684,1,0,0:0:0:0:
242,329,150036,1,0,0:0:0:0:
351,139,150270,5,0,0:0:0:0:
233,232,150387,1,0,0:0:0:0:
264,46,150504,2,0,P|271:83|272:122,1,77.0000023498536
304,311,150856,6,0,P|327:219|233:231,1,224
141,356,151208,5,0,0:0:0:0:
170,137,151559,1,0,0:0:0:0:
304,311,151911,1,0,0:0:0:0:
501,142,152145,6,0,P|425:153|350:138,1,154.000004699707
232,231,152497,2,0,P|308:239|376:273,1,154.000004699707
499,301,152848,2,0,P|480:267|468:231,1,77.0000023498536,0|0,3:0|3:0,3:0:0:0:
420,70,153083,6,0,P|291:81|406:182,1,357.000006809235
512,149,153551,1,0,0:0:0:0:
348,363,153786,5,0,0:0:0:0:
400,186,153903,1,0,0:0:0:0:
240,352,154020,5,0,0:0:0:0:
326,210,154137,1,0,0:0:0:0:
132,341,154254,5,0,0:0:0:0:
239,237,154371,1,0,0:0:0:0:
60,164,154489,6,0,L|46:239,1,77.0000023498536
203,45,154723,2,0,L|216:120,1,77.0000023498536
269,346,154958,6,0,P|272:301|286:260,1,87.5
372,103,155192,2,0,P|391:143|399:185,1,87.5
365,353,155426,1,0,0:0:0:0:
247,189,155661,5,0,0:0:0:0:
399,185,155778,1,0,0:0:0:0:
223,273,155895,5,0,0:0:0:0:
281,102,156012,1,0,0:0:0:0:
383,269,156129,1,0,0:0:0:0:
247,189,156247,5,0,0:0:0:0:
355,351,156364,2,0,P|374:310|382:268,1,87.5
426,102,156598,2,0,P|406:142|398:184,1,87.5
289,355,156833,6,0,P|281:268|246:188,1,175
158,82,157184,5,0,0:0:0:0:
40,270,157301,2,0,P|48:227|67:187,1,87.5
158,82,157536,5,0,0:0:0:0:
255,203,157653,1,0,0:0:0:0:
252,45,157770,5,0,0:0:0:0:
174,222,157887,1,0,0:0:0:0:
47,47,158004,2,0,P|88:32|131:29,1,87.5
93,241,158239,5,0,0:0:0:0:
252,45,158356,2,0,P|338:32|423:48,1,175
429,255,158708,6,0,P|396:174|339:108,1,175
240,275,159059,1,0,0:0:0:0:
158,82,159176,2,0,P|200:71|244:72,1,87.5
135,266,159411,5,0,0:0:0:0:
72,92,159528,1,0,0:0:0:0:
251,200,159645,2,0,P|293:210|337:209,1,87.5
158,82,159879,5,0,0:0:0:0:
135,266,159997,1,0,0:0:0:0:
253,118,160114,2,0,P|295:107|339:108,1,87.5
342,344,160348,2,0,P|311:312|290:274,1,87.5
447,110,160583,6,0,P|457:152|456:196,1,87.5
420,342,160817,1,0,0:0:0:0:
303,188,160934,5,0,0:0:0:0:
494,261,161051,1,0,0:0:0:0:
290,274,161168,5,0,0:0:0:0:
456,196,161286,1,0,0:0:0:0:
290,102,161403,2,0,P|291:146|303:188,1,87.5
350,319,161637,5,0,0:0:0:0:
456,196,161754,2,0,P|457:152|447:110,1,87.5
496,338,161989,5,0,0:0:0:0:
381,194,162106,1,0,0:0:0:0:
278,350,162223,2,0,P|234:350|191:340,1,87.5
290,102,162458,6,0,P|291:146|303:188,1,87.5
420,342,162692,2,0,P|419:298|429:255,1,87.5
495,115,162926,1,0,0:0:0:0:
492,323,163161,5,0,0:0:0:0:
381,194,163278,1,0,0:0:0:0:
347,368,163395,5,0,0:0:0:0:
462,237,163512,1,0,0:0:0:0:
269,265,163629,1,0,0:0:0:0:
420,347,163747,5,0,0:0:0:0:
278,178,163864,2,0,P|268:221|269:265,1,87.5
453,150,164098,2,0,P|463:193|462:237,1,87.5
295,52,164333,6,0,P|380:68|466:56,1,175
292,137,164684,5,0,0:0:0:0:
462,237,164801,2,0,P|463:193|453:150,1,87.5
336,327,165036,5,0,0:0:0:0:
373,178,165153,1,0,0:0:0:0:
427,299,165270,5,0,0:0:0:0:
378,105,165387,1,0,0:0:0:0:
336,327,165504,2,0,P|337:283|327:240,1,87.5
383,32,165739,5,0,0:0:0:0:
427,299,165856,2,0,P|436:212|473:133,1,175
512,339,166208,6,0,P|513:295|503:252,1,87.5
378,105,166442,2,0,P|365:146|364:190,1,87.5
277,351,166676,2,0,P|266:308|246:270,1,87.5
148,151,166911,5,0,0:0:0:0:
314,142,167028,1,0,0:0:0:0:
125,249,167145,5,0,0:0:0:0:
208,62,167262,1,0,0:0:0:0:
246,270,167379,1,0,0:0:0:0:
138,78,167497,5,0,0:0:0:0:
329,233,167614,2,0,P|372:234|415:224,1,87.5
454,40,167848,2,0,P|415:60|383:90,1,87.5
503,261,168083,6,0,P|505:217|495:174,1,87.5
383,89,168317,1,0,0:0:0:0:
382,300,168434,5,0,0:0:0:0:
487,88,168551,2,0,P|497:131|495:175,1,87.5
455,316,168786,5,0,0:0:0:0:
383,89,168903,1,0,0:0:0:0:
309,284,169020,5,0,0:0:0:0:
495,173,169137,1,0,0:0:0:0:
271,109,169254,2,0,P|257:150|256:194,1,87.5
372,345,169489,5,0,0:0:0:0:
470,77,169606,1,0,0:0:0:0:
189,138,169723,2,0,P|218:170|255:193,1,87.5,0|0,2:0|2:0,2:0:0:0:
455,316,169958,6,0,P|457:272|447:230,1,87.5,0|0,2:0|2:0,2:0:0:0:
331,95,170192,2,0,P|317:136|316:179,1,87.5,0|0,3:0|3:0,3:0:0:0:
372,345,170426,1,0,0:0:0:0:
430,126,170661,5,0,0:0:0:0:
344,263,170778,1,0,0:0:0:0:
331,95,170895,5,0,0:0:0:0:
511,165,171012,1,0,0:0:0:0:
316,179,171129,1,0,0:0:0:0:
500,80,171247,5,0,0:0:0:0:
455,316,171364,2,0,P|457:272|447:230,1,87.5,0|0,2:0|2:0,2:0:0:0:
331,95,171598,2,0,P|317:136|316:180,1,87.5,0|0,2:0|2:0,2:0:0:0:
220,326,171833,6,0,P|211:239|174:160,1,175
68,46,172184,5,0,0:0:0:0:
316,180,172301,2,0,P|317:136|331:95,1,87.5,0|0,2:0|2:0,2:0:0:0:
220,326,172536,5,0,0:0:0:0:
244,172,172653,1,0,0:0:0:0:
301,339,172770,5,0,0:0:0:0:
174,160,172887,1,0,0:0:0:0:
382,352,173004,2,0,P|425:350|467:337,1,87.5,0|0,2:0|2:0,2:0:0:0:
139,313,173239,5,0,0:0:0:0:
410,182,173356,2,0,P|410:269|382:352,1,175
244,172,173708,6,0,P|282:152|325:142,1,87.5,0|0,2:0|2:0,2:0:0:0:
143,73,173942,5,0,0:0:0:0:
174,160,174059,1,0,0:0:0:0:
316,53,174176,2,0,P|274:41|230:39,1,87.5,0|0,2:0|2:0,2:0:0:0:
410,182,174411,5,0,0:0:0:0:
401,90,174528,1,0,0:0:0:0:
271,238,174645,6,0,P|312:250|356:252,1,87.5,0|0,2:0|2:0,2:0:0:0:
201,99,174879,1,0,0:0:0:0:
186,281,174997,5,0,0:0:0:0:
315,104,175114,2,0,P|356:91|400:89,1,87.5,0|0,2:0|2:0,2:0:0:0:
159,186,175348,2,0,P|115:187|72:178,1,87.5,0|0,2:0|2:0,2:0:0:0:
356,251,175583,6,0,P|357:207|348:164,1,87.5,0|0,2:0|2:0,2:0:0:0:
201,99,175817,1,0,0:0:0:0:
186,281,175934,5,0,0:0:0:0:
315,104,176051,1,0,0:0:0:0:
356,251,176168,5,0,0:0:0:0:
172,189,176286,1,0,0:0:0:0:
392,172,176403,2,0,P|412:211|422:253,1,87.5,0|0,2:0|2:0,2:0:0:0:
201,99,176637,5,0,0:0:0:0:
429,109,176754,2,0,P|465:132|495:164,1,87.5,0|0,2:0|2:0,2:0:0:0:
271,268,176989,6,0,P|273:224|285:182,1,87.5,0|0,2:0|2:0,2:0:0:0:
388,17,177223,2,0,P|385:60|373:102,1,87.5,0|0,2:0|2:0,2:0:0:0:
438,254,177458,6,0,P|394:251|352:239,1,87.5,0|0,2:0|2:0,2:0:0:0:
198,189,177692,2,0,P|241:180|285:181,1,87.5,0|0,2:0|2:0,2:0:0:0:
459,108,177926,1,0,0:0:0:0:
271,268,178160,5,0,0:0:0:0:
268,98,178278,1,0,0:0:0:0:
338,321,178395,5,0,0:0:0:0:
198,189,178512,1,0,0:0:0:0:
438,254,178629,1,0,0:0:0:0:
203,311,178747,5,0,0:0:0:0:
340,112,178864,2,0,P|348:154|347:198,1,87.5,0|0,2:0|2:0,2:0:0:0:
160,40,179098,2,0,P|151:82|152:126,1,87.5,0|0,2:0|2:0,2:0:0:0:
203,311,179333,6,0,P|236:230|243:143,1,175
338,321,179684,1,0,0:0:0:0:
353,112,179801,2,0,P|345:154|346:198,1,87.5,0|0,2:0|2:0,2:0:0:0:
473,331,180036,5,0,0:0:0:0:
481,208,180153,1,0,0:0:0:0:
338,321,180270,5,0,0:0:0:0:
243,143,180387,1,0,0:0:0:0:
406,296,180504,2,0,P|414:254|413:210,1,87.5,0|0,2:0|2:0,2:0:0:0:
352,48,180739,5,0,0:0:0:0:
232,314,180856,2,0,P|224:228|243:143,1,175
459,254,181208,6,0,P|415:255|372:247,1,87.5,0|0,2:0|2:0,2:0:0:0:
184,247,181442,2,0,P|225:234|269:231,1,87.5,0|0,2:0|2:0,2:0:0:0:
434,129,181676,2,0,P|392:116|348:113,1,87.5,0|0,2:0|2:0,2:0:0:0:
243,143,181910,5,0,0:0:0:0:
372,247,182028,1,0,0:0:0:0:
280,76,182145,5,0,0:0:0:0:
184,247,182262,1,0,0:0:0:0:
351,130,182379,1,0,0:0:0:0:
165,77,182497,5,0,0:0:0:0:
297,272,182614,2,0,P|305:229|303:185,1,87.5,0|0,2:0|2:0,2:0:0:0:
357,43,182848,2,0,P|349:86|351:130,1,87.5,0|0,2:0|2:0,2:0:0:0:
393,330,183083,6,0,P|396:286|408:244,1,87.5,0|0,2:0|2:0,2:0:0:0:
488,111,183317,1,0,0:0:0:0:
484,303,183434,5,0,0:0:0:0:
351,130,183551,2,0,P|349:86|357:43,1,87.5,0|0,2:0|2:0,2:0:0:0:
330,271,183786,5,0,0:0:0:0:
488,111,183903,2,0,P|489:67|481:24,1,87.5,0|0,2:0|2:0,2:0:0:0:
414,271,184137,5,0,0:0:0:0:
357,43,184254,2,0,P|349:86|351:130,1,87.5,0|0,2:0|2:0,2:0:0:0:
246,271,184489,5,0,0:0:0:0:
488,111,184606,1,0,0:0:0:0:
208,34,184723,2,0,P|179:67|158:105,1,87.5,0|0,2:0|2:0,2:0:0:0:
246,271,184958,6,0,P|254:228|252:184,1,87.5,0|0,2:0|2:0,2:0:0:0:
357,43,185192,2,0,P|349:86|351:130,1,87.5,0|0,2:0|2:0,2:0:0:0:
414,271,185426,1,0,0:0:0:0:
252,184,185661,5,0,0:0:0:0:
437,162,185778,1,0,0:0:0:0:
246,271,185895,5,0,0:0:0:0:
277,65,186012,1,0,0:0:0:0:
332,271,186129,1,0,0:0:0:0:
351,130,186247,5,0,0:0:0:0:
420,357,186364,2,0,P|422:313|414:271,1,87.5,0|0,2:0|2:0,2:0:0:0:
510,135,186598,2,0,P|497:176|494:220,1,87.5,0|0,2:0|2:0,2:0:0:0:
266,111,186833,6,0,P|351:129|437:121,1,175
332,271,187184,5,0,0:0:0:0:
172,162,187301,2,0,P|175:118|187:76,1,87.5,0|0,2:0|2:0,2:0:0:0:
225,258,187536,5,0,0:0:0:0:
266,111,187653,1,0,0:0:0:0:
332,271,187770,5,0,0:0:0:0:
172,162,187887,1,0,0:0:0:0:
391,193,188004,2,0,P|435:190|477:178,1,87.5,0|0,2:0|2:0,2:0:0:0:
187,76,188239,5,0,0:0:0:0:
332,271,188356,2,0,P|411:235|477:178,1,175
171,161,188708,6,0,P|159:203|157:247,1,87.5,0|0,2:0|2:0,2:0:0:0:
288,364,188942,5,0,0:0:0:0:
243,285,189059,1,0,0:0:0:0:
94,317,189176,5,0,0:0:0:0:
179,348,189293,1,0,0:0:0:0:
171,161,189411,1,0,0:0:0:0:
94,317,189528,1,0,0:0:0:0:
89,133,189645,5,0,0:0:0:0:
168,300,189762,1,0,0:0:0:0:
232,100,189879,1,0,0:0:0:0:
243,285,189997,5,0,0:0:0:0:
88,132,190114,2,0,P|131:142|171:161,1,87.5,0|0,2:0|2:0,2:0:0:0:
94,317,190348,2,0,P|51:307|11:288,1,87.5,0|0,2:0|2:0,2:0:0:0:
226,199,190583,6,0,P|239:241|243:285,1,87.5,0|0,2:0|2:0,2:0:0:0:
308,123,190817,5,0,0:0:0:0:
374,306,190934,2,0,P|377:262|390:220,1,87.5,0|0,2:0|2:0,2:0:0:0:
469,102,191168,5,0,0:0:0:0:
467,285,191286,1,0,0:0:0:0:
383,73,191403,1,0,0:0:0:0:
300,239,191520,5,0,0:0:0:0:
470,193,191637,1,0,0:0:0:0:
243,114,191754,2,0,P|230:155|226:199,1,87.5,0|0,2:0|2:0,2:0:0:0:
288,335,191989,5,0,0:0:0:0:
383,73,192106,1,0,0:0:0:0:
374,306,192223,5,0,0:0:0:0:
311,95,192340,1,0,0:0:0:0:
206,336,192458,6,0,P|207:293|200:249,1,87.5,0|0,2:0|2:0,2:0:0:0:
136,94,192692,2,0,P|137:136|130:180,1,87.5,0|0,2:0|2:0,2:0:0:0:
63,337,192926,2,0,P|61:294|68:250,1,87.5,0|0,2:0|2:0,2:0:0:0:
192,136,193161,5,0,0:0:0:0:
206,336,193278,1,0,0:0:0:0:
112,173,193395,5,0,0:0:0:0:
320,241,193512,1,0,0:0:0:0:
68,250,193629,1,0,0:0:0:0:
279,152,193747,5,0,0:0:0:0:
63,337,193864,2,0,P|61:294|68:250,1,87.5,0|0,2:0|2:0,2:0:0:0:
117,86,194098,2,0,P|118:128|111:172,1,87.5,0|0,2:0|2:0,2:0:0:0:
206,336,194333,6,0,P|212:249|242:167,1,175
350,33,194684,5,0,0:0:0:0:
450,215,194801,2,0,P|406:214|363:206,1,87.5,0|0,2:0|2:0,2:0:0:0:
223,71,195036,5,0,0:0:0:0:
404,121,195153,1,0,0:0:0:0:
156,148,195270,5,0,0:0:0:0:
350,33,195387,1,0,0:0:0:0:
77,32,195504,2,0,P|66:74|63:117,1,87.5,0|0,2:0|2:0,2:0:0:0:
207,254,195739,5,0,0:0:0:0:
350,33,195856,2,0,P|264:16|177:24,1,175
321,228,196208,5,0,0:0:0:0:
319,193,196267,1,0,0:0:0:0:
318,159,196325,1,0,0:0:0:0:
389,318,196442,5,0,0:0:0:0:
442,152,196559,5,0,0:0:0:0:
444,187,196618,1,0,0:0:0:0:
445,221,196676,1,0,0:0:0:0:
374,62,196793,5,0,0:0:0:0:
321,228,196911,5,0,0:0:0:0:
319,193,196970,1,0,0:0:0:0:
318,159,197028,1,0,0:0:0:0:
389,318,197145,5,0,0:0:0:0:
442,152,197262,1,0,0:0:0:0:
490,341,197379,2,0,P|497:303|498:264,1,77.0000023498536,0|0,2:0|2:0,2:0:0:0:
374,62,197614,6,0,L|381:195,1,112
266,343,197848,2,0,L|259:210,1,112
154,63,198083,5,0,0:0:0:0:
120,152,198200,1,0,0:0:0:0:
249,65,198317,1,0,0:0:0:0:
57,64,198434,5,0,0:0:0:0:
193,125,198551,1,0,0:0:0:0:
28,161,198668,1,0,0:0:0:0:
232,187,198786,5,0,0:0:0:0:
88,106,198903,1,0,0:0:0:0:
294,136,199020,1,0,0:0:0:0:
105,245,199137,5,0,0:0:0:0:
154,63,199254,1,0,0:0:0:0:
221,266,199372,1,0,0:0:0:0:
299,24,199489,6,0,L|294:136,1,112
361,292,199723,2,0,L|366:180,1,112
443,43,199958,5,0,0:0:0:0:
438,171,200075,1,0,0:0:0:0:
371,92,200192,1,0,0:0:0:0:
315,236,200309,5,0,0:0:0:0:
438,171,200426,1,0,0:0:0:0:
294,136,200543,1,0,0:0:0:0:
366,11,200661,5,0,0:0:0:0:
438,171,200778,1,0,0:0:0:0:
289,51,200895,1,0,0:0:0:0:
320,267,201012,5,0,0:0:0:0:
371,92,201129,1,0,0:0:0:0:
412,280,201247,1,0,0:0:0:0:
289,51,201364,6,0,L|283:162,1,112
145,363,201833,5,0,0:0:0:0:
58,222,201950,2,0,L|62:167,2,56
231,296,202184,5,0,0:0:0:0:
144,155,202301,2,0,L|148:100,2,56
317,229,202536,5,0,0:0:0:0:
144,278,202653,1,0,0:0:0:0:
360,298,202770,5,0,0:0:0:0:
180,217,202887,1,0,0:0:0:0:
375,165,203004,5,0,0:0:0:0:
144,278,203122,1,0,0:0:0:0:
437,280,203239,5,0,0:0:0:0:
180,217,203356,1,0,0:0:0:0:
381,53,203473,6,0,L|375:164,1,112
283,316,203708,2,0,P|283:217|177:221,1,224
