osu file format v14

[General]
AudioFilename: audio.mp3
AudioLeadIn: 0
PreviewTime: 113541
Countdown: 0
SampleSet: Soft
StackLeniency: 0.3
Mode: 0
LetterboxInBreaks: 0
WidescreenStoryboard: 0

[Editor]
Bookmarks: 16991,31979,39479,46979,61979,84479,99479,106979,114479,129479,142604
DistanceSpacing: 0.9
BeatDivisor: 8
GridSize: 16
TimelineZoom: 2.2

[Metadata]
Title:Tokyo Takedown
TitleUnicode:Tokyo Takedown
Artist:Boom Kitty & Ubi
ArtistUnicode:Boom Kitty & Ubi
Creator:Pisapou
Version:Destruction
Source:
Tags:electronic instrumental electro house fa featured artist HeliXiX Jeby LimeTwist Zawajiro Timevid
BeatmapID:3551578
BeatmapSetID:1737667

[Difficulty]
HPDrainRate:6
CircleSize:4.2
OverallDifficulty:8.2
ApproachRate:9.5
SliderMultiplier:2.2
SliderTickRate:1

[Events]
//Background and Video events
0,0,"fsghfxth.jpg",0,0
//Break Periods
2,77179,82079
//Storyboard Layer 0 (Background)
//Storyboard Layer 1 (Fail)
//Storyboard Layer 2 (Pass)
//Storyboard Layer 3 (Foreground)
//Storyboard Layer 4 (Overlay)
//Storyboard Sound Samples

[TimingPoints]
1979,468.75,4,2,1,50,1,0
16979,-250,4,2,1,65,0,0
18385,-125,4,2,1,65,0,0
18854,-166.666666666667,4,2,1,65,0,0
20260,-125,4,2,1,65,0,0
20729,-250,4,2,1,65,0,0
22135,-125,4,2,1,65,0,0
24479,-100,4,2,1,65,0,0
25885,-125,4,2,1,65,0,0
26354,-100,4,2,1,65,0,0
27760,-125,4,2,1,65,0,0
28229,-100,4,2,1,65,0,0
29635,-125,4,2,1,65,0,0
31979,-66.6666666666667,4,2,1,55,0,0
39479,-100,4,2,1,60,0,0
41354,-100,4,2,1,65,0,0
43229,-100,4,2,1,70,0,0
44166,-100,4,2,1,75,0,0
45104,-100,4,2,1,80,0,0
46041,-149.253731343284,4,2,1,80,0,0
46510,-66.6666666666667,4,2,1,80,0,0
46979,-43.4782608695652,4,2,1,75,0,0
61979,-43.4782608695652,4,2,1,75,0,1
76979,-125,4,2,1,75,0,0
78854,-125,4,2,1,10,0,0
80611,-125,4,2,1,5,0,0
80729,-125,4,2,1,75,0,0
82604,-125,4,2,1,55,0,0
83600,-125,4,2,1,40,0,0
83775,-125,4,2,1,45,0,0
84010,-125,4,2,1,50,0,0
84244,-125,4,2,1,55,0,0
84479,-125,4,2,1,65,0,0
91979,-83.3333333333333,4,2,1,65,0,0
92447,-125,4,2,1,65,0,0
99479,-125,4,2,1,55,0,0
103229,-125,4,2,1,60,0,0
105104,-125,4,2,1,65,0,0
106979,-125,4,2,1,50,0,0
113541,-333.333333333333,4,2,1,50,0,0
113893,-333.333333333333,4,2,1,5,0,0
114010,-83.3333333333333,4,2,1,50,0,0
114479,-43.4782608695652,4,2,1,75,0,1
142604,-43.4782608695652,4,2,1,75,0,0
142662,-43.4782608695652,4,2,1,5,0,0
143072,-43.4782608695652,4,2,1,75,0,0
148229,-43.4782608695652,4,2,1,5,0,0

[Colours]
Combo1 : 255,168,86
Combo2 : 124,228,140
Combo3 : 111,111,111
Combo4 : 252,255,136
Combo5 : 176,176,176
Combo6 : 255,80,80
Combo7 : 68,123,52

[HitObjects]
190,283,16979,6,0,P|200:237|208:192,1,88,6|8,1:2|3:2,0:0:0:0:
112,317,17682,1,2,2:2:0:0:
175,368,17799,1,2,2:2:0:0:
254,350,17916,1,10,3:2:0:0:
175,368,18150,69,0,3:2:0:0:
9,210,18385,22,0,L|40:201,1,22,10|2,3:2|3:2,0:0:0:0:
121,232,18502,2,0,L|142:237,1,22,2|2,3:2|3:2,0:0:0:0:
13,199,18619,2,0,L|64:186,1,44,2|0,3:2|0:0,0:0:0:0:
264,142,18854,70,0,P|220:115|166:122,1,98.9999969787599,6|0,1:2|0:0,0:0:0:0:
74,36,19322,1,10,3:2:0:0:
89,113,19557,1,2,2:2:0:0:
122,273,19791,1,10,3:2:0:0:
137,196,20025,1,2,2:2:0:0:
224,24,20260,22,0,L|217:51,1,22,10|2,3:3|3:2,0:0:0:0:
271,104,20377,2,0,L|276:125,1,22,2|2,3:2|3:2,0:0:0:0:
214,28,20494,2,0,L|202:79,1,44,8|0,3:3|0:0,0:0:0:0:
281,228,20729,70,0,P|273:184|263:141,1,88,6|8,1:2|3:2,0:0:0:0:
360,258,21432,1,2,2:2:0:0:
302,306,21549,1,2,2:2:0:0:
228,290,21666,1,10,3:2:0:0:
302,306,21900,21,2,2:2:0:0:
368,77,22135,70,0,L|375:105,1,22,10|2,3:3|3:2,0:0:0:0:
326,163,22252,2,0,L|320:184,1,22,2|2,3:2|3:2,0:0:0:0:
379,80,22369,2,0,L|392:131,1,44,2|0,3:2|0:0,0:0:0:0:
438,263,22604,21,6,1:2:0:0:
415,190,22838,1,2,3:2:0:0:
438,263,23072,1,10,3:2:0:0:
367,358,23307,69,2,3:2:0:0:
319,300,23424,1,2,2:2:0:0:
334,222,23541,1,10,3:2:0:0:
319,300,23775,21,2,3:2:0:0:
501,373,24010,70,0,L|493:342,1,22,8|2,3:2|3:0,0:0:0:0:
432,284,24127,2,0,L|437:262,1,22,2|0,3:2|0:0,0:0:0:0:
507,363,24244,2,0,L|494:311,1,44,8|0,3:3|0:0,0:0:0:0:
486,167,24479,22,0,P|360:185|245:193,1,220,6|8,1:2|3:2,0:0:0:0:
18,144,25182,1,0,0:0:0:0:
76,93,25299,1,2,2:2:0:0:
152,103,25416,1,10,3:2:0:0:
76,93,25650,69,0,0:0:0:0:
121,283,25885,22,0,L|114:257,1,22,10|2,3:2|3:2,0:0:0:0:
47,350,26002,2,0,L|53:324,1,22,2|2,3:2|3:2,0:0:0:0:
127,274,26119,2,0,L|114:222,1,44,2|0,3:2|0:0,0:0:0:0:
76,93,26354,70,0,P|122:31|210:52,1,165,6|0,1:2|0:0,0:0:0:0:
200,43,26822,1,10,3:2:0:0:
280,75,27057,1,2,2:2:0:0:
418,131,27291,1,10,3:2:0:0:
338,163,27525,1,2,2:2:0:0:
186,195,27760,22,0,L|192:169,1,22,10|2,3:3|3:2,0:0:0:0:
143,101,27877,2,0,L|138:79,1,22,2|2,3:2|3:2,0:0:0:0:
197,192,27994,2,0,L|210:140,1,44,8|0,3:3|0:0,0:0:0:0:
418,17,28229,70,0,P|292:35|177:43,1,220,6|8,1:2|3:2,0:0:0:0:
63,151,28932,1,0,0:0:0:0:
121,202,29049,1,2,2:2:0:0:
197,192,29166,1,10,3:2:0:0:
121,202,29400,21,2,2:2:0:0:
152,38,29635,70,0,L|145:65,1,22,10|2,3:3|3:2,0:0:0:0:
66,0,29752,2,0,L|72:27,1,22,2|2,3:2|3:2,0:0:0:0:
157,49,29869,2,0,L|144:101,1,44,2|0,3:2|0:0,0:0:0:0:
121,202,30104,21,6,1:2:0:0:
240,85,30338,1,2,3:2:0:0:
256,160,30455,1,0,0:0:0:0:
244,70,30572,1,10,3:2:0:0:
340,191,30807,69,2,3:2:0:0:
282,242,30924,1,0,0:0:0:0:
206,232,31041,1,10,3:2:0:0:
282,242,31275,21,2,3:2:0:0:
343,348,31510,70,0,L|335:316,1,22,8|0,3:2|0:0,0:0:0:0:
245,384,31627,2,0,L|252:352,1,22
333,345,31744,2,0,L|320:293,1,44,8|0,3:3|0:0,0:0:0:0:
256,160,31979,37,6,1:2:0:0:
65,0,32447,22,0,L|51:45,6,41.2500015735627,10|0|0|0|0|0|0,3:3|3:2|3:2|3:2|3:2|0:0|0:0,0:0:0:0:
27,110,32916,1,10,3:2:0:0:
112,85,33385,69,0,1:2:0:0:
144,161,33619,1,8,3:2:0:0:
166,298,33854,1,8,3:3:0:0:
198,223,34088,1,8,3:2:0:0:
367,125,34322,22,0,L|322:139,6,41.2500015735627,8|0|0|0|0|0|0,3:3|3:2|3:2|3:2|3:2|0:0|3:2,0:0:0:0:
256,160,34791,1,10,3:2:0:0:
214,27,35025,69,0,0:0:0:0:
205,102,35143,1,0,0:0:0:0:
256,160,35260,1,10,3:3:0:0:
367,125,35494,21,10,3:3:0:0:
375,127,35553,1,0,0:0:0:0:
380,132,35611,1,0,3:2:0:0:
385,137,35670,1,0,0:0:0:0:
388,144,35729,2,0,L|367:236,1,82.5000031471254,4|0,1:2|0:0,0:0:0:0:
188,315,36080,69,0,0:0:0:0:
158,239,36197,2,0,L|168:186,2,41.2500015735627,8|0|0,3:3|3:2|3:2,0:0:0:0:
199,312,36432,1,0,3:2:0:0:
151,383,36666,1,10,3:2:0:0:
158,239,37135,21,10,3:2:0:0:
96,281,37252,1,8,3:2:0:0:
37,236,37369,1,8,3:2:0:0:
61,166,37486,1,8,3:2:0:0:
136,167,37604,1,2,1:2:0:0:
143,160,37838,69,0,0:0:0:0:
56,158,37955,1,2,1:2:0:0:
28,236,38072,1,8,3:2:0:0:
50,148,38307,21,2,1:2:0:0:
151,155,38775,69,2,1:2:0:0:
142,80,39010,1,8,3:2:0:0:
144,150,39244,21,8,3:3:0:0:
135,75,39361,1,8,3:3:0:0:
212,34,39479,54,0,L|290:50,3,55,10|0|0|0,1:1|0:0|0:0|2:2,0:0:0:0:
403,0,39947,2,0,L|325:16,3,55,10|0|0|0,1:1|0:0|0:0|2:2,0:0:0:0:
326,147,40416,2,0,L|342:69,3,55,10|0|0|0,1:1|2:2|2:2|2:2,0:0:0:0:
212,34,40885,2,0,L|290:50,3,55,10|0|0|0,1:1|0:0|0:0|2:2,0:0:0:0:
424,85,41354,22,0,L|502:101,3,55,10|0|0|0,1:1|2:2|2:2|2:2,0:0:0:0:
292,147,41822,2,0,L|214:163,3,55,10|0|0|0,1:1|2:2|2:2|2:2,0:0:0:0:
427,159,42291,2,0,L|505:175,3,55,10|0|0|0,1:1|0:0|0:0|2:2,0:0:0:0:
271,228,42760,2,0,L|193:244,1,55,10|0,1:1|0:0,0:0:0:0:
252,221,42994,2,0,L|174:237,1,55,2|0,1:1|0:0,0:0:0:0:
459,236,43229,70,0,L|537:252,1,55,10|0,1:1|2:2,0:0:0:0:
343,289,43463,2,0,L|265:305,1,55,2|0,1:1|2:2,0:0:0:0:
436,313,43697,22,0,L|514:329,1,55,10|0,1:1|2:2,0:0:0:0:
320,366,43932,2,0,L|242:382,1,55,2|0,1:1|2:2,0:0:0:0:
127,224,44166,70,0,L|49:240,1,55,10|0,1:1|2:2,0:0:0:0:
243,277,44400,2,0,L|321:293,1,55,2|0,1:1|2:2,0:0:0:0:
150,301,44635,22,0,L|72:317,1,55,10|0,1:1|2:2,0:0:0:0:
266,354,44869,2,0,L|344:370,1,55,2|0,1:1|2:2,0:0:0:0:
73,235,45104,69,10,1:1:0:0:
89,154,45221,1,2,1:1:0:0:
152,206,45338,1,2,1:1:0:0:
170,125,45455,1,2,1:1:0:0:
330,116,45572,21,10,1:1:0:0:
314,35,45689,1,2,1:1:0:0:
251,87,45806,1,2,1:1:0:0:
233,6,45923,1,2,1:1:0:0:
315,208,46041,70,0,P|326:270|358:313,1,110.549994770737,10|0,1:1|0:0,0:0:0:0:
445,310,46510,86,0,P|333:278|285:387,1,247.500009441376,14|0,1:1|0:0,0:0:0:0:
201,287,46979,38,0,P|228:172|234:111,1,126.500002412796,6|0,1:2|0:0,0:0:0:0:
232,78,47213,1,2,3:2:0:0:
222,83,47447,22,0,P|233:154|298:148,1,126.500002412796,10|0,1:1|0:0,0:0:0:0:
345,121,47682,1,0,0:0:0:0:
512,251,47799,2,0,P|500:322|435:316,1,126.500002412796,10|0,1:1|1:2,0:0:0:0:
390,288,48033,1,2,3:2:0:0:
234,307,48150,2,0,P|245:378|310:372,1,126.500002412796,2|0,3:2|0:0,0:0:0:0:
394,140,48385,22,0,P|226:90|16:60,1,379.500007238388,10|0,3:1|0:0,0:0:0:0:
24,60,48854,37,2,1:2:0:0:
15,135,48971,1,2,3:2:0:0:
66,193,49088,1,2,3:2:0:0:
5,141,49205,1,2,3:2:0:0:
165,177,49322,2,0,P|236:166|230:101,1,126.500002412796,10|0,1:1|0:0,0:0:0:0:
77,187,49557,21,0,1:2:0:0:
12,256,49674,2,0,P|23:327|88:321,1,126.500002412796,14|0,1:1|1:2,0:0:0:0:
249,384,49908,1,2,3:2:0:0:
307,318,50025,2,0,P|296:247|231:253,1,126.500002412796,14|0,1:1|0:0,0:0:0:0:
135,378,50260,22,0,P|188:195|215:8,1,379.500007238388,14|0,1:1|0:0,0:0:0:0:
214,8,50729,38,0,P|221:78|238:142,1,126.500002412796,6|0,1:2|0:0,0:0:0:0:
281,204,50963,1,2,3:2:0:0:
289,211,51197,22,0,P|245:268|191:232,1,126.500002412796,10|0,1:1|0:0,0:0:0:0:
295,114,51432,1,0,3:2:0:0:
368,61,51549,2,0,P|425:104|389:158,1,126.500002412796,10|0,1:1|1:2,0:0:0:0:
213,140,51783,1,2,3:2:0:0:
160,66,51900,2,0,P|203:8|257:44,1,126.500002412796,2|0,3:2|0:0,0:0:0:0:
512,97,52135,22,0,P|344:147|134:177,1,379.500007238388,10|0,3:1|0:0,0:0:0:0:
305,233,52604,37,2,1:2:0:0:
380,224,52721,1,2,3:2:0:0:
438,275,52838,1,2,3:2:0:0:
375,230,52955,1,2,3:2:0:0:
512,117,53072,2,0,P|453:107|426:160,1,126.500002412796,10|0,1:1|0:0,0:0:0:0:
454,261,53307,21,0,1:2:0:0:
388,384,53424,2,0,P|330:340|366:286,1,126.500002412796,14|0,1:1|1:2,0:0:0:0:
146,198,53658,1,2,3:2:0:0:
155,192,53775,2,0,P|212:236|176:290,1,126.500002412796,14|0,1:1|0:0,0:0:0:0:
106,304,54010,21,14,1:1:0:0:
69,126,54127,1,10,3:3:0:0:
22,222,54244,2,0,P|61:209|175:198,1,126.500002412796,10|0,3:2|0:0,0:0:0:0:
420,78,54479,38,0,P|355:99|167:117,1,253.000004825592,6|0,1:2|0:0,0:0:0:0:
172,118,54947,2,0,P|114:74|150:20,1,126.500002412796,10|0,1:1|0:0,0:0:0:0:
206,0,55182,21,0,3:2:0:0:
292,183,55299,2,0,P|350:139|314:85,1,126.500002412796,10|0,1:1|1:2,0:0:0:0:
258,65,55533,1,2,3:2:0:0:
187,284,55650,2,0,P|129:240|165:186,1,126.500002412796,2|0,3:2|0:0,0:0:0:0:
455,156,55885,22,0,P|287:106|77:76,1,379.500007238388,10|0,3:1|0:0,0:0:0:0:
85,76,56354,37,2,1:2:0:0:
160,85,56471,1,2,3:2:0:0:
218,34,56588,1,2,3:2:0:0:
163,95,56705,1,2,3:2:0:0:
100,0,56822,2,0,P|42:-9|15:44,1,126.500002412796,10|0,1:1|0:0,0:0:0:0:
208,15,57057,21,0,1:2:0:0:
297,72,57174,2,0,P|306:130|253:157,1,126.500002412796,14|0,1:1|1:2,0:0:0:0:
185,318,57408,1,2,3:2:0:0:
106,280,57525,2,0,P|96:221|149:194,1,126.500002412796,14|0,1:1|0:0,0:0:0:0:
224,384,57760,22,0,P|170:201|144:14,1,379.500007238388,14|0,1:1|0:0,0:0:0:0:
143,13,58229,38,0,P|134:76|117:137,1,126.500002412796,6|0,1:2|0:0,0:0:0:0:
74,204,58463,1,0,0:0:0:0:
67,195,58697,22,0,P|111:138|165:174,1,126.500002412796,10|0,1:1|0:0,0:0:0:0:
196,231,58932,1,0,3:2:0:0:
191,380,59049,2,0,P|134:336|170:282,1,126.500002412796,10|0,1:1|1:2,0:0:0:0:
196,231,59283,1,2,3:2:0:0:
359,198,59400,2,0,P|315:255|261:219,1,126.500002412796,2|0,3:2|0:0,0:0:0:0:
115,96,59635,22,0,P|302:122|484:175,1,379.500007238388,10|0,3:1|3:2,0:0:0:0:
484,175,60104,37,2,1:2:0:0:
433,233,60221,1,2,3:2:0:0:
442,308,60338,1,2,3:2:0:0:
440,239,60455,1,2,3:2:0:0:
447,315,60572,2,0,P|403:372|349:336,1,126.500002412796,10|0,1:1|0:0,0:0:0:0:
356,350,60807,21,0,1:2:0:0:
322,202,60924,2,0,P|366:145|420:181,1,126.500002412796,14|0,1:1|1:2,0:0:0:0:
282,320,61158,1,2,3:2:0:0:
272,320,61275,2,0,P|215:276|251:222,1,126.500002412796,14|0,1:1|0:0,0:0:0:0:
189,160,61510,21,14,1:1:0:0:
322,202,61627,1,10,3:3:0:0:
191,76,61744,1,10,3:2:0:0:
0,258,61979,38,0,P|187:232|369:179,1,379.500007238388,6|0,1:2|0:0,0:0:0:0:
512,286,62447,2,0,P|449:277|388:260,1,126.500002412796,8|0,1:1|0:0,0:0:0:0:
257,134,62682,53,2,3:2:0:0:
318,57,62799,1,2,3:2:0:0:
411,92,62916,2,0,P|421:151|368:178,1,126.500002412796,2|0,1:2|0:0,0:0:0:0:
137,5,63150,2,0,P|196:-5|223:48,1,126.500002412796,0|0,1:2|0:0,0:0:0:0:
146,197,63385,37,10,1:1:0:0:
141,201,63443,1,0,3:2:0:0:
136,205,63502,1,2,3:2:0:0:
130,206,63561,1,0,3:2:0:0:
123,206,63619,2,0,P|113:147|166:120,1,126.500002412796,2|0,1:2|0:0,0:0:0:0:
502,186,63854,54,0,P|376:168|255:132,1,253.000004825592,6|0,1:2|0:0,0:0:0:0:
223,46,64205,1,0,0:0:0:0:
269,346,64322,38,0,P|246:284|216:227,1,126.500002412796,10|0,1:1|0:0,0:0:0:0:
352,334,64557,2,0,P|323:278|303:219,1,126.500002412796,2|8,3:2|1:1,0:0:0:0:
406,32,64791,54,0,P|376:88|356:148,1,126.500002412796,2|0,1:2|0:0,0:0:0:0:
322,22,65025,2,0,P|299:82|271:138,1,126.500002412796,10|0,1:1|0:0,0:0:0:0:
453,310,65260,37,10,1:1:0:0:
454,316,65318,1,0,3:2:0:0:
455,322,65377,1,2,3:2:0:0:
459,327,65436,1,0,3:2:0:0:
465,331,65494,2,0,P|509:290|484:236,1,126.500002412796,10|0,1:1|0:0,0:0:0:0:
277,15,65729,54,0,P|302:202|355:384,1,379.500007238388,6|2,1:2|1:2,0:0:0:0:
201,341,66197,2,0,P|177:286|221:246,1,126.500002412796,10|0,1:1|0:0,0:0:0:0:
28,180,66432,37,2,3:2:0:0:
94,247,66549,1,2,3:2:0:0:
94,347,66666,2,0,P|39:371|-1:327,1,126.500002412796,2|0,1:2|0:0,0:0:0:0:
186,88,66900,2,0,P|210:143|166:183,1,126.500002412796,2|0,1:2|0:0,0:0:0:0:
21,80,67135,53,10,1:1:0:0:
15,79,67193,1,0,3:2:0:0:
9,78,67252,1,2,3:2:0:0:
4,74,67311,1,0,3:2:0:0:
0,68,67369,2,0,P|41:24|95:49,1,126.500002412796,2|0,1:2|0:0,0:0:0:0:
246,131,67604,38,0,P|300:155|340:111,1,126.500002412796,14|0,1:2|0:0,0:0:0:0:
343,24,67838,1,0,0:0:0:0:
418,88,67955,2,0,P|411:28|354:15,1,126.500002412796,10|14,1:2|1:2,0:0:0:0:
333,102,68189,1,0,0:0:0:0:
217,48,68307,53,10,1:2:0:0:
158,109,68424,1,10,1:2:0:0:
179,195,68541,2,0,P|233:219|273:175,1,126.500002412796,6|0,1:2|0:0,0:0:0:0:
91,173,68775,2,0,P|67:227|111:267,1,126.500002412796,10|0,1:2|0:0,0:0:0:0:
336,371,69010,37,14,1:2:0:0:
283,306,69127,1,10,1:2:0:0:
200,321,69244,1,2,1:2:0:0:
286,298,69361,1,0,0:0:0:0:
383,229,69479,54,0,P|201:175|13:149,1,379.500007238388,6|0,1:2|0:0,0:0:0:0:
193,81,69947,38,0,P|270:70|345:48,1,126.500002412796,8|0,1:1|0:0,0:0:0:0:
494,114,70182,53,2,3:2:0:0:
481,211,70299,1,2,3:2:0:0:
383,229,70416,2,0,P|344:183|375:133,1,126.500002412796,2|0,1:2|0:0,0:0:0:0:
347,319,70650,2,0,P|301:357|251:326,1,126.500002412796,0|0,1:2|0:0,0:0:0:0:
210,169,70885,37,10,1:1:0:0:
215,165,70943,1,0,3:2:0:0:
220,161,71002,1,2,3:2:0:0:
226,160,71061,1,0,3:2:0:0:
233,160,71119,2,0,P|243:219|190:246,1,126.500002412796,2|0,1:2|0:0,0:0:0:0:
0,116,71354,54,0,P|126:98|247:62,1,253.000004825592,6|0,1:2|0:0,0:0:0:0:
314,0,71705,1,0,0:0:0:0:
367,113,71822,38,0,P|402:159|343:230,1,126.500002412796,10|0,1:1|0:0,0:0:0:0:
312,362,72057,2,0,P|277:316|336:245,1,126.500002412796,2|8,3:2|1:1,0:0:0:0:
122,41,72291,54,0,P|79:80|125:160,1,126.500002412796,2|0,1:2|0:0,0:0:0:0:
171,267,72525,2,0,P|213:227|167:147,1,126.500002412796,10|0,1:1|0:0,0:0:0:0:
9,281,72760,37,10,1:1:0:0:
5,286,72818,1,0,3:2:0:0:
1,291,72877,1,2,3:2:0:0:
0,297,72936,1,0,3:2:0:0:
0,304,72994,2,0,P|59:314|86:261,1,126.500002412796,10|0,1:1|0:0,0:0:0:0:
137,4,73229,54,0,P|162:191|215:373,1,379.500007238388,6|2,1:2|1:2,0:0:0:0:
344,175,73697,2,0,P|316:227|257:216,1,126.500002412796,10|0,1:1|0:0,0:0:0:0:
371,31,73932,37,2,3:2:0:0:
431,107,74049,1,2,3:2:0:0:
426,210,74166,2,0,P|454:262|512:251,1,126.500002412796,2|0,1:2|0:0,0:0:0:0:
371,31,74400,2,0,P|312:21|285:74,1,126.500002412796,2|0,1:2|0:0,0:0:0:0:
375,344,74635,53,10,1:1:0:0:
380,348,74693,1,0,0:0:0:0:
385,352,74752,1,2,3:2:0:0:
391,353,74811,1,0,3:2:0:0:
398,353,74869,2,0,P|408:294|355:267,1,126.500002412796,2|0,1:2|0:0,0:0:0:0:
41,277,75104,38,0,P|167:260|290:224,1,253.000004825592,14|0,1:2|3:2,0:0:0:0:
297,216,75455,1,0,1:2:0:0:
0,107,75572,2,0,P|-10:166|43:193,1,126.500002412796,14|0,1:2|0:0,0:0:0:0:
198,117,75807,1,0,1:2:0:0:
104,112,75924,1,0,1:2:0:0:
51,186,76041,53,14,1:2:0:0:
481,297,76393,37,14,1:2:0:0:
184,249,76744,53,14,1:2:0:0:
310,224,76979,1,14,1:2:0:0:
33,384,82604,21,8,3:2:0:0:
54,307,82838,1,0,3:2:0:0:
33,384,83307,21,0,3:2:0:0:
54,307,83541,1,10,3:2:0:0:
19,236,83775,69,2,3:2:0:0:
54,307,84010,2,0,L|88:301,6,22,10|0|0|0|2|0|0,3:2|0:0|0:0|0:0|2:2|0:0|0:0,0:0:0:0:
96,114,84479,54,0,P|106:156|122:197,1,88,6|0,1:2|0:0,0:0:0:0:
122,197,84830,1,0,3:2:0:0:
195,230,84947,1,8,1:2:0:0:
263,324,85182,21,2,1:2:0:0:
314,261,85299,1,2,2:2:0:0:
297,181,85416,1,2,3:2:0:0:
314,261,85650,69,0,1:2:0:0:
92,335,85885,22,0,L|122:327,1,22,10|2,1:2|3:2,0:0:0:0:
21,261,86002,2,0,L|51:268,1,22,2|2,3:2|3:2,0:0:0:0:
102,345,86119,2,0,L|153:332,1,44,2|0,3:2|0:0,0:0:0:0:
314,261,86354,70,0,P|272:251|231:235,1,88,6|0,1:2|0:0,0:0:0:0:
230,234,86705,1,0,3:2:0:0:
197,161,86822,21,10,1:2:0:0:
217,83,87057,1,2,1:2:0:0:
78,0,87291,1,2,3:2:0:0:
98,78,87525,1,2,3:3:0:0:
289,143,87760,70,0,L|296:113,1,22,10|2,1:2|3:2,0:0:0:0:
372,203,87877,2,0,L|364:173,1,22,2|2,3:2|3:2,0:0:0:0:
299,134,87994,2,0,L|312:83,1,44,10|0,3:2|0:0,0:0:0:0:
412,0,88229,22,0,P|422:42|438:83,1,88,6|0,1:2|0:0,0:0:0:0:
438,83,88580,1,0,3:2:0:0:
405,155,88697,1,8,1:2:0:0:
316,281,88932,69,2,1:2:0:0:
379,332,89049,1,2,2:2:0:0:
459,315,89166,1,2,3:2:0:0:
379,332,89400,21,0,1:2:0:0:
284,144,89635,70,0,L|290:169,1,22,10|2,1:2|3:2,0:0:0:0:
226,68,89752,2,0,L|221:89,1,22,2|2,3:2|3:2,0:0:0:0:
294,151,89869,2,0,L|307:202,1,44,2|0,3:2|0:0,0:0:0:0:
246,337,90104,21,6,1:2:0:0:
186,285,90338,69,2,2:2:0:0:
246,337,90455,1,8,2:2:0:0:
168,362,90572,2,0,L|120:349,1,44,2|0,1:2|1:2,0:0:0:0:
261,254,90807,21,10,2:2:0:0:
312,191,90924,1,10,2:2:0:0:
295,111,91041,1,6,1:2:0:0:
312,191,91275,69,2,1:2:0:0:
217,75,91510,21,10,3:2:0:0:
210,77,91568,1,2,3:2:0:0:
203,75,91627,1,2,3:2:0:0:
196,73,91686,1,0,0:0:0:0:
190,68,91744,2,0,L|177:17,1,44,10|0,3:2|1:2,0:0:0:0:
85,0,91979,70,0,P|68:142|36:282,1,263.99999194336,6|8,1:2|1:2,0:0:0:0:
161,384,92682,21,2,1:2:0:0:
110,321,92799,1,2,2:2:0:0:
127,241,92916,1,2,3:2:0:0:
110,321,93150,69,0,1:2:0:0:
288,304,93385,22,0,L|262:297,1,22,10|2,1:2|3:2,0:0:0:0:
365,373,93502,2,0,L|343:378,1,22,2|0,3:2|0:0,0:0:0:0:
277,311,93619,2,0,L|226:298,1,44,2|0,3:2|0:0,0:0:0:0:
127,241,93854,70,0,P|169:231|210:215,1,88,6|0,1:2|0:0,0:0:0:0:
210,214,94205,1,0,0:0:0:0:
243,141,94322,21,10,1:2:0:0:
322,114,94557,1,2,1:2:0:0:
465,48,94791,1,2,3:2:0:0:
386,21,95025,1,2,3:3:0:0:
298,231,95260,70,0,L|323:237,1,22,10|2,1:2|3:2,0:0:0:0:
423,161,95377,2,0,L|397:167,1,22,2|2,3:2|3:2,0:0:0:0:
308,226,95494,2,0,L|359:239,1,44,10|0,3:2|0:0,0:0:0:0:
512,319,95729,22,0,P|469:329|428:345,1,88,6|0,1:2|0:0,0:0:0:0:
428,345,96080,1,0,0:0:0:0:
355,312,96197,1,8,1:2:0:0:
214,207,96432,69,2,1:2:0:0:
163,270,96549,1,2,2:2:0:0:
180,350,96666,1,2,3:2:0:0:
163,270,96900,21,0,1:2:0:0:
217,86,97135,70,0,L|188:78,1,22,10|2,1:2|3:2,0:0:0:0:
292,19,97252,2,0,L|263:26,1,22,2|2,3:2|3:2,0:0:0:0:
207,93,97369,2,0,L|156:80,1,44,2|0,3:2|0:0,0:0:0:0:
31,140,97604,21,6,1:2:0:0:
56,65,97838,69,2,2:2:0:0:
31,140,97955,1,8,2:2:0:0:
110,124,98072,1,2,1:2:0:0:
280,81,98307,21,10,2:2:0:0:
217,30,98424,1,10,2:2:0:0:
137,47,98541,1,6,1:2:0:0:
217,30,98775,69,2,1:2:0:0:
110,124,99010,21,10,3:2:0:0:
108,131,99068,1,0,0:0:0:0:
110,138,99127,1,2,3:2:0:0:
112,145,99186,1,0,0:0:0:0:
117,151,99244,2,0,L|168:164,1,44,10|0,3:2|1:2,0:0:0:0:
215,232,99479,21,6,1:2:0:0:
194,301,99830,1,0,0:0:0:0:
223,225,99947,1,2,1:2:0:0:
243,368,100182,69,10,3:3:0:0:
167,384,100299,1,2,2:2:0:0:
118,327,100416,1,10,1:2:0:0:
167,384,100650,21,0,0:0:0:0:
21,250,100885,70,0,L|28:287,2,22,10|0|8,3:3|3:2|3:3,0:0:0:0:
38,346,101119,1,10,3:3:0:0:
6,172,101354,21,6,1:2:0:0:
69,56,101588,1,0,0:0:0:0:
58,125,101705,1,8,3:3:0:0:
6,172,101822,1,2,1:2:0:0:
58,125,102057,69,10,3:3:0:0:
209,103,102291,1,10,1:2:0:0:
157,56,102525,1,2,1:2:0:0:
145,185,102760,22,0,L|136:215,2,22,10|2|10,3:3|3:2|3:3,0:0:0:0:
118,278,102994,1,10,3:3:0:0:
227,29,103229,69,6,1:2:0:0:
248,97,103580,1,8,3:3:0:0:
231,20,103697,1,0,1:2:0:0:
199,165,103932,21,10,3:3:0:0:
275,181,104049,1,2,2:2:0:0:
324,124,104166,1,10,1:2:0:0:
275,181,104400,69,2,1:2:0:0:
440,28,104635,22,0,L|428:-5,2,22,10|0|10,3:3|3:2|3:3,0:0:0:0:
463,102,104869,1,10,3:3:0:0:
512,280,105104,69,6,1:2:0:0:
496,354,105338,21,2,2:2:0:0:
512,280,105455,1,8,3:3:0:0:
484,208,105572,1,2,1:2:0:0:
307,309,105807,69,10,3:3:0:0:
382,289,105924,1,2,2:2:0:0:
302,320,106041,1,10,1:2:0:0:
159,281,106275,21,2,1:2:0:0:
233,259,106393,1,0,1:2:0:0:
283,176,106510,2,0,L|275:204,2,22,10|2|10,3:3|3:2|3:3,0:0:0:0:
246,269,106744,1,10,3:3:0:0:
223,26,106979,85,6,1:2:0:0:
256,192,107213,12,2,112369,3:2:0:0:
256,192,112604,21,14,1:2:0:0:
171,104,113541,86,0,L|179:153,1,49.4999984893799,6|0,1:2|0:0,0:0:0:0:
185,176,114010,54,0,P|207:84|306:105,1,197.99999395752,10|0,0:0|0:0,0:0:0:0:
445,134,114479,70,0,P|263:187|75:213,1,379.500007238388,6|0,1:2|0:0,0:0:0:0:
327,312,114947,2,0,P|266:294|203:285,1,126.500002412796,8|0,1:1|0:0,0:0:0:0:
26,306,115182,69,2,3:2:0:0:
75,212,115299,1,2,3:2:0:0:
185,380,115416,2,0,P|228:339|204:285,1,126.500002412796,2|0,1:2|0:0,0:0:0:0:
55,117,115650,2,0,P|30:171|74:211,1,126.500002412796,0|0,1:2|0:0,0:0:0:0:
197,190,115885,54,0,L|119:168,1,63.250001206398,10|0,1:1|3:2,0:0:0:0:
184,111,116002,2,0,L|124:93,1,63.250001206398,2|0,3:2|3:2,0:0:0:0:
295,45,116119,2,0,P|309:102|259:135,1,126.500002412796,2|0,1:2|0:0,0:0:0:0:
3,51,116354,70,0,P|185:104|373:130,1,379.500007238388,6|0,1:2|0:0,0:0:0:0:
478,20,116822,70,0,P|502:74|458:114,1,126.500002412796,10|0,1:1|0:0,0:0:0:0:
278,153,117057,2,0,P|312:104|369:122,1,126.500002412796,2|8,3:2|1:1,0:0:0:0:
490,262,117291,2,0,P|430:255|417:198,1,126.500002412796,2|0,1:2|0:0,0:0:0:0:
158,356,117525,54,0,L|98:338,1,63.250001206398,10|0,1:1|3:2,0:0:0:0:
217,297,117643,2,0,L|157:279,1,63.250001206398,2|0,3:2|3:2,0:0:0:0:
315,312,117760,2,0,P|302:369|243:375,1,126.500002412796,10|0,1:1|0:0,0:0:0:0:
120,183,117994,1,10,1:1:0:0:
214,134,118111,1,0,0:0:0:0:
490,262,118229,70,0,P|308:209|120:183,1,379.500007238388,6|2,1:2|1:2,0:0:0:0:
0,309,118697,2,0,P|63:290|128:281,1,126.500002412796,10|0,1:1|0:0,0:0:0:0:
169,89,118932,69,2,3:2:0:0:
120,183,119049,1,2,3:2:0:0:
141,377,119166,2,0,P|165:322|122:281,1,126.500002412796,2|0,1:2|0:0,0:0:0:0:
12,32,119400,2,0,P|-12:86|30:127,1,126.500002412796,2|0,1:2|0:0,0:0:0:0:
281,236,119635,54,0,L|303:314,1,63.250001206398,10|0,1:1|0:0,0:0:0:0:
361,248,119752,2,0,L|379:309,1,63.250001206398,2|0,3:2|3:2,0:0:0:0:
342,130,119869,2,0,P|287:106|247:150,1,126.500002412796,2|0,1:2|0:0,0:0:0:0:
373,384,120104,70,0,P|426:202|452:14,1,379.500007238388,14|10,1:2|1:2,0:0:0:0:
497,234,120572,70,0,P|479:172|470:109,1,126.500002412796,14|0,1:2|0:0,0:0:0:0:
303,249,120807,2,0,P|318:187|342:127,1,126.500002412796,10|10,1:2|1:2,0:0:0:0:
127,164,121041,2,0,P|171:117|221:78,1,126.500002412796,6|0,1:2|0:0,0:0:0:0:
380,267,121275,53,10,1:2:0:0:
384,272,121334,1,2,3:2:0:0:
388,277,121393,1,10,1:2:0:0:
389,283,121451,1,2,3:2:0:0:
389,290,121510,2,0,P|330:300|303:247,1,126.500002412796,6|10,1:2|1:2,0:0:0:0:
488,354,121744,1,2,1:2:0:0:
512,34,121979,70,0,P|330:87|142:113,1,379.500007238388,6|0,1:2|0:0,0:0:0:0:
388,214,122447,2,0,P|318:194|245:184,1,126.500002412796,8|0,1:1|0:0,0:0:0:0:
93,206,122682,69,2,3:2:0:0:
142,112,122799,1,2,3:2:0:0:
246,280,122916,2,0,P|289:239|265:185,1,126.500002412796,2|0,1:2|0:0,0:0:0:0:
61,22,123150,2,0,P|18:63|42:117,1,126.500002412796,0|0,1:2|0:0,0:0:0:0:
274,105,123385,54,0,L|334:87,1,63.250001206398,10|0,1:1|3:2,0:0:0:0:
335,68,123502,2,0,L|275:86,1,63.250001206398,2|0,3:2|3:2,0:0:0:0:
142,112,123619,2,0,P|155:169|214:175,1,126.500002412796,2|0,1:2|0:0,0:0:0:0:
0,284,123854,70,0,P|182:231|370:205,1,379.500007238388,6|0,1:2|0:0,0:0:0:0:
302,378,124322,70,0,P|278:324|322:284,1,126.500002412796,10|0,1:1|0:0,0:0:0:0:
512,255,124557,2,0,P|477:302|420:284,1,126.500002412796,2|8,3:2|1:1,0:0:0:0:
298,140,124791,2,0,P|356:146|369:204,1,126.500002412796,2|0,1:2|0:0,0:0:0:0:
154,99,125025,54,0,L|214:117,1,63.250001206398,10|0,1:1|3:2,0:0:0:0:
230,107,125143,2,0,L|170:89,1,63.250001206398,2|0,3:2|3:2,0:0:0:0:
56,84,125260,2,0,P|69:27|128:21,1,126.500002412796,10|0,1:1|0:0,0:0:0:0:
116,211,125494,1,10,1:1:0:0:
224,193,125611,1,0,0:0:0:0:
254,369,125729,70,0,P|279:181|332:0,1,379.500007238388,6|2,1:2|1:2,0:0:0:0:
385,172,126197,2,0,P|330:152|331:92,1,126.500002412796,10|0,1:1|0:0,0:0:0:0:
475,111,126432,69,2,3:2:0:0:
385,172,126549,1,2,3:2:0:0:
254,53,126666,2,0,P|273:-1|333:0,1,126.500002412796,2|0,1:2|0:0,0:0:0:0:
490,223,126900,2,0,P|470:277|410:276,1,126.500002412796,2|0,1:2|0:0,0:0:0:0:
272,113,127135,54,0,L|254:53,1,63.250001206398,10|0,1:1|3:2,0:0:0:0:
242,69,127252,2,0,L|260:129,1,63.250001206398,2|0,3:2|3:2,0:0:0:0:
243,278,127369,2,0,P|300:265|306:206,1,126.500002412796,2|0,1:2|0:0,0:0:0:0:
39,165,127604,70,0,P|226:139|408:86,1,379.500007238388,14|10,1:2|1:2,0:0:0:0:
385,258,128072,70,0,P|325:260|305:204,1,126.500002412796,14|0,1:2|0:0,0:0:0:0:
247,7,128307,2,0,P|187:4|167:60,1,126.500002412796,10|10,1:2|1:2,0:0:0:0:
209,375,128541,54,0,P|262:192|276:90,1,253.000004825592,6|10,1:2|1:2,0:0:0:0:
111,137,128893,69,0,0:0:0:0:
102,153,128951,1,0,0:0:0:0:
103,169,129010,2,0,P|161:176|187:123,1,126.500002412796,14|0,1:2|0:0,0:0:0:0:
405,292,129244,2,0,P|348:272|349:213,1,126.500002412796,2|0,1:2|0:0,0:0:0:0:
473,91,129479,70,0,P|291:144|103:170,1,379.500007238388,6|0,1:2|0:0,0:0:0:0:
405,292,129947,2,0,P|345:276|282:267,1,126.500002412796,8|0,1:1|0:0,0:0:0:0:
149,55,130182,53,2,3:2:0:0:
226,116,130299,1,2,3:2:0:0:
190,210,130416,2,0,P|131:221|103:169,1,126.500002412796,2|0,1:2|0:0,0:0:0:0:
358,0,130650,2,0,P|368:59|316:87,1,126.500002412796,0|0,1:2|0:0,0:0:0:0:
72,35,130885,37,10,1:1:0:0:
68,30,130943,1,0,3:2:0:0:
64,25,131002,1,2,3:2:0:0:
63,19,131061,1,0,3:2:0:0:
63,12,131119,2,0,P|121:2|149:54,1,126.500002412796,2|0,1:2|0:0,0:0:0:0:
0,119,131354,54,0,P|125:136|246:172,1,253.000004825592,6|0,1:2|0:0,0:0:0:0:
262,297,131705,1,0,0:0:0:0:
265,80,131822,38,0,P|327:60|408:49,1,126.500002412796,10|0,1:1|0:0,0:0:0:0:
195,29,132057,2,0,P|133:19|73:0,1,126.500002412796,2|8,3:2|1:1,0:0:0:0:
397,22,132291,54,0,P|335:32|275:52,1,126.500002412796,2|0,1:2|0:0,0:0:0:0:
51,27,132525,2,0,P|113:47|194:58,1,126.500002412796,10|0,1:1|0:0,0:0:0:0:
406,127,132760,37,10,1:1:0:0:
411,131,132818,1,0,3:2:0:0:
416,135,132877,1,2,3:2:0:0:
422,136,132936,1,0,3:2:0:0:
429,136,132994,2,0,P|439:77|387:49,1,126.500002412796,10|0,1:1|0:0,0:0:0:0:
0,119,133229,54,0,P|181:172|369:198,1,379.500007238388,6|2,1:2|1:2,0:0:0:0:
118,303,133697,2,0,P|184:283|253:273,1,126.500002412796,10|0,1:1|0:0,0:0:0:0:
414,85,133932,37,2,3:2:0:0:
491,146,134049,1,2,3:2:0:0:
456,239,134166,2,0,P|397:249|369:197,1,126.500002412796,2|0,1:2|0:0,0:0:0:0:
245,365,134400,2,0,P|303:375|331:323,1,126.500002412796,2|0,1:2|0:0,0:0:0:0:
292,99,134635,53,10,1:1:0:0:
287,95,134693,1,0,3:2:0:0:
282,91,134752,1,2,3:2:0:0:
276,90,134811,1,0,3:2:0:0:
269,90,134869,2,0,P|258:148|310:176,1,126.500002412796,2|0,1:2|0:0,0:0:0:0:
136,25,135104,38,0,P|160:79|116:119,1,126.500002412796,14|0,1:2|0:0,0:0:0:0:
191,181,135338,1,0,0:0:0:0:
76,293,135455,2,0,P|110:244|167:262,1,126.500002412796,10|14,1:2|1:2,0:0:0:0:
271,160,135689,1,0,0:0:0:0:
310,307,135807,53,10,1:2:0:0:
251,246,135924,1,10,1:2:0:0:
271,160,136041,2,0,P|325:136|365:180,1,126.500002412796,6|0,1:2|0:0,0:0:0:0:
154,376,136275,2,0,P|130:322|174:282,1,126.500002412796,10|0,1:2|0:0,0:0:0:0:
446,257,136510,37,14,1:2:0:0:
393,322,136627,1,10,1:2:0:0:
310,307,136744,1,2,1:2:0:0:
401,330,136861,1,2,3:2:0:0:
512,202,136979,54,0,P|324:175|142:122,1,379.500007238388,6|0,1:2|0:0,0:0:0:0:
12,251,137447,2,0,P|85:240|156:219,1,126.500002412796,8|0,1:1|0:0,0:0:0:0:
255,76,137682,37,2,3:2:0:0:
194,0,137799,1,2,3:2:0:0:
100,35,137916,2,0,P|89:93|141:121,1,126.500002412796,2|0,1:2|0:0,0:0:0:0:
341,34,138150,2,0,P|282:23|254:75,1,126.500002412796,0|0,1:2|0:0,0:0:0:0:
351,207,138385,53,10,1:1:0:0:
356,211,138443,1,0,3:2:0:0:
361,215,138502,1,2,3:2:0:0:
367,216,138561,1,0,3:2:0:0:
374,216,138619,2,0,P|384:157|332:129,1,126.500002412796,2|0,1:2|0:0,0:0:0:0:
194,0,138854,38,0,P|211:128|248:252,1,253.000004825592,6|0,1:2|0:0,0:0:0:0:
320,326,139205,1,0,0:0:0:0:
164,384,139322,54,0,P|152:318|132:257,1,126.500002412796,10|0,1:1|0:0,0:0:0:0:
246,260,139557,2,0,P|256:197|275:137,1,126.500002412796,2|0,0:0|0:0,0:0:0:0:
124,332,139791,38,0,P|96:274|62:220,1,126.500002412796,2|0,1:2|0:0,0:0:0:0:
286,210,140025,2,0,P|311:151|345:98,1,126.500002412796,2|0,0:0|0:0,0:0:0:0:
52,140,140260,53,10,1:1:0:0:
47,144,140318,1,0,3:2:0:0:
42,148,140377,1,2,3:2:0:0:
36,149,140436,1,0,3:2:0:0:
29,149,140494,2,0,P|18:90|70:62,1,126.500002412796,10|0,1:1|0:0,0:0:0:0:
429,182,140729,38,0,P|247:235|59:261,1,379.500007238388,6|2,1:2|1:2,0:0:0:0:
214,321,141197,2,0,P|276:331|336:350,1,126.500002412796,10|0,1:1|0:0,0:0:0:0:
429,182,141432,53,2,3:2:0:0:
368,105,141549,1,2,3:2:0:0:
274,141,141666,2,0,P|263:199|315:227,1,126.500002412796,2|0,1:2|0:0,0:0:0:0:
467,88,141900,2,0,P|477:29|425:1,1,126.500002412796,2|0,1:2|0:0,0:0:0:0:
204,63,142135,37,10,1:1:0:0:
200,68,142193,1,0,0:0:0:0:
196,73,142252,1,2,3:2:0:0:
195,79,142311,1,0,3:2:0:0:
195,86,142369,2,0,P|253:96|281:44,1,126.500002412796,2|0,1:2|0:0,0:0:0:0:
42,59,142604,70,0,L|63:157,1,63.250001206398,14|0,1:2|0:0,0:0:0:0:
42,59,143072,70,0,P|99:64|114:-11,1,126.500002412796,14|0,1:2|0:0,0:0:0:0:
195,86,143307,21,2,1:2:0:0:
274,123,143424,1,2,1:2:0:0:
349,77,143541,1,2,1:2:0:0:
276,137,143775,69,2,1:2:0:0:
262,225,143893,1,10,1:2:0:0:
320,291,144010,1,10,1:1:0:0:
254,231,144244,21,2,1:2:0:0:
104,323,144479,69,14,1:2:0:0:
256,192,144713,12,0,148229,0:0:0:0:
