osu file format v14

[General]
AudioFilename: audio.mp3
AudioLeadIn: 0
PreviewTime: 46815
Countdown: 0
SampleSet: Normal
StackLeniency: 0.7
Mode: 1
LetterboxInBreaks: 0
WidescreenStoryboard: 1

[Editor]
Bookmarks: 16933,19745,20683,46933,54433,61933
DistanceSpacing: 3.1
BeatDivisor: 4
GridSize: 4
TimelineZoom: 1.5

[Metadata]
Title:Tokyo Takedown
TitleUnicode:Tokyo Takedown
Artist:Boom Kitty & HeliXiX
ArtistUnicode:Boom Kitty & HeliXiX
Creator:realy0_
Version:Futsuu
Source:
Tags:Electro House Deathwing1306
BeatmapID:1676310
BeatmapSetID:798245

[Difficulty]
HPDrainRate:6
CircleSize:4
OverallDifficulty:4
ApproachRate:9
SliderMultiplier:1.4
SliderTickRate:1

[Events]
//Background and Video events
0,0,"16ynG2S.jpg",0,0
//Break Periods
//Storyboard Layer 0 (Background)
//Storyboard Layer 1 (Fail)
//Storyboard Layer 2 (Pass)
//Storyboard Layer 3 (Foreground)
//Storyboard Sound Samples

[TimingPoints]
1933,468.75,4,1,0,80,1,0
16933,-86.9565217391304,4,1,0,80,0,0
39433,-86.9565217391304,4,1,0,80,0,0
43183,-86.9565217391304,4,1,0,80,0,0
45058,-86.9565217391304,4,1,0,80,0,0
45995,-86.9565217391304,4,1,0,80,0,0
46933,-86.9565217391304,4,1,0,80,0,0
60058,-86.9565217391304,4,1,0,80,0,0
61933,-86.9565217391304,4,1,0,80,0,1
69433,-86.9565217391304,4,1,0,80,0,1
76933,-86.9565217391304,4,1,0,80,0,0

[Colours]
Combo1 : 128,128,128
Combo2 : 112,62,113
Combo3 : 162,53,53

[HitObjects]
240,175,16933,5,4,0:0:0:0:
240,175,17401,1,0,0:0:0:0:
240,175,17636,1,0,0:0:0:0:
240,175,17870,1,8,0:0:0:0:
240,175,18339,1,8,0:0:0:0:
240,175,18573,1,8,0:0:0:0:
240,175,18808,1,0,0:0:0:0:
240,175,19276,1,0,0:0:0:0:
240,175,19745,1,8,0:0:0:0:
240,175,20214,1,8,0:0:0:0:
240,175,20448,1,0,0:0:0:0:
240,175,20683,1,4,0:0:0:0:
240,175,21151,1,0,0:0:0:0:
240,175,21620,1,8,0:0:0:0:
240,175,22089,1,8,0:0:0:0:
240,175,22323,1,8,0:0:0:0:
240,175,22558,1,0,0:0:0:0:
198,194,23026,1,0,0:0:0:0:
202,188,23495,1,8,0:0:0:0:
202,188,23729,1,0,0:0:0:0:
202,188,23964,1,8,0:0:0:0:
202,188,24198,1,0,0:0:0:0:
202,188,24433,1,4,0:0:0:0:
198,194,25370,1,8,0:0:0:0:
198,194,25839,1,8,0:0:0:0:
198,194,26073,1,8,0:0:0:0:
198,194,26308,1,0,0:0:0:0:
17,8,26776,1,0,0:0:0:0:
236,93,27245,1,8,0:0:0:0:
236,93,27714,1,8,0:0:0:0:
236,93,27948,1,0,0:0:0:0:
236,93,28183,1,4,0:0:0:0:
236,93,28651,1,0,0:0:0:0:
236,93,29120,1,8,0:0:0:0:
236,93,29589,1,8,0:0:0:0:
236,93,29823,1,8,0:0:0:0:
236,93,30058,1,0,0:0:0:0:
236,93,30526,1,0,0:0:0:0:
236,93,30995,1,8,0:0:0:0:
236,93,31464,1,8,0:0:0:0:
236,93,31933,1,4,0:0:0:0:
22,153,32870,1,8,0:0:0:0:
111,116,33339,1,0,0:0:0:0:
111,116,33808,1,0,0:0:0:0:
236,93,34276,1,0,0:0:0:0:
236,93,34511,1,0,0:0:0:0:
236,93,34745,1,8,0:0:0:0:
111,116,35683,1,12,0:0:0:0:
292,112,36151,1,0,0:0:0:0:
183,139,36620,1,8,0:0:0:0:
309,59,37089,1,8,0:0:0:0:
309,59,37323,1,8,0:0:0:0:
309,59,37558,1,0,0:0:0:0:
300,118,38026,1,8,0:0:0:0:
300,118,38261,1,0,0:0:0:0:
300,118,38729,1,0,0:0:0:0:
300,118,38964,1,8,0:0:0:0:
262,161,39198,1,8,0:0:0:0:
262,161,39433,1,4,0:0:0:0:
262,161,40370,1,0,0:0:0:0:
262,161,40839,1,8,0:0:0:0:
262,161,41308,1,0,0:0:0:0:
262,161,42245,1,0,0:0:0:0:
262,161,42714,1,8,0:0:0:0:
248,30,43183,1,8,0:0:0:0:
262,161,43651,1,8,0:0:0:0:
248,30,44120,1,8,0:0:0:0:
262,161,44589,1,8,0:0:0:0:
262,161,45058,1,0,0:0:0:0:
262,161,45526,1,8,0:0:0:0:
262,161,45761,1,8,0:0:0:0:
262,161,45995,1,4,0:0:0:0:
248,30,46464,1,12,0:0:0:0:
248,30,46933,1,4,0:0:0:0:
248,30,47870,1,0,0:0:0:0:
248,30,48104,1,8,0:0:0:0:
178,169,48339,1,0,0:0:0:0:
248,30,48808,1,0,0:0:0:0:
248,30,49276,1,0,0:0:0:0:
304,132,49745,1,0,0:0:0:0:
304,132,49979,1,8,0:0:0:0:
304,132,50214,1,8,0:0:0:0:
304,132,50683,1,4,0:0:0:0:
304,132,51151,1,8,0:0:0:0:
304,132,51620,1,0,0:0:0:0:
304,132,51854,1,8,0:0:0:0:
178,169,52089,1,0,0:0:0:0:
304,132,52558,1,8,0:0:0:0:
304,132,53026,1,8,0:0:0:0:
304,132,53495,1,8,0:0:0:0:
304,132,53729,1,8,0:0:0:0:
304,132,53964,1,0,0:0:0:0:
304,132,54198,1,8,0:0:0:0:
304,132,54433,1,4,0:0:0:0:
304,132,54901,1,12,0:0:0:0:
178,169,55839,1,0,0:0:0:0:
304,132,56308,1,0,0:0:0:0:
270,176,56776,1,0,0:0:0:0:
304,132,57245,1,0,0:0:0:0:
304,132,57480,1,8,0:0:0:0:
304,132,57714,1,8,0:0:0:0:
304,132,58183,1,4,0:0:0:0:
304,132,58651,1,8,0:0:0:0:
272,152,59120,1,0,0:0:0:0:
272,152,59354,1,8,0:0:0:0:
304,132,59589,1,0,0:0:0:0:
304,132,60058,1,0,0:0:0:0:
304,132,60292,1,0,0:0:0:0:
304,132,60526,1,8,0:0:0:0:
304,132,60761,1,0,0:0:0:0:
304,132,60995,1,0,0:0:0:0:
304,132,61464,1,8,0:0:0:0:
304,132,61698,1,8,0:0:0:0:
304,132,61933,1,4,0:0:0:0:
304,132,62870,1,8,0:0:0:0:
304,132,63339,1,8,0:0:0:0:
304,132,63573,1,8,0:0:0:0:
304,132,63808,1,0,0:0:0:0:
304,132,64276,1,0,0:0:0:0:
304,132,64745,1,8,0:0:0:0:
304,132,65214,1,8,0:0:0:0:
304,132,65448,1,0,0:0:0:0:
304,132,65683,1,0,0:0:0:0:
304,132,66151,1,0,0:0:0:0:
304,132,66620,1,8,0:0:0:0:
304,132,66854,1,0,0:0:0:0:
304,132,67089,1,8,0:0:0:0:
304,132,67558,1,8,0:0:0:0:
304,132,68026,1,8,0:0:0:0:
304,132,68495,1,0,0:0:0:0:
304,132,68729,1,0,0:0:0:0:
304,132,68964,1,8,0:0:0:0:
304,132,69198,1,8,0:0:0:0:
304,132,69433,1,0,0:0:0:0:
304,132,70370,1,8,0:0:0:0:
304,132,70839,1,8,0:0:0:0:
304,132,71073,1,8,0:0:0:0:
304,132,71308,1,0,0:0:0:0:
304,132,71776,1,0,0:0:0:0:
304,132,72245,1,8,0:0:0:0:
304,132,72479,1,0,0:0:0:0:
304,132,72714,1,8,0:0:0:0:
304,132,72948,1,0,0:0:0:0:
304,132,73183,1,0,0:0:0:0:
304,132,73651,1,0,0:0:0:0:
304,132,74120,1,8,0:0:0:0:
304,132,74354,1,0,0:0:0:0:
304,132,74589,1,8,0:0:0:0:
304,132,74823,1,8,0:0:0:0:
359,61,75058,1,4,0:0:0:0:
304,132,75526,1,8,0:0:0:0:
355,64,75995,1,12,0:0:0:0:
355,64,76347,1,12,0:0:0:0:
356,83,76698,1,8,0:0:0:0:
304,132,76933,1,4,0:0:0:0:
