osu file format v14

[General]
AudioFilename: audio.mp3
AudioLeadIn: 0
PreviewTime: -1
Countdown: 0
SampleSet: Soft
StackLeniency: 0.5
Mode: 0
LetterboxInBreaks: 0
WidescreenStoryboard: 0

[Editor]
Bookmarks: 12735,24248,37200,48713,60226,71739,83252,94765,107716,119229,130742,142255,155207,166720,178233
DistanceSpacing: 1.5
BeatDivisor: 4
GridSize: 32
TimelineZoom: 2

[Metadata]
Title:How Do You Do (C. Baumann Nightcore Remix)
TitleUnicode:How Do You Do (C. Baumann Nightcore Remix)
Artist:Boom
ArtistUnicode:Boom
Creator:Yonoshix
Version:I like you
Source:
Tags:Boom How Do You Do C. C . Baumann Nightcore Remix speed up ver version Hands up Handsup techno cute
BeatmapID:1873796
BeatmapSetID:896864

[Difficulty]
HPDrainRate:6
CircleSize:4
OverallDifficulty:8.9
ApproachRate:9.4
SliderMultiplier:1.6
SliderTickRate:1

[Events]
//Background and Video events
0,0,"Katzenmaedchensindsosuessichwilleinshabenbittegebtmireinsdankeschoenaberbittesoeinswieinnekoparadiewarentoll.png",0,0
//Break Periods
2,132171,141166
//Storyboard Layer 0 (Background)
//Storyboard Layer 1 (Fail)
//Storyboard Layer 2 (Pass)
//Storyboard Layer 3 (Foreground)
//Storyboard Sound Samples

[TimingPoints]
134,359.776938298255,4,2,2,30,1,0
134,-133.333333333333,4,2,2,30,0,0
1213,359.776938298255,4,2,2,50,1,0
12725,-142.857142857143,4,2,2,40,0,0
24238,-125,4,2,2,55,0,0
36830,-66.6666666666667,4,2,2,100,0,0
37190,-83.3333333333333,4,2,2,80,0,0
48703,-76.9230769230769,4,2,2,90,0,0
60216,-66.6666666666667,4,2,2,95,0,1
71729,-64.5161290322581,4,2,2,100,0,1
81803,-66.6666666666667,4,2,2,45,0,0
83242,-76.9230769230769,4,2,2,50,0,0
94755,-76.9230769230769,4,2,2,66,0,0
107347,-41.6666666666667,4,2,2,100,0,0
107706,-66.6666666666667,4,2,2,75,0,0
119219,-66.6666666666667,4,2,2,85,0,0
129653,-62.5,4,2,2,100,0,0
130013,-58.8235294117647,4,2,2,100,0,0
130372,-55.5555555555556,4,2,2,100,0,0
142245,-200,4,2,2,5,0,0
142605,-166.666666666667,4,2,2,10,0,0
142965,-142.857142857143,4,2,2,15,0,0
143324,-125,4,2,2,20,0,0
143684,-111.111111111111,4,2,2,25,0,0
144044,-99.9999999999999,4,2,2,30,0,0
144404,-90.9090909090909,4,2,2,35,0,0
144763,-83.3333333333333,4,2,2,40,0,0
145123,-100,4,2,2,45,0,0
145483,-100,4,2,2,50,0,0
145843,-100,4,2,2,55,0,0
146203,-100,4,2,2,60,0,0
146562,-100,4,2,2,65,0,0
146922,-100,4,2,2,70,0,0
147282,-100,4,2,2,75,0,0
147642,-100,4,2,2,80,0,0
148001,-100,4,2,2,85,0,0
148361,-100,4,2,2,90,0,0
148721,-100,4,2,2,95,0,0
152319,-1000,4,2,2,50,0,0
155197,-66.6666666666667,4,2,2,100,0,1
166710,-62.5,4,2,2,100,0,1
176784,-66.6666666666667,4,2,2,100,0,0
177143,-66.6666666666667,4,2,2,75,0,0
177503,-66.6666666666667,4,2,2,50,0,0
177863,-66.6666666666667,4,2,2,25,0,0
178223,-66.6666666666667,4,2,2,5,0,0

[Colours]
Combo1 : 201,48,186
Combo2 : 40,176,200
Combo3 : 30,230,19

[HitObjects]
203,232,134,6,0,P|196:189|206:151,1,60.0000022888184,8|0,0:0|0:0,0:0:0:0:
157,106,493,2,0,P|134:126|118:151,1,60.0000022888184,8|0,0:0|0:0,0:0:0:0:
49,193,853,2,8,P|42:150|52:112,1,60.0000022888184,8|0,0:0|0:0,0:0:0:0:
103,335,1213,2,8,P|180:331|209:316,1,80,10|0,0:0|0:0,0:0:0:0:
289,281,1572,5,8,0:0:0:0:
396,384,1752,1,0,0:0:0:0:
441,238,1932,1,8,0:0:0:0:
289,281,2112,5,0,0:0:0:0:
397,152,2292,1,8,0:0:0:0:
441,324,2472,1,0,0:0:0:0:
324,225,2652,2,0,P|276:193|239:187,1,80,8|0,0:0|0:0,0:0:0:0:
128,224,3011,5,8,0:0:0:0:
192,96,3191,1,0,0:0:0:0:
36,179,3371,5,8,0:0:0:0:
192,128,3551,1,0,0:0:0:0:
39,109,3731,5,8,0:0:0:0:
192,160,3911,1,0,0:0:0:0:
74,256,4091,2,0,L|-4:314,1,80,8|0,0:0|0:0,0:0:0:0:
140,381,4450,5,8,0:0:0:0:
168,231,4630,1,0,0:0:0:0:
265,384,4810,5,8,0:0:0:0:
237,234,4990,1,0,0:0:0:0:
88,268,5170,5,8,0:0:0:0:
200,165,5350,1,0,0:0:0:0:
316,262,5530,2,0,P|355:289|399:296,1,80,8|0,0:0|0:0,0:0:0:0:
448,171,5890,6,0,P|419:201|376:221,1,80,8|0,0:0|0:0,0:0:0:0:
249,187,6249,2,0,P|278:157|321:137,1,80,8|0,0:0|0:0,0:0:0:0:
446,197,6609,2,0,P|410:218|364:226,1,80,8|0,0:0|0:0,0:0:0:0:
250,160,6969,2,0,P|286:139|332:131,1,80,8|0,0:0|0:0,0:0:0:0:
476,131,7329,5,8,0:0:0:0:
468,274,7509,1,0,0:0:0:0:
389,153,7688,1,8,0:0:0:0:
343,298,7868,5,0,0:0:0:0:
323,139,8048,1,8,0:0:0:0:
215,235,8228,1,0,0:0:0:0:
236,71,8408,2,0,P|271:20|306:2,1,80,8|0,0:0|0:0,0:0:0:0:
125,2,8768,6,0,L|120:89,1,80,8|0,0:0|0:0,0:0:0:0:
114,226,9128,1,8,0:0:0:0:
11,126,9307,1,0,0:0:0:0:
110,195,9487,5,8,0:0:0:0:
30,76,9666,1,0,0:0:0:0:
112,165,9847,2,0,L|176:230,1,80,8|0,0:0|0:0,0:0:0:0:
263,358,10387,5,0,0:0:0:0:
263,358,10567,1,8,0:0:0:0:
268,214,10747,1,0,0:0:0:0:
334,340,10926,5,8,0:0:0:0:
339,196,11106,1,0,0:0:0:0:
411,344,11286,1,8,0:0:0:0:
411,344,11646,5,8,0:0:0:0:
411,344,12006,5,8,0:0:0:0:
411,344,12366,5,8,0:0:0:0:
411,344,12725,5,0,0:0:0:0:
449,269,12905,1,0,0:0:0:0:
441,185,13085,2,0,P|425:133|409:116,1,55.9999982910157,0|0,0:0|0:0,0:0:0:0:
317,166,13445,2,0,P|370:178|392:172,1,55.9999982910157,0|0,0:0|0:0,0:0:0:0:
400,69,13805,2,0,P|362:108|356:131,1,55.9999982910157,0|0,0:0|0:0,0:0:0:0:
371,248,14164,6,0,P|315:244|267:217,1,111.999996582031,0|0,0:0|0:0,0:0:0:0:
211,139,14704,2,0,P|162:111|107:108,2,111.999996582031,0|0|0,0:0|0:0|0:0,0:0:0:0:
211,139,15604,1,0,0:0:0:0:
195,384,15963,6,0,L|152:332,1,55.9999982910157,0|0,0:0|0:0,0:0:0:0:
134,225,16323,2,0,L|169:268,1,55.9999982910157,0|0,0:0|0:0,0:0:0:0:
277,317,16683,2,0,L|234:265,1,55.9999982910157,0|0,0:0|0:0,0:0:0:0:
179,164,17043,6,0,P|193:126|220:102,1,55.9999982910157,0|0,0:0|0:0,0:0:0:0:
287,92,17402,1,0,0:0:0:0:
287,92,17582,2,0,L|291:157,1,55.9999982910157,0|0,0:0|0:0,0:0:0:0:
379,226,17942,2,0,L|314:230,1,55.9999982910157,0|0,0:0|0:0,0:0:0:0:
194,306,18302,2,0,L|259:302,2,55.9999982910157,0|0|0,0:0|0:0|0:0,0:0:0:0:
45,341,18842,5,0,0:0:0:0:
45,223,19021,1,0,0:0:0:0:
160,246,19201,2,0,P|124:272|100:281,1,55.9999982910157,0|0,0:0|0:0,0:0:0:0:
92,160,19561,1,0,0:0:0:0:
206,185,19741,1,0,0:0:0:0:
168,334,19921,6,0,P|216:327|234:318,1,55.9999982910157,0|0,0:0|0:0,0:0:0:0:
308,273,20281,1,0,0:0:0:0:
308,273,20461,2,0,L|320:194,1,55.9999982910157,0|0,0:0|0:0,0:0:0:0:
401,128,20820,2,0,L|392:183,1,55.9999982910157,0|0,0:0|0:0,0:0:0:0:
436,301,21180,2,0,L|448:222,1,55.9999982910157,0|0,0:0|0:0,0:0:0:0:
455,47,21720,5,0,0:0:0:0:
441,169,21900,1,0,0:0:0:0:
367,70,22080,1,0,0:0:0:0:
435,172,22259,5,0,0:0:0:0:
353,71,22439,1,0,0:0:0:0:
423,179,22618,1,0,0:0:0:0:
297,124,22799,2,0,P|253:162|227:214,1,111.999996582031
362,307,23519,5,0,0:0:0:0:
362,307,23699,1,0,0:0:0:0:
436,224,23878,1,0,0:0:0:0:
501,314,24058,1,0,0:0:0:0:
512,169,24238,6,0,P|485:130|464:113,1,64,2|0,2:3|2:3,2:3:0:0:
380,81,24598,1,8,2:2:0:0:
297,123,24778,1,0,2:3:0:0:
239,208,24958,1,4,2:3:0:0:
328,184,25138,5,0,2:3:0:0:
239,208,25318,1,8,2:2:0:0:
164,279,25498,1,0,2:3:0:0:
262,384,25677,6,0,P|315:353|321:331,1,64,2|0,2:3|2:3,2:3:0:0:
334,232,26037,1,8,2:2:0:0:
334,232,26217,2,0,P|361:279|385:288,1,64,0|4,2:3|2:3,2:3:0:0:
480,202,26577,2,0,P|425:202|405:218,1,64,0|2,2:3|2:3,2:3:0:0:
427,323,26937,2,0,P|453:275|450:250,1,64,0|2,2:3|2:3,2:3:0:0:
416,124,27476,5,8,2:2:0:0:
512,125,27656,1,0,2:3:0:0:
444,49,27836,1,4,2:3:0:0:
364,114,28016,5,0,2:3:0:0:
444,49,28196,1,8,2:2:0:0:
335,32,28376,1,0,2:3:0:0:
349,179,28556,6,0,P|310:190|279:181,1,64,2|0,2:3|2:3,2:3:0:0:
214,120,28915,1,2,2:3:0:0:
181,267,29095,6,0,P|207:238|219:209,1,64,0|4,2:3|2:3,2:3:0:0:
85,162,29455,2,0,P|114:188|143:200,1,64,4|2,2:3|2:3,2:3:0:0:
202,41,29815,2,0,P|176:70|164:99,1,64,0|2,2:3|2:3,2:3:0:0:
145,276,30354,5,8,2:2:0:0:
73,193,30534,1,0,2:3:0:0:
63,307,30714,1,4,2:3:0:0:
151,384,30894,5,0,2:3:0:0:
63,307,31074,1,8,2:2:0:0:
183,297,31254,1,0,2:3:0:0:
4,236,31434,6,0,L|8:147,1,64,2|0,2:3|2:3,2:3:0:0:
9,81,31794,2,0,P|50:47|83:43,2,64,8|0|4,2:2|2:3|2:3,2:3:0:0:
87,117,32333,2,0,P|138:128|170:118,1,64,0|2,2:3|2:3,2:3:0:0:
171,0,32693,2,0,P|134:39|128:71,1,64,0|2,2:3|2:3,2:3:0:0:
173,217,33233,5,8,2:2:0:0:
288,211,33413,1,0,2:3:0:0:
250,102,33592,1,4,2:3:0:0:
228,215,33772,1,0,2:3:0:0:
164,111,33952,5,2,2:3:0:0:
228,215,34132,1,0,2:3:0:0:
110,182,34312,1,2,2:3:0:0:
154,295,34492,1,0,2:3:0:0:
256,192,34514,12,0,35571,2:3:0:0:
349,90,35751,5,4,0:3:0:0:
212,186,35931,1,2,0:3:0:0:
386,194,36111,5,4,0:3:0:0:
253,79,36291,1,2,0:3:0:0:
293,258,36471,5,4,0:3:0:0:
390,101,36651,1,2,0:3:0:0:
189,262,36830,6,0,P|155:297|199:293,1,120.000004577637,0|0,0:0|0:0,0:0:0:0:
401,251,37190,2,0,L|324:193,1,95.9999970703126,2|0,1:2|1:2,1:2:0:0:
201,117,37550,5,2,1:2:0:0:
345,113,37730,1,0,1:2:0:0:
218,43,37910,1,2,1:2:0:0:
362,41,38090,1,0,1:2:0:0:
255,176,38270,5,2,1:2:0:0:
407,182,38449,1,0,1:2:0:0:
289,281,38629,2,0,P|223:272|185:256,1,95.9999970703126,2|0,1:2|1:2,1:2:0:0:
91,198,38989,5,2,1:2:0:0:
52,346,39169,1,0,1:2:0:0:
0,181,39349,1,2,1:2:0:0:
157,251,39529,1,0,1:2:0:0:
113,132,39709,5,2,1:2:0:0:
259,207,39889,1,0,1:2:0:0:
207,65,40068,2,0,P|144:27|95:14,1,95.9999970703126,2|0,1:2|1:2,1:2:0:0:
77,148,40428,5,2,1:2:0:0:
170,257,40608,1,0,1:2:0:0:
27,282,40788,5,2,1:2:0:0:
143,155,40968,1,0,1:2:0:0:
130,313,41148,5,2,1:2:0:0:
0,221,41328,1,0,1:2:0:0:
186,228,41508,2,0,P|237:204|270:165,1,95.9999970703126,2|0,1:2|1:2,1:2:0:0:
311,23,41867,6,0,L|356:123,1,95.9999970703126,2|0,1:2|1:2,1:2:0:0:
463,271,42227,2,0,L|418:171,1,95.9999970703126,2|0,1:2|1:2,1:2:0:0:
344,38,42587,6,0,L|368:145,1,95.9999970703126,2|0,1:2|1:2,1:2:0:0:
442,312,42947,2,0,L|418:205,1,95.9999970703126,2|0,1:2|1:2,1:2:0:0:
311,352,43306,5,4,1:2:0:0:
263,195,43486,1,0,1:2:0:0:
130,290,43666,1,2,1:2:0:0:
282,270,43846,1,0,1:2:0:0:
147,133,44026,5,4,1:2:0:0:
304,176,44206,1,0,1:2:0:0:
229,52,44386,2,0,P|154:28|114:25,1,95.9999970703126,2|0,1:2|1:2,1:2:0:0:
74,177,44746,5,4,1:2:0:0:
0,58,44925,1,0,1:2:0:0:
191,165,45105,5,2,1:2:0:0:
177,324,45285,1,0,1:2:0:0:
254,170,45465,5,4,1:2:0:0:
240,329,45645,1,0,1:2:0:0:
318,176,45825,5,2,1:2:0:0:
318,176,46185,5,4,1:2:0:0:
304,335,46365,1,0,1:2:0:0:
408,248,46544,5,2,1:2:0:0:
249,234,46724,1,0,1:2:0:0:
414,184,46904,5,4,1:2:0:0:
254,170,47084,1,0,1:2:0:0:
419,120,47264,5,2,1:2:0:0:
342,274,47444,1,0,1:2:0:0:
289,141,47624,5,4,1:2:0:0:
339,306,47804,1,0,1:2:0:0:
416,152,47984,5,2,1:2:0:0:
336,338,48164,1,0,1:2:0:0:
286,173,48343,5,4,1:2:0:0:
257,138,48433,1,0,1:2:0:0:
225,135,48523,1,0,1:2:0:0:
177,322,48703,2,0,P|236:274|251:237,1,103.999995239258,2|0,1:2|1:2,1:2:0:0:
94,135,49063,5,12,1:2:0:0:
101,311,49243,1,8,1:2:0:0:
32,147,49423,1,10,1:2:0:0:
95,310,49602,1,8,1:2:0:0:
194,109,49782,5,12,1:2:0:0:
165,294,49962,1,8,1:2:0:0:
270,152,50142,1,10,1:2:0:0:
174,288,50322,1,8,1:2:0:0:
419,264,50502,5,12,1:2:0:0:
264,243,50682,1,8,1:2:0:0:
409,142,50862,1,10,1:2:0:0:
365,313,51042,1,8,1:2:0:0:
328,130,51221,5,12,1:2:0:0:
288,313,51401,1,8,1:2:0:0:
215,162,51581,1,10,1:2:0:0:
197,136,51671,1,8,1:2:0:0:
174,114,51761,1,8,1:2:0:0:
18,270,51941,5,12,1:2:0:0:
200,344,52121,1,8,1:2:0:0:
197,136,52301,5,10,1:2:0:0:
48,280,52481,1,8,1:2:0:0:
266,270,52661,5,12,1:2:0:0:
136,94,52840,1,8,1:2:0:0:
110,311,53020,1,10,1:2:0:0:
109,336,53110,1,8,1:2:0:0:
109,361,53200,1,8,1:2:0:0:
268,274,53380,6,8,P|209:252|158:263,1,103.999995239258,12|8,1:2|1:2,1:2:0:0:
294,344,53740,2,8,P|341:365|393:362,1,103.999995239258,10|8,1:2|1:2,1:2:0:0:
276,62,54100,6,8,P|271:114|292:161,1,103.999995239258,12|8,1:2|1:2,1:2:0:0:
356,289,54459,2,8,P|378:230|367:179,1,103.999995239258,10|8,1:2|1:2,1:2:0:0:
184,207,54819,5,12,1:2:0:0:
342,106,54999,1,8,1:2:0:0:
154,97,55179,1,10,1:2:0:0:
254,254,55359,1,8,1:2:0:0:
253,45,55539,5,12,1:2:0:0:
321,219,55719,1,8,1:2:0:0:
136,248,55899,1,10,1:2:0:0:
110,251,55989,1,8,1:2:0:0:
84,256,56078,1,8,1:2:0:0:
379,280,56258,5,12,1:2:0:0:
376,123,56438,1,8,1:2:0:0:
461,203,56618,5,10,1:2:0:0:
341,58,56798,1,8,1:2:0:0:
291,203,56978,5,12,1:2:0:0:
411,59,57158,1,8,1:2:0:0:
379,280,57338,5,10,1:2:0:0:
379,280,57697,5,12,1:2:0:0:
230,232,57877,1,8,1:2:0:0:
345,379,58057,5,10,1:2:0:0:
296,198,58237,1,8,1:2:0:0:
144,308,58417,5,12,1:2:0:0:
325,259,58597,1,8,1:2:0:0:
141,161,58777,1,10,1:2:0:0:
284,10,59137,5,0,1:2:0:0:
282,217,59496,1,0,1:2:0:0:
377,32,59856,1,0,1:2:0:0:
150,112,60216,1,2,1:2:0:0:
150,112,60576,5,2,1:2:0:0:
175,278,60756,1,0,1:2:0:0:
272,99,60935,5,2,1:2:0:0:
94,200,61115,1,0,1:2:0:0:
307,280,61295,5,2,1:2:0:0:
172,95,61475,1,0,1:2:0:0:
190,274,61655,1,2,1:2:0:0:
190,274,62015,5,2,1:2:0:0:
301,382,62195,1,0,1:2:0:0:
287,154,62375,5,2,1:2:0:0:
215,369,62554,1,0,1:2:0:0:
325,169,62734,5,2,1:2:0:0:
253,384,62913,1,0,1:2:0:0:
376,219,63094,1,2,1:2:0:0:
376,219,63454,5,2,1:2:0:0:
227,97,63634,1,0,1:2:0:0:
452,60,63814,5,2,1:2:0:0:
291,221,63994,1,0,1:2:0:0:
200,12,64173,5,2,1:2:0:0:
361,173,64353,1,0,1:2:0:0:
361,173,64443,1,0,1:2:0:0:
361,173,64533,1,2,1:2:0:0:
361,173,64893,5,2,1:2:0:0:
52,120,65253,1,2,1:2:0:0:
232,305,65613,1,2,1:2:0:0:
62,11,65972,1,2,1:2:0:0:
62,11,66332,5,4,1:2:0:0:
178,178,66512,1,0,1:2:0:0:
10,41,66692,5,2,1:2:0:0:
215,107,66872,1,0,1:2:0:0:
24,232,67052,5,4,1:2:0:0:
158,47,67232,1,0,1:2:0:0:
171,225,67411,1,2,1:2:0:0:
171,225,67771,5,4,1:2:0:0:
241,46,67951,1,0,1:2:0:0:
332,241,68131,5,2,1:2:0:0:
169,80,68311,1,0,1:2:0:0:
190,307,68491,5,4,1:2:0:0:
352,147,68671,1,0,1:2:0:0:
349,334,68851,1,2,1:2:0:0:
349,334,69210,5,4,1:2:0:0:
479,192,69390,1,0,1:2:0:0:
256,244,69570,5,2,1:2:0:0:
479,289,69750,1,0,1:2:0:0:
368,89,69930,5,4,1:2:0:0:
353,316,70110,1,0,1:2:0:0:
353,316,70200,1,0,1:2:0:0:
353,316,70290,1,2,1:2:0:0:
353,316,70649,5,4,1:2:0:0:
261,238,71009,1,2,1:2:0:0:
117,365,71369,1,4,1:2:0:0:
238,157,71729,1,2,1:2:0:0:
238,157,72089,5,12,1:2:0:0:
71,263,72268,1,8,1:2:0:0:
149,80,72448,5,10,1:2:0:0:
197,272,72628,1,8,1:2:0:0:
208,61,72808,5,12,1:2:0:0:
232,270,72988,1,8,1:2:0:0:
275,38,73168,1,10,1:2:0:0:
275,38,73528,5,12,1:2:0:0:
376,193,73708,1,8,1:2:0:0:
163,94,73887,5,10,1:2:0:0:
396,62,74067,1,8,1:2:0:0:
239,238,74247,5,12,1:2:0:0:
166,13,74427,1,8,1:2:0:0:
71,187,74607,1,10,1:2:0:0:
71,187,74967,5,12,1:2:0:0:
206,332,75147,1,8,1:2:0:0:
190,96,75327,5,10,1:2:0:0:
181,330,75506,1,8,1:2:0:0:
202,88,75686,5,12,1:2:0:0:
164,319,75865,1,8,1:2:0:0:
160,338,75956,1,8,1:2:0:0:
156,356,76046,1,10,1:2:0:0:
156,356,76406,5,12,1:2:0:0:
146,108,76766,1,10,1:2:0:0:
353,354,77125,1,12,1:2:0:0:
188,20,77485,1,10,1:2:0:0:
188,20,77845,5,12,1:2:0:0:
105,186,78025,1,8,1:2:0:0:
250,50,78205,5,10,1:2:0:0:
255,248,78385,1,8,1:2:0:0:
323,48,78565,5,12,1:2:0:0:
453,212,78744,1,8,1:2:0:0:
440,13,78924,1,10,1:2:0:0:
440,13,79284,5,12,1:2:0:0:
345,187,79464,1,8,1:2:0:0:
201,0,79644,5,10,1:2:0:0:
60,189,79824,1,8,1:2:0:0:
268,298,80004,5,12,1:2:0:0:
225,66,80184,1,8,1:2:0:0:
418,148,80363,1,10,1:2:0:0:
418,148,80723,5,12,1:2:0:0:
221,174,80903,1,8,1:2:0:0:
401,326,81083,5,10,1:2:0:0:
349,96,81263,1,8,1:2:0:0:
264,316,81443,5,12,1:2:0:0:
361,101,81623,1,8,1:2:0:0:
361,101,81713,1,8,1:2:0:0:
361,101,81803,1,10,1:2:0:0:
196,0,82342,5,8,0:0:0:0:
263,67,82522,1,8,0:0:0:0:
196,135,82702,1,8,0:0:0:0:
128,67,82882,2,8,L|60:0,2,60.0000022888184,8|8|8,0:0|0:0|0:0,0:0:0:0:
245,201,83242,6,0,P|336:189|373:159,1,103.999995239258,2|0,0:0|0:0,0:0:0:0:
319,29,83601,2,0,P|283:113|291:160,1,103.999995239258,2|0,0:0|0:0,0:0:0:0:
352,265,83961,5,2,0:0:0:0:
410,148,84141,1,0,0:0:0:0:
441,275,84321,1,2,0:0:0:0:
502,156,84501,1,0,0:0:0:0:
487,337,84681,6,0,P|423:341|369:318,1,103.999995239258,2|0,0:0|0:0,0:0:0:0:
274,249,85041,1,2,0:0:0:0:
212,368,85220,2,0,P|134:292|132:281,1,103.999995239258,0|2,0:0|0:0,0:0:0:0:
127,166,85580,2,0,P|205:242|207:253,1,103.999995239258,0|2,0:0|0:0,0:0:0:0:
196,363,85940,2,0,P|125:280|124:269,1,103.999995239258,0|2,0:0|0:0,0:0:0:0:
1,112,86480,5,2,0:0:0:0:
103,23,86660,1,0,0:0:0:0:
130,154,86839,1,2,0:0:0:0:
210,45,87019,5,0,0:0:0:0:
80,83,87199,1,2,0:0:0:0:
197,149,87379,1,0,0:0:0:0:
305,30,87559,6,0,P|377:26|419:52,1,103.999995239258,2|0,0:0|0:0,0:0:0:0:
353,131,87919,1,2,0:0:0:0:
298,219,88099,2,0,P|370:223|412:197,1,103.999995239258,0|2,0:0|0:0,0:0:0:0:
485,135,88458,2,0,P|516:188|501:250,1,103.999995239258,0|2,0:0|0:0,0:0:0:0:
400,348,88818,2,0,P|351:365|300:357,1,103.999995239258,0|2,0:0|0:0,0:0:0:0:
128,319,89358,6,0,P|92:282|86:232,1,103.999995239258,4|0,0:0|0:0,0:0:0:0:
157,91,89718,1,2,0:0:0:0:
182,245,89898,1,0,0:0:0:0:
252,106,90077,1,4,0:0:0:0:
280,259,90257,1,0,0:0:0:0:
473,153,90437,6,0,P|441:202|385:224,1,103.999995239258,2|0,0:0|0:0,0:0:0:0:
388,65,90797,1,4,0:0:0:0:
278,175,90977,2,0,P|208:147|178:88,1,103.999995239258,0|2,0:0|0:0,0:0:0:0:
171,12,91337,2,0,P|222:17|264:46,1,103.999995239258,0|4,0:0|0:0,0:0:0:0:
239,235,91696,2,0,P|169:207|139:148,1,103.999995239258,0|2,0:0|0:0,0:0:0:0:
197,91,92236,5,4,0:0:0:0:
336,161,92416,1,0,0:0:0:0:
192,222,92596,1,2,0:0:0:0:
254,77,92776,5,0,0:0:0:0:
308,238,92956,1,4,0:0:0:0:
150,174,93136,1,0,0:0:0:0:
306,114,93315,5,10,0:0:0:0:
332,114,93405,1,8,0:0:0:0:
358,114,93495,1,8,0:0:0:0:
468,191,93675,1,12,0:0:0:0:
442,191,93765,1,8,0:0:0:0:
417,191,93855,1,8,0:0:0:0:
264,202,94080,5,2,0:0:0:0:
264,202,94260,1,2,0:0:0:0:
266,348,94440,1,4,0:0:0:0:
117,298,94755,5,2,0:0:0:0:
116,272,94844,1,0,0:0:0:0:
115,245,94934,1,0,0:0:0:0:
112,88,95114,5,4,0:0:0:0:
39,226,95294,1,0,0:0:0:0:
167,137,95474,5,2,0:0:0:0:
191,291,95654,1,0,0:0:0:0:
261,151,95834,1,4,0:0:0:0:
270,126,95924,1,0,0:0:0:0:
279,101,96014,1,0,0:0:0:0:
352,263,96194,6,0,P|409:210|426:160,1,103.999995239258,2|0,0:0|0:0,0:0:0:0:
436,84,96553,1,4,0:0:0:0:
279,101,96733,2,0,P|317:164|358:178,1,103.999995239258,0|2,0:0|0:0,0:0:0:0:
482,261,97093,2,0,P|444:198|403:184,1,103.999995239258,0|4,0:0|0:0,0:0:0:0:
286,103,97453,2,0,P|319:169|358:186,1,103.999995239258,0|2,0:0|0:0,0:0:0:0:
512,197,97992,5,4,0:0:0:0:
369,261,98172,1,0,0:0:0:0:
435,119,98352,1,2,0:0:0:0:
484,267,98532,1,0,0:0:0:0:
337,212,98712,1,4,0:0:0:0:
314,366,98892,5,0,0:0:0:0:
232,232,99072,2,0,P|187:174|146:148,1,103.999995239258,2|0,0:0|0:0,0:0:0:0:
57,273,99432,5,4,0:0:0:0:
57,273,99611,2,0,P|145:257|159:223,1,103.999995239258,0|2,0:0|0:0,0:0:0:0:
212,134,99971,2,0,P|253:104|303:112,1,103.999995239258,0|4,0:0|0:0,0:0:0:0:
347,310,100331,2,0,P|296:236|310:202,1,103.999995239258,0|2,0:0|0:0,0:0:0:0:
381,1,100871,5,4,0:0:0:0:
506,93,101051,1,0,0:0:0:0:
361,150,101230,5,2,0:0:0:0:
453,25,101410,1,0,0:0:0:0:
459,180,101590,5,4,0:0:0:0:
334,88,101770,1,0,0:0:0:0:
375,265,101950,6,0,P|309:289|256:277,2,103.999995239258,2|0|4,0:0|0:0|0:0,0:0:0:0:
237,189,102490,2,0,P|185:187|138:209,1,103.999995239258,0|2,0:0|0:0,0:0:0:0:
176,360,102849,2,0,P|203:316|207:264,1,103.999995239258,0|4,0:0|0:0,0:0:0:0:
170,113,103209,2,0,P|142:156|138:208,1,103.999995239258,0|2,0:0|0:0,0:0:0:0:
301,361,103749,5,4,0:0:0:0:
255,211,103929,1,0,0:0:0:0:
383,300,104109,1,2,0:0:0:0:
267,194,104289,1,0,0:0:0:0:
392,103,104468,5,4,0:0:0:0:
331,246,104648,1,0,0:0:0:0:
448,143,104828,1,2,0:0:0:0:
256,192,104851,12,0,106087,0:0:0:0:
160,128,106267,5,4,0:3:0:0:
352,128,106447,1,2,0:3:0:0:
160,160,106627,5,4,0:3:0:0:
352,192,106807,1,2,0:3:0:0:
160,192,106987,5,4,0:3:0:0:
352,256,107167,1,2,0:3:0:0:
144,285,107347,6,0,P|126:317|159:300,2,95.9999970703126,0|0|0,0:0|0:0|0:0,0:0:0:0:
94,188,107706,2,0,P|29:238|19:291,1,120.000004577637,2|0,1:2|1:2,1:2:0:0:
185,384,108066,5,2,1:2:0:0:
268,211,108246,1,0,1:2:0:0:
365,376,108426,1,2,1:2:0:0:
238,284,108606,1,0,1:2:0:0:
462,322,108786,5,2,1:2:0:0:
357,160,108966,1,0,1:2:0:0:
283,337,109146,2,0,P|219:370|155:362,1,120.000004577637,2|0,1:2|1:2,1:2:0:0:
79,227,109505,5,2,1:2:0:0:
215,291,109685,1,0,1:2:0:0:
179,106,109865,1,2,1:2:0:0:
118,275,110045,1,0,1:2:0:0:
251,139,110225,5,2,1:2:0:0:
285,303,110405,1,0,1:2:0:0:
352,162,110585,2,0,P|410:96|464:77,1,120.000004577637,2|0,1:2|1:2,1:2:0:0:
509,221,110944,5,2,1:2:0:0:
353,237,111124,1,0,1:2:0:0:
465,361,111304,1,2,1:2:0:0:
442,194,111484,1,0,1:2:0:0:
338,341,111664,5,2,1:2:0:0:
498,259,111844,1,0,1:2:0:0:
311,212,112024,2,0,P|232:232|178:264,1,120.000004577637,2|0,1:2|1:2,1:2:0:0:
352,366,112384,6,0,P|344:285|289:300,1,120.000004577637,2|0,1:2|1:2,1:2:0:0:
170,165,112743,2,0,P|178:246|233:231,1,120.000004577637,2|0,1:2|1:2,1:2:0:0:
386,342,113103,6,0,P|361:264|310:290,1,120.000004577637,2|0,1:2|1:2,1:2:0:0:
166,183,113463,2,0,P|190:261|241:234,1,120.000004577637,2|0,1:2|1:2,1:2:0:0:
307,77,113823,5,4,1:2:0:0:
111,134,114003,1,0,1:2:0:0:
283,269,114182,1,2,1:2:0:0:
95,265,114362,1,0,1:2:0:0:
188,56,114542,5,4,1:2:0:0:
338,193,114722,1,0,1:2:0:0:
146,205,114902,1,2,1:2:0:0:
279,84,115082,1,0,1:2:0:0:
111,134,115262,5,4,1:2:0:0:
274,209,115442,1,0,1:2:0:0:
136,26,115622,5,2,1:2:0:0:
41,232,115801,1,0,1:2:0:0:
263,180,115981,5,4,1:2:0:0:
51,259,116160,1,0,1:2:0:0:
245,380,116341,5,2,1:2:0:0:
245,380,116701,5,4,1:2:0:0:
302,222,116881,1,0,1:2:0:0:
115,157,117061,5,2,1:2:0:0:
106,384,117241,1,0,1:2:0:0:
249,208,117420,5,4,1:2:0:0:
23,199,117600,1,0,1:2:0:0:
192,352,117780,5,2,1:2:0:0:
192,352,118140,5,4,1:2:0:0:
192,352,118500,5,2,1:2:0:0:
192,352,118860,5,4,1:2:0:0:
224,352,118950,1,0,1:2:0:0:
256,352,119039,1,0,1:2:0:0:
472,352,119219,6,8,L|403:253,1,120.000004577637,10|8,1:2|1:2,1:2:0:0:
275,78,119579,1,12,1:2:0:0:
482,137,119759,1,8,1:2:0:0:
300,201,119939,1,10,1:2:0:0:
272,35,120119,1,8,1:2:0:0:
192,261,120299,5,12,1:2:0:0:
90,70,120479,1,8,1:2:0:0:
74,248,120658,1,10,1:2:0:0:
72,271,120748,1,8,1:2:0:0:
70,294,120838,1,8,1:2:0:0:
269,377,121018,5,12,1:2:0:0:
346,201,121198,1,8,1:2:0:0:
458,371,121378,1,10,1:2:0:0:
437,167,121558,1,8,1:2:0:0:
269,303,121738,5,12,1:2:0:0:
365,109,121918,1,8,1:2:0:0:
151,189,122098,1,10,1:2:0:0:
123,200,122187,1,8,1:2:0:0:
95,211,122277,1,8,1:2:0:0:
198,21,122457,5,12,1:2:0:0:
209,236,122637,1,8,1:2:0:0:
92,39,122817,1,10,1:2:0:0:
301,128,122997,1,8,1:2:0:0:
102,282,123177,5,12,1:2:0:0:
278,207,123357,1,8,1:2:0:0:
159,325,123537,1,10,1:2:0:0:
146,337,123627,1,8,1:2:0:0:
133,349,123717,1,8,1:2:0:0:
323,334,123896,6,8,P|386:291|402:237,1,120.000004577637,12|8,1:2|1:2,1:2:0:0:
207,264,124256,2,8,P|281:278|331:251,1,120.000004577637,10|8,1:2|1:2,1:2:0:0:
346,130,124616,6,8,P|303:192|249:208,1,120.000004577637,12|8,1:2|1:2,1:2:0:0:
276,14,124976,2,8,P|291:88|264:138,1,120.000004577637,10|8,1:2|1:2,1:2:0:0:
372,2,125336,5,12,1:2:0:0:
498,175,125515,1,8,1:2:0:0:
283,197,125695,1,10,1:2:0:0:
422,83,125875,1,8,1:2:0:0:
173,135,126055,5,12,1:2:0:0:
241,327,126235,1,8,1:2:0:0:
359,208,126415,1,10,1:2:0:0:
375,191,126505,1,8,1:2:0:0:
391,174,126595,1,8,1:2:0:0:
165,210,126775,5,12,1:2:0:0:
308,319,126955,1,8,1:2:0:0:
258,97,127134,5,10,1:2:0:0:
31,121,127314,1,8,1:2:0:0:
213,258,127494,5,12,1:2:0:0:
42,106,127674,1,8,1:2:0:0:
260,39,127854,5,10,1:2:0:0:
296,39,127944,1,8,1:2:0:0:
332,39,128034,1,8,1:2:0:0:
289,189,128214,5,12,1:2:0:0:
136,92,128394,1,8,1:2:0:0:
147,319,128574,5,10,1:2:0:0:
284,138,128753,1,8,1:2:0:0:
293,365,128933,5,12,1:2:0:0:
301,137,129113,1,8,1:2:0:0:
391,264,129293,1,2,1:2:0:0:
411,53,129653,6,0,L|267:54,1,128,0|0,2:2|2:2,2:2:0:0:
139,139,130013,2,0,L|338:137,1,136.000002593994,0|0,2:2|2:2,2:2:0:0:
427,227,130372,2,0,L|273:228,1,143.999995605469,0|0,2:2|2:2,2:2:0:0:
94,227,130732,1,0,2:2:0:0:
320,224,142245,6,0,L|320:176,1,40,4|0,0:0|0:0,0:0:0:0:
256,128,142605,2,0,L|256:192,1,47.9999985351563,4|0,0:0|0:0,0:0:0:0:
192,240,142965,2,0,L|192:176,1,55.9999982910157,4|0,0:0|0:0,0:0:0:0:
128,112,143324,2,0,L|128:176,1,64,4|0,0:0|0:0,0:0:0:0:
63,244,143684,6,0,P|79:292|95:308,1,71.9999978027344,4|0,0:0|0:0,0:0:0:0:
203,212,144044,2,0,P|151:229|134:246,1,80,4|0,0:0|0:0,0:0:0:0:
234,361,144404,2,0,P|214:302|194:282,1,88.000002685547,4|0,0:0|0:0,0:0:0:0:
69,384,144763,2,0,P|134:362|156:340,1,95.9999970703126,4|0,0:0|0:0,0:0:0:0:
203,212,145123,5,4,0:0:0:0:
219,211,145483,1,4,0:0:0:0:
265,198,145843,1,4,0:0:0:0:
318,138,146203,1,4,0:0:0:0:
318,233,146562,5,4,0:0:0:0:
430,233,146922,1,4,0:0:0:0:
339,323,147282,1,4,0:0:0:0:
483,323,147642,1,4,0:0:0:0:
483,250,147822,5,4,0:0:0:0:
483,213,147912,1,4,0:0:0:0:
483,177,148001,5,4,0:0:0:0:
461,58,148181,1,4,0:0:0:0:
372,150,148361,5,4,0:0:0:0:
402,25,148541,1,4,0:0:0:0:
268,50,148721,5,4,0:0:0:0:
397,92,148901,1,4,0:0:0:0:
256,122,149081,5,4,0:0:0:0:
394,160,149261,1,4,0:0:0:0:
420,169,149351,1,4,0:0:0:0:
446,178,149441,5,4,0:0:0:0:
291,217,149620,1,4,0:0:0:0:
432,322,149800,5,4,0:0:0:0:
281,231,149980,1,4,0:0:0:0:
157,378,150160,5,4,0:0:0:0:
168,186,150340,1,4,0:0:0:0:
14,326,150520,5,4,0:0:0:0:
210,257,150700,1,4,0:0:0:0:
232,248,150790,1,4,0:0:0:0:
253,237,150880,5,4,0:0:0:0:
274,226,150970,1,4,0:0:0:0:
292,210,151060,1,4,0:0:0:0:
309,194,151150,1,4,0:0:0:0:
328,173,151239,5,4,0:0:0:0:
344,150,151329,1,4,0:0:0:0:
353,123,151419,1,4,0:0:0:0:
357,95,151509,1,4,0:0:0:0:
355,63,151599,5,4,0:0:0:0:
337,36,151689,1,4,0:0:0:0:
308,21,151779,1,4,0:0:0:0:
276,27,151869,1,4,0:0:0:0:
248,49,151959,5,4,0:0:0:0:
223,75,152049,1,4,0:0:0:0:
193,95,152139,1,4,0:0:0:0:
160,110,152229,1,4,0:0:0:0:
123,125,152319,6,0,P|102:132|66:137,1,56,2|0,0:0|0:0,0:0:0:0:
0,192,153758,5,8,0:0:0:0:
0,192,154118,5,0,0:0:0:0:
160,160,154477,1,0,0:0:0:0:
320,256,154837,1,0,0:0:0:0:
0,256,155197,1,2,0:0:0:0:
0,256,155557,5,2,1:2:0:0:
159,91,155737,1,0,1:2:0:0:
200,327,155917,5,2,1:2:0:0:
198,88,156096,1,0,1:2:0:0:
330,302,156276,5,2,1:2:0:0:
233,68,156456,1,0,1:2:0:0:
413,134,156636,1,2,1:2:0:0:
413,134,156996,5,2,1:2:0:0:
259,249,157176,1,0,1:2:0:0:
381,1,157356,5,2,1:2:0:0:
350,275,157536,1,0,1:2:0:0:
255,17,157715,5,2,1:2:0:0:
315,286,157895,1,0,1:2:0:0:
181,131,158075,1,2,1:2:0:0:
181,131,158435,5,2,1:2:0:0:
248,323,158615,1,0,1:2:0:0:
10,182,158795,5,2,1:2:0:0:
283,217,158975,1,0,1:2:0:0:
19,300,159155,5,2,1:2:0:0:
265,179,159334,1,0,1:2:0:0:
286,167,159424,1,0,1:2:0:0:
307,156,159514,1,2,1:2:0:0:
307,156,159874,5,2,1:2:0:0:
43,168,160234,1,2,1:2:0:0:
350,303,160594,1,2,1:2:0:0:
41,1,160953,1,2,1:2:0:0:
41,1,161313,5,4,1:2:0:0:
100,208,161493,1,0,1:2:0:0:
263,48,161673,5,2,1:2:0:0:
47,122,161853,1,0,1:2:0:0:
261,230,162033,5,4,1:2:0:0:
137,23,162213,1,0,1:2:0:0:
166,212,162393,1,2,1:2:0:0:
166,212,162752,5,4,1:2:0:0:
317,349,162932,1,0,1:2:0:0:
251,80,163112,5,2,1:2:0:0:
148,336,163292,1,0,1:2:0:0:
361,160,163472,5,4,1:2:0:0:
85,143,163652,1,0,1:2:0:0:
243,272,163832,1,2,1:2:0:0:
243,272,164191,5,4,1:2:0:0:
265,69,164371,1,0,1:2:0:0:
466,258,164551,5,2,1:2:0:0:
217,138,164731,1,0,1:2:0:0:
389,353,164911,5,4,1:2:0:0:
397,76,165091,1,0,1:2:0:0:
397,57,165181,1,0,1:2:0:0:
397,38,165271,1,2,1:2:0:0:
397,38,165631,5,4,1:2:0:0:
307,73,165990,1,2,1:2:0:0:
319,240,166350,1,4,1:2:0:0:
104,132,166710,1,2,1:2:0:0:
104,132,167070,5,12,1:2:0:0:
231,324,167250,1,8,1:2:0:0:
208,83,167429,5,10,1:2:0:0:
355,276,167609,1,8,1:2:0:0:
355,19,167789,5,12,1:2:0:0:
209,230,167969,1,8,1:2:0:0:
383,123,168149,1,10,1:2:0:0:
383,123,168509,5,12,1:2:0:0:
195,12,168689,1,8,1:2:0:0:
265,298,168869,5,10,1:2:0:0:
126,39,169048,1,8,1:2:0:0:
163,331,169228,5,12,1:2:0:0:
281,61,169408,1,8,1:2:0:0:
87,161,169588,1,10,1:2:0:0:
87,161,169948,5,12,1:2:0:0:
303,179,170128,1,8,1:2:0:0:
56,17,170308,5,10,1:2:0:0:
339,96,170488,1,8,1:2:0:0:
79,231,170667,5,12,1:2:0:0:
304,41,170847,1,8,1:2:0:0:
324,25,170937,1,8,1:2:0:0:
345,11,171027,1,10,1:2:0:0:
345,11,171387,5,12,1:2:0:0:
283,206,171747,1,10,1:2:0:0:
43,12,172107,1,12,1:2:0:0:
412,187,172466,1,10,1:2:0:0:
412,187,172826,5,12,1:2:0:0:
273,2,173006,1,8,1:2:0:0:
217,238,173186,5,10,1:2:0:0:
373,51,173366,1,8,1:2:0:0:
504,271,173546,5,12,1:2:0:0:
266,175,173726,1,8,1:2:0:0:
394,333,173905,1,10,1:2:0:0:
394,333,174265,5,12,1:2:0:0:
216,309,174445,1,8,1:2:0:0:
335,39,174625,5,10,1:2:0:0:
288,329,174805,1,8,1:2:0:0:
250,36,174985,5,12,1:2:0:0:
138,308,175165,1,8,1:2:0:0:
81,97,175345,1,10,1:2:0:0:
81,97,175704,5,12,1:2:0:0:
276,193,175884,1,8,1:2:0:0:
11,322,176064,5,10,1:2:0:0:
171,74,176244,1,8,1:2:0:0:
179,368,176424,5,12,1:2:0:0:
63,96,176604,1,8,1:2:0:0:
48,74,176694,1,8,1:2:0:0:
34,53,176784,1,10,1:2:0:0:
34,53,177143,5,8,1:2:0:0:
274,46,177503,1,8,1:2:0:0:
184,125,177863,1,8,1:2:0:0:
198,143,178223,1,8,1:2:0:0:
256,192,178245,12,0,183979,0:0:0:0:
