osu file format v14

[General]
AudioFilename: audio.mp3
AudioLeadIn: 0
PreviewTime: 60006
Countdown: 0
SampleSet: Soft
StackLeniency: 0.4
Mode: 0
LetterboxInBreaks: 0
WidescreenStoryboard: 1

[Editor]
Bookmarks: 24421,60405,84395,120379
DistanceSpacing: 1
BeatDivisor: 4
GridSize: 16
TimelineZoom: 1.4

[Metadata]
Title:BUGABUGA CHEW CHEW
TitleUnicode:BUGABUGA CHEW CHEW
Artist:BOOGABOO
ArtistUnicode:BOOGABOO
Creator:emu1337
Version:sleepy's Normal
Source:
Tags:super 157 english electronic sleepymateo sleepy ratina0 jugment deviouspanda kowari shizuku- nick turbo va-va-boom eurobeat
BeatmapID:2205221
BeatmapSetID:1052766

[Difficulty]
HPDrainRate:2
CircleSize:2.5
OverallDifficulty:3
ApproachRate:5
SliderMultiplier:1.1
SliderTickRate:1

[Events]
//Background and Video events
0,0,"dddddd.jpg",0,0
//Break Periods
//Storyboard Layer 0 (Background)
//Storyboard Layer 1 (Fail)
//Storyboard Layer 2 (Pass)
//Storyboard Layer 3 (Foreground)
//Storyboard Layer 4 (Overlay)
//Storyboard Sound Samples

[TimingPoints]
125,374.836009245955,4,2,1,50,1,0
12119,-100,4,2,1,55,0,0
14837,-100,4,2,2,55,0,0
15118,-100,4,2,1,55,0,0
20834,-100,4,2,2,55,0,0
21115,-100,4,2,1,55,0,0
22708,-100,4,2,1,50,0,0
22802,-100,4,2,1,45,0,0
22896,-100,4,2,1,40,0,0
22989,-100,4,2,1,50,0,0
23083,-100,4,2,1,45,0,0
23177,-100,4,2,1,40,0,0
23271,-100,4,2,1,35,0,0
23364,-100,4,2,1,55,0,0
23457,-100,4,2,1,50,0,0
23551,-100,4,2,1,45,0,0
23645,-100,4,2,1,40,0,0
23738,-100,4,2,1,50,0,0
23832,-100,4,2,1,45,0,0
23926,-100,4,2,1,40,0,0
24020,-100,4,2,1,35,0,0
24114,-100,4,2,1,75,0,0
26832,-100,4,2,2,75,0,0
27113,-100,4,2,1,75,0,0
32829,-100,4,2,2,75,0,0
33110,-100,4,2,1,75,0,0
36109,-100,4,2,1,60,0,0
38826,-100,4,2,2,60,0,0
39107,-100,4,2,1,60,0,0
44824,-100,4,2,2,60,0,0
45105,-100,4,2,1,60,0,0
48104,-100,4,2,1,65,0,0
57100,-100,4,2,1,70,0,0
60098,-90.9090909090909,4,2,1,70,0,0
62816,-90.9090909090909,4,2,2,70,0,0
63097,-90.9090909090909,4,2,1,70,0,0
68813,-90.9090909090909,4,2,2,70,0,0
69094,-90.9090909090909,4,2,1,70,0,0
70687,-90.9090909090909,4,2,1,60,0,0
70780,-90.9090909090909,4,2,1,50,0,0
70781,-90.9090909090909,4,2,1,50,0,0
70875,-90.9090909090909,4,2,1,40,0,0
70969,-90.9090909090909,4,2,1,70,0,0
71062,-90.9090909090909,4,2,1,60,0,0
71155,-90.9090909090909,4,2,1,50,0,0
71156,-90.9090909090909,4,2,1,50,0,0
71250,-90.9090909090909,4,2,1,40,0,0
71343,-90.9090909090909,4,2,1,70,0,0
71437,-90.9090909090909,4,2,1,60,0,0
71531,-90.9090909090909,4,2,1,50,0,0
71624,-90.9090909090909,4,2,1,40,0,0
71718,-90.9090909090909,4,2,1,70,0,0
71812,-90.9090909090909,4,2,1,75,0,0
71906,-90.9090909090909,4,2,1,80,0,0
71999,-90.9090909090909,4,2,1,85,0,0
72093,-90.9090909090909,4,2,1,70,0,0
74811,-90.9090909090909,4,2,2,70,0,0
75092,-90.9090909090909,4,2,1,70,0,0
80808,-90.9090909090909,4,2,2,70,0,0
81089,-90.9090909090909,4,2,1,70,0,0
84088,-100,4,2,1,75,0,0
86805,-100,4,2,2,75,0,0
87086,-100,4,2,1,75,0,0
92803,-100,4,2,2,75,0,0
93084,-100,4,2,1,75,0,0
96083,-100,4,2,1,60,0,0
98800,-100,4,2,2,60,0,0
99081,-100,4,2,1,60,0,0
102080,-100,4,2,1,60,0,0
104798,-100,4,2,2,60,0,0
105079,-100,4,2,1,60,0,0
108077,-100,4,2,1,65,0,0
117073,-100,4,2,1,70,0,0
120072,-90.9090909090909,4,2,1,70,0,0
122790,-90.9090909090909,4,2,2,70,0,0
123071,-90.9090909090909,4,2,1,70,0,0
128787,-90.9090909090909,4,2,2,70,0,0
129068,-90.9090909090909,4,2,1,70,0,0
130661,-90.9090909090909,4,2,1,60,0,0
130754,-90.9090909090909,4,2,1,50,0,0
130755,-90.9090909090909,4,2,1,50,0,0
130849,-90.9090909090909,4,2,1,40,0,0
130943,-90.9090909090909,4,2,1,70,0,0
131036,-90.9090909090909,4,2,1,60,0,0
131129,-90.9090909090909,4,2,1,50,0,0
131130,-90.9090909090909,4,2,1,50,0,0
131224,-90.9090909090909,4,2,1,40,0,0
131317,-90.9090909090909,4,2,1,70,0,0
131411,-90.9090909090909,4,2,1,60,0,0
131505,-90.9090909090909,4,2,1,50,0,0
131598,-90.9090909090909,4,2,1,40,0,0
131692,-90.9090909090909,4,2,1,70,0,0
131786,-90.9090909090909,4,2,1,75,0,0
131880,-90.9090909090909,4,2,1,80,0,0
131973,-90.9090909090909,4,2,1,85,0,0
132067,-90.9090909090909,4,2,1,70,0,0
134785,-90.9090909090909,4,2,2,70,0,0
135066,-90.9090909090909,4,2,1,70,0,0
140782,-90.9090909090909,4,2,2,70,0,0
141063,-90.9090909090909,4,2,1,70,0,0
144062,-100,4,2,1,75,0,0
146779,-100,4,2,2,75,0,0
147060,-100,4,2,1,75,0,0
152776,-100,4,2,2,75,0,0
153058,-100,4,2,1,75,0,0

[Colours]
Combo1 : 255,255,0
Combo2 : 0,255,0
Combo3 : 0,128,255
Combo4 : 255,0,0

[HitObjects]
362,330,125,6,0,P|390:361|472:357,1,110,2|8,3:2|3:2,0:0:0:0:
499,265,874,2,0,L|484:141,1,110,2|8,3:2|3:2,0:0:0:0:
411,74,1624,2,0,P|374:116|301:116,1,110,2|8,3:2|3:2,0:0:0:0:
244,46,2374,2,0,L|115:65,1,110,2|8,3:2|3:2,0:0:0:0:
40,117,3123,5,0,3:0:0:0:
3,220,3498,1,8,3:2:0:0:
46,320,3873,2,0,B|91:337|91:337|168:312,1,110,0|8,3:0|3:2,0:0:0:0:
216,229,4623,1,0,3:0:0:0:
321,199,4997,1,8,3:2:0:0:
428,223,5372,2,0,P|463:271|456:335,1,110,0|8,3:0|3:2,0:0:0:0:
362,366,6122,6,0,L|248:357,1,110,2|8,3:2|3:2,0:0:0:0:
133,381,6872,2,0,P|87:345|75:274,1,110,2|8,3:2|3:2,0:0:0:0:
165,238,7621,2,0,B|177:193|177:193|157:120,1,110,2|8,3:2|3:2,0:0:0:0:
170,22,8371,2,0,P|211:4|279:9,1,110,0|8,3:0|3:2,0:0:0:0:
375,53,9121,5,0,3:0:0:0:
437,143,9496,1,8,3:2:0:0:
347,207,9871,2,0,L|340:324,1,110,0|8,3:0|3:2,0:0:0:0:
436,371,10621,1,0,3:0:0:0:
509,289,10995,1,8,3:2:0:0:
493,180,11370,2,0,P|434:139|388:142,1,110,0|8,3:0|3:2,0:0:0:0:
318,215,12119,6,0,B|329:279|329:279|300:333,2,110,4|8|0,3:1|3:2|3:0,0:0:0:0:
289,168,13056,1,2,0:0:0:0:
289,168,13244,1,8,3:2:0:0:
195,103,13619,2,0,P|121:104|77:142,1,110,0|8,3:0|3:2,0:0:0:0:
52,225,14368,2,0,L|41:285,2,55,0|2|8,3:0|0:3|3:0,0:0:0:0:
159,198,15118,5,2,3:2:0:0:
231,281,15493,2,0,L|347:299,1,110,8|0,3:2|3:0,0:0:0:0:
380,343,16055,1,2,0:0:0:0:
380,343,16243,1,8,3:2:0:0:
483,306,16618,2,0,P|508:264|500:193,1,110,8|8,3:0|3:2,0:0:0:0:
403,162,17367,2,0,L|335:173,2,55,0|2|8,3:0|0:3|3:2,0:0:0:0:
451,62,18117,6,0,P|425:23|361:-2,2,110,4|8|0,3:1|3:2|3:0,0:0:0:0:
493,97,19054,1,2,0:0:0:0:
493,97,19242,1,8,3:2:0:0:
425,184,19617,2,0,L|312:170,1,110,0|8,3:0|3:2,0:0:0:0:
207,187,20366,2,0,P|189:155|184:123,2,55,0|2|8,3:0|0:3|3:0,0:0:0:0:
285,265,21116,5,2,3:2:0:0:
228,359,21491,2,0,P|178:379|103:365,1,110,8|0,3:2|3:0,0:0:0:0:
79,340,22053,1,2,0:0:0:0:
79,340,22241,1,8,3:2:0:0:
144,251,22615,2,0,B|157:212|157:212|133:147,1,110,8|4,0:3|0:3,0:0:0:0:
23,134,23364,2,0,B|10:95|10:95|34:30,1,110,8|4,0:3|0:3,0:0:0:0:
142,10,24114,5,6,3:2:0:0:
233,71,24489,1,10,3:2:0:0:
342,77,24864,2,0,P|362:30|361:-5,2,82.5,2|2|2,3:2|0:2|0:2,0:0:0:0:
356,129,25613,1,2,3:2:0:0:
307,229,25988,1,10,3:2:0:0:
348,331,26363,2,0,P|395:351|430:350,2,82.5,2|2|10,3:2|0:2|0:2,0:0:0:0:
294,318,27113,6,0,L|186:333,1,110,2|10,3:2|3:2,0:0:0:0:
133,314,27675,1,2,0:2:0:0:
133,314,27862,2,0,L|148:206,1,110,0|10,0:0|3:2,0:0:0:0:
211,114,28612,2,0,P|188:74|120:62,1,110,2|10,3:2|3:2,0:0:0:0:
81,86,29174,1,2,0:2:0:0:
81,86,29362,1,0,3:0:0:0:
22,179,29737,1,10,3:2:0:0:
73,275,30111,5,6,3:2:0:0:
179,302,30486,1,10,3:2:0:0:
260,228,30861,2,0,P|261:186|244:144,2,82.5,2|2|2,3:2|0:2|0:2,0:0:0:0:
286,276,31610,1,2,3:2:0:0:
395,262,31986,1,10,3:2:0:0:
501,303,32360,2,0,P|510:339|493:386,2,82.5,2|2|10,3:2|0:2|0:2,0:0:0:0:
488,249,33110,6,0,L|482:132,1,110,6|2,3:2|3:2,0:0:0:0:
448,96,33672,2,0,B|419:80|419:80|337:99,1,110,6|2,3:2|3:2,0:0:0:0:
292,117,34235,1,6,3:2:0:0:
292,117,34422,2,0,P|263:58|280:-2,2,110,6|0|0,3:2|3:0|3:0,0:0:0:0:
377,187,35547,1,0,3:0:0:0:
484,312,36109,6,0,P|446:357|389:362,1,110,4|10,3:1|3:2,0:0:0:0:
299,315,36858,2,0,L|288:202,1,110,2|10,3:2|3:2,0:0:0:0:
240,106,37608,1,2,3:2:0:0:
148,44,37983,1,10,3:2:0:0:
40,68,38358,2,0,B|13:96|13:96|24:179,1,110,2|10,3:2|3:2,0:0:0:0:
57,270,39107,6,0,P|112:245|166:247,1,110,2|10,3:2|3:2,0:0:0:0:
233,328,39857,1,2,3:2:0:0:
314,255,40232,1,8,3:2:0:0:
314,255,40419,2,0,P|329:199|308:133,1,110,2|2,0:2|0:2,0:0:0:0:
284,104,40982,1,10,3:2:0:0:
352,18,41356,2,0,P|404:5|461:24,1,110,2|10,3:2|3:2,0:0:0:0:
498,123,42106,6,0,L|492:243,1,110,6|10,3:2|3:2,0:0:0:0:
426,320,42856,2,0,P|378:299|310:310,1,110,2|10,3:2|3:2,0:0:0:0:
226,359,43605,1,2,3:2:0:0:
123,318,43980,1,10,3:2:0:0:
47,238,44355,2,0,P|43:187|69:133,1,110,2|10,3:2|3:2,0:0:0:0:
129,43,45105,6,0,L|250:25,1,110,2|10,3:2|3:2,0:0:0:0:
346,9,45854,1,2,3:2:0:0:
383,117,46229,1,8,3:2:0:0:
383,117,46417,2,0,B|394:190|394:190|362:223,2,110,6|2|2,3:2|3:2|3:2,0:0:0:0:
490,91,47541,1,2,3:2:0:0:
504,255,48104,6,0,P|492:304|450:347,1,110,6|10,3:2|3:2,0:0:0:0:
344,319,48853,1,2,3:2:0:0:
247,372,49228,1,10,3:2:0:0:
139,348,49603,2,0,L|125:218,1,110,2|10,3:2|3:2,0:0:0:0:
213,170,50353,2,0,L|227:40,1,110,2|10,3:2|3:2,0:0:0:0:
130,3,51102,5,2,3:2:0:0:
41,68,51477,1,10,3:2:0:0:
64,175,51852,1,2,3:2:0:0:
157,232,52227,1,10,3:2:0:0:
256,185,52602,2,0,L|375:199,1,110,2|10,3:2|3:2,0:0:0:0:
423,192,53164,1,2,0:3:0:0:
423,192,53351,1,0,3:0:0:0:
490,288,53726,1,10,3:2:0:0:
412,366,54101,6,0,L|280:379,1,110,6|10,3:2|3:2,0:0:0:0:
192,374,54851,1,2,3:2:0:0:
123,288,55225,1,10,3:2:0:0:
176,191,55600,2,0,L|285:180,1,110,2|10,3:2|3:2,0:0:0:0:
379,122,56350,2,0,P|378:63|344:12,1,110,2|10,3:2|3:2,0:0:0:0:
243,13,57100,5,2,3:2:0:0:
135,35,57474,1,10,3:2:0:0:
63,118,57849,1,2,3:2:0:0:
59,227,58224,1,10,3:2:0:0:
83,334,58599,2,0,L|127:375,2,55,6|2|6,3:2|3:2|3:2,0:0:0:0:
27,331,59161,1,2,3:2:0:0:
27,331,59349,1,6,3:2:0:0:
167,134,60098,6,0,P|202:140|242:163,1,60.5000018463135,6|2,3:2|0:2,0:0:0:0:
245,207,60473,2,0,P|268:208|302:194,1,60.5000018463135,10|2,3:2|0:2,0:0:0:0:
343,149,60848,1,2,3:2:0:0:
459,181,61223,1,10,3:2:0:0:
487,298,61598,2,0,L|499:370,2,60.5000018463135,2|2|10,3:2|0:2|3:2,0:0:0:0:
432,271,62160,1,2,0:2:0:0:
432,271,62347,2,0,B|390:254|390:254|296:283,1,121.000003692627,2|8,3:2|3:2,0:0:0:0:
225,355,63097,6,0,P|162:338|131:281,1,121.000003692627,2|10,3:2|3:2,0:0:0:0:
169,246,63659,1,0,0:0:0:0:
169,246,63847,2,0,P|199:193|187:132,1,121.000003692627,2|10,3:2|3:2,0:0:0:0:
101,53,64596,1,2,3:2:0:0:
2,122,64971,1,10,3:2:0:0:
30,239,65346,2,0,B|67:267|67:267|154:254,1,121.000003692627,2|10,3:2|3:2,0:0:0:0:
191,145,66096,6,0,P|220:139|257:144,1,60.5000018463135,6|2,3:2|0:2,0:0:0:0:
296,182,66471,2,0,P|331:172|356:148,1,60.5000018463135,10|2,3:2|0:2,0:0:0:0:
387,110,66846,1,2,3:2:0:0:
485,180,67221,1,10,3:2:0:0:
465,299,67596,2,0,P|461:326|472:365,2,60.5000018463135,2|2|10,3:2|0:2|3:2,0:0:0:0:
411,285,68158,1,2,0:2:0:0:
411,285,68345,2,0,P|357:235|349:183,1,121.000003692627,2|8,3:2|3:2,0:0:0:0:
316,74,69094,5,2,3:2:0:0:
196,87,69469,2,0,P|162:71|137:40,2,60.5000018463135,10|2|2,3:2|0:2|3:2,0:0:0:0:
211,145,70031,1,2,0:2:0:0:
328,174,70406,2,0,P|383:151|448:169,2,121.000003692627,2|10|10,0:2|0:3|0:3,0:0:0:0:
314,294,71531,1,10,0:3:0:0:
145,360,72093,6,0,P|110:356|82:335,1,60.5000018463135,6|2,3:2|0:2,0:0:0:0:
108,285,72468,2,0,P|92:263|65:245,1,60.5000018463135,10|2,3:2|0:2,0:0:0:0:
4,239,72843,1,2,3:2:0:0:
23,119,73218,1,10,3:2:0:0:
129,62,73593,2,0,P|126:35|102:-2,2,60.5000018463135,2|2|10,3:2|0:2|3:2,0:0:0:0:
168,115,74155,1,2,0:2:0:0:
168,115,74342,2,0,L|315:126,1,121.000003692627,2|8,3:2|3:2,0:0:0:0:
370,34,75092,6,0,P|427:31|483:70,1,121.000003692627,2|10,3:2|3:2,0:0:0:0:
478,129,75654,1,0,0:0:0:0:
478,129,75842,2,0,P|465:192|480:257,1,121.000003692627,2|10,3:2|3:2,0:0:0:0:
419,354,76591,1,2,3:2:0:0:
300,378,76966,1,10,3:2:0:0:
206,301,77341,2,0,B|182:257|182:257|197:178,1,121.000003692627,2|10,3:2|3:2,0:0:0:0:
242,75,78090,6,0,P|273:63|320:63,1,60.5000018463135,6|2,3:2|0:2,0:0:0:0:
326,115,78465,2,0,P|364:121|397:110,1,60.5000018463135,10|2,3:2|0:2,0:0:0:0:
428,73,78840,1,2,3:2:0:0:
500,170,79215,1,10,3:2:0:0:
437,273,79590,2,0,L|443:337,2,60.5000018463135,2|2|10,3:2|0:2|3:2,0:0:0:0:
394,238,80152,1,2,0:2:0:0:
394,238,80339,2,0,L|271:225,1,121.000003692627,2|8,3:2|3:2,0:0:0:0:
173,293,81089,6,0,P|114:267|96:197,1,121.000003692627,2|10,3:2|3:2,0:0:0:0:
109,158,81651,1,2,0:2:0:0:
109,158,81839,2,0,L|122:38,1,121.000003692627,2|10,3:2|3:2,0:0:0:0:
246,24,82588,1,6,3:2:0:0:
246,24,82776,2,0,B|333:33|333:33|369:18,2,121.000003692627,2|2|2,3:2|3:2|3:2,0:0:0:0:
86,67,84088,5,6,3:2:0:0:
43,168,84463,1,10,3:2:0:0:
49,277,84838,2,0,P|21:315|16:365,2,82.5,2|2|2,3:2|0:2|0:2,0:0:0:0:
103,281,85587,1,2,3:2:0:0:
187,210,85962,1,10,3:2:0:0:
284,262,86337,2,0,P|307:291|318:334,2,82.5,2|2|10,3:2|0:2|0:2,0:0:0:0:
294,207,87087,6,0,L|284:89,1,110,2|10,3:2|3:2,0:0:0:0:
296,47,87649,1,2,0:2:0:0:
296,47,87836,2,0,P|342:18|402:17,1,110,0|10,0:0|3:2,0:0:0:0:
493,68,88586,2,0,P|510:116|506:174,1,110,2|10,3:2|3:2,0:0:0:0:
455,184,89148,1,2,0:2:0:0:
455,184,89336,1,0,3:0:0:0:
495,286,89711,1,10,3:2:0:0:
422,368,90085,5,6,3:2:0:0:
313,349,90460,1,10,3:2:0:0:
276,241,90835,2,0,P|290:205|336:178,2,82.5,2|2|2,3:2|0:2|0:2,0:0:0:0:
230,271,91584,1,2,3:2:0:0:
120,275,91959,1,10,3:2:0:0:
41,198,92334,2,0,P|5:227|-14:269,2,82.5,2|2|10,3:2|0:2|0:2,0:0:0:0:
78,157,93084,6,0,L|67:27,1,110,6|2,3:2|3:2,0:0:0:0:
116,20,93646,2,0,P|156:47|216:40,1,110,6|2,3:2|3:2,0:0:0:0:
265,17,94209,1,6,3:2:0:0:
265,17,94396,2,0,B|280:60|280:60|264:128,2,110,6|0|0,3:2|3:0|3:0,0:0:0:0:
374,2,95521,1,0,3:0:0:0:
491,117,96083,6,0,P|453:162|396:167,1,110,4|10,3:1|3:2,0:0:0:0:
295,184,96832,2,0,L|305:293,1,110,2|10,3:2|3:2,0:0:0:0:
213,354,97582,1,2,3:2:0:0:
103,358,97957,1,10,3:2:0:0:
34,271,98332,2,0,B|7:243|7:243|18:160,1,110,2|10,3:2|3:2,0:0:0:0:
110,115,99081,6,0,P|165:140|219:138,1,110,2|10,3:2|3:2,0:0:0:0:
290,60,99831,1,2,3:2:0:0:
402,43,100206,1,8,3:2:0:0:
402,43,100393,2,0,P|442:83|457:151,1,110,2|2,0:2|0:2,0:0:0:0:
471,186,100956,1,10,3:2:0:0:
483,295,101330,2,0,P|437:323|382:325,1,110,2|10,3:2|3:2,0:0:0:0:
273,348,102080,6,0,P|238:293|250:237,1,110,6|10,3:2|3:2,0:0:0:0:
344,208,102829,2,0,P|362:147|336:82,1,110,2|10,3:2|3:2,0:0:0:0:
264,35,103579,1,2,3:2:0:0:
165,83,103954,1,10,3:2:0:0:
67,32,104329,2,0,P|22:52|4:122,1,110,2|10,3:2|3:2,0:0:0:0:
33,211,105078,6,0,L|43:323,1,110,2|10,3:2|3:2,0:0:0:0:
147,356,105828,1,2,3:2:0:0:
243,300,106203,1,8,3:2:0:0:
243,300,106390,2,0,B|278:284|278:284|369:294,2,110,6|2|2,3:2|3:2|3:2,0:0:0:0:
144,250,107515,1,2,3:2:0:0:
286,161,108078,6,0,P|329:154|394:182,1,110,6|10,3:2|3:2,0:0:0:0:
495,207,108827,2,0,L|506:81,1,110,2|10,3:2|3:2,0:0:0:0:
420,26,109577,1,2,3:2:0:0:
310,37,109951,1,10,3:2:0:0:
250,129,110327,2,0,P|198:143|139:108,1,110,2|10,3:2|3:2,0:0:0:0:
61,53,111076,5,2,3:2:0:0:
3,146,111451,1,10,3:2:0:0:
35,251,111826,2,0,P|88:271|154:235,1,110,2|10,3:2|3:2,0:0:0:0:
210,172,112576,2,0,L|322:182,1,110,2|10,3:2|3:2,0:0:0:0:
368,154,113138,1,2,0:3:0:0:
368,154,113325,1,0,3:0:0:0:
466,202,113700,2,0,P|480:235|472:275,1,55,10|0,3:2|3:0,0:0:0:0:
467,307,114075,6,0,B|424:297|424:297|235:343,1,220,6|2,0:2|0:2,0:0:0:0:
35,373,115574,2,0,P|20:316|90:154,1,220,6|2,0:2|0:2,0:0:0:0:
214,3,117074,5,2,3:2:0:0:
321,25,117448,1,2,3:2:0:0:
407,92,117823,1,2,3:2:0:0:
455,190,118198,1,2,3:2:0:0:
453,300,118573,2,0,P|427:313|399:318,2,55
509,323,119135,1,0,0:0:0:0:
509,323,119322,1,0,0:0:0:0:
340,149,120072,6,0,P|308:159|288:182,1,60.5000018463135,6|2,3:2|0:2,0:0:0:0:
309,235,120447,2,0,P|283:268|253:282,1,60.5000018463135,10|2,3:2|0:2,0:0:0:0:
207,282,120822,1,2,3:2:0:0:
101,222,121197,1,10,3:2:0:0:
73,104,121572,2,0,L|13:117,2,60.5000018463135,2|2|10,3:2|0:2|3:2,0:0:0:0:
101,50,122134,1,2,0:2:0:0:
101,50,122321,2,0,P|141:46|209:97,1,121.000003692627,2|8,3:2|3:2,0:0:0:0:
237,206,123071,6,0,L|361:192,1,121.000003692627,2|10,3:2|3:2,0:0:0:0:
409,222,123633,1,0,0:0:0:0:
409,222,123821,2,0,P|466:211|507:160,1,121.000003692627,2|10,3:2|3:2,0:0:0:0:
476,47,124570,1,2,3:2:0:0:
357,24,124945,1,10,3:2:0:0:
242,67,125320,2,0,P|168:79|122:46,1,121.000003692627,2|10,3:2|3:2,0:0:0:0:
13,27,126070,6,0,L|-2:93,1,60.5000018463135,6|2,3:2|0:2,0:0:0:0:
50,118,126445,2,0,L|54:190,1,60.5000018463135,10|2,3:2|0:2,0:0:0:0:
11,221,126820,1,2,3:2:0:0:
88,313,127195,1,10,3:2:0:0:
208,301,127570,2,0,P|211:271|210:235,2,60.5000018463135,2|2|10,3:2|0:2|3:2,0:0:0:0:
245,348,128132,1,2,0:2:0:0:
245,348,128319,2,0,L|386:334,1,121.000003692627,2|8,3:2|3:2,0:0:0:0:
469,273,129068,5,2,3:2:0:0:
475,152,129443,2,0,P|487:119|514:94,2,60.5000018463135,10|2|2,3:2|0:2|3:2,0:0:0:0:
422,183,130005,1,2,0:2:0:0:
315,124,130380,2,0,L|172:115,2,121.000003692627,2|10|10,0:2|0:3|0:3,0:0:0:0:
397,35,131505,1,10,0:3:0:0:
494,187,132067,6,0,P|478:216|458:236,1,60.5000018463135,6|2,3:2|0:2,0:0:0:0:
399,228,132442,2,0,P|377:256|370:287,1,60.5000018463135,10|2,3:2|0:2,0:0:0:0:
380,339,132817,1,2,3:2:0:0:
259,350,133192,1,10,3:2:0:0:
151,294,133567,2,0,L|88:309,2,60.5000018463135,2|2|10,3:2|0:2|3:2,0:0:0:0:
204,262,134129,1,2,0:2:0:0:
204,262,134316,2,0,P|243:205|243:152,1,121.000003692627,2|8,3:2|3:2,0:0:0:0:
181,50,135066,6,0,L|51:39,1,121.000003692627,2|10,3:2|3:2,0:0:0:0:
15,79,135628,1,0,0:0:0:0:
15,79,135816,2,0,P|13:134|52:195,1,121.000003692627,2|10,3:2|3:2,0:0:0:0:
147,254,136565,1,2,3:2:0:0:
261,215,136940,1,10,3:2:0:0:
347,129,137315,2,0,P|416:127|477:150,1,121.000003692627,2|10,3:2|3:2,0:0:0:0:
501,258,138064,6,0,P|482:292|461:316,1,60.5000018463135,6|2,3:2|0:2,0:0:0:0:
409,292,138439,2,0,P|376:289|334:303,1,60.5000018463135,10|2,3:2|0:2,0:0:0:0:
305,337,138814,1,2,3:2:0:0:
183,340,139189,1,10,3:2:0:0:
86,267,139564,2,0,P|51:258|20:257,2,60.5000018463135,2|2|10,3:2|0:2|3:2,0:0:0:0:
137,233,140126,1,2,0:2:0:0:
137,233,140313,2,0,L|258:219,1,121.000003692627,2|8,3:2|3:2,0:0:0:0:
339,307,141063,6,0,P|400:294|439:239,1,121.000003692627,2|10,3:2|3:2,0:0:0:0:
413,200,141625,1,2,0:2:0:0:
413,200,141813,2,0,L|420:71,1,121.000003692627,2|10,3:2|3:2,0:0:0:0:
320,20,142562,1,6,3:2:0:0:
320,20,142750,2,0,B|281:1|281:1|198:29,2,121.000003692627,2|2|2,3:2|3:2|3:2,0:0:0:0:
318,185,144062,5,6,3:2:0:0:
210,206,144437,1,10,3:2:0:0:
110,158,144812,2,0,P|91:123|83:79,2,82.5,2|2|2,3:2|0:2|0:2,0:0:0:0:
110,212,145561,1,2,3:2:0:0:
119,321,145936,1,10,3:2:0:0:
229,320,146311,2,0,P|266:345|283:383,2,82.5,2|2|10,3:2|0:2|0:2,0:0:0:0:
213,267,147061,6,0,L|227:156,1,110,2|10,3:2|3:2,0:0:0:0:
233,107,147623,1,2,0:2:0:0:
233,107,147810,2,0,P|289:116|345:98,1,110,0|10,0:0|3:2,0:0:0:0:
449,96,148560,2,0,B|468:137|468:137|452:210,1,110,2|10,3:2|3:2,0:0:0:0:
479,255,149122,1,2,0:2:0:0:
479,255,149310,1,0,3:0:0:0:
436,356,149685,1,10,3:2:0:0:
326,353,150059,5,6,3:2:0:0:
237,286,150434,1,10,3:2:0:0:
133,248,150809,2,0,P|87:263|51:304,2,82.5,2|2|2,3:2|0:2|0:2,0:0:0:0:
157,198,151558,1,2,3:2:0:0:
259,158,151933,1,10,3:2:0:0:
262,48,152308,2,0,P|282:24|338:14,2,82.5,2|2|10,3:2|0:2|0:2,0:0:0:0:
210,67,153058,6,0,L|89:53,1,110,6|2,3:2|3:2,0:0:0:0:
47,40,153620,2,0,P|16:77|22:153,1,110,6|2,3:2|3:2,0:0:0:0:
55,182,154183,1,6,3:2:0:0:
55,182,154370,2,0,L|45:293,2,110,6|0|0,3:2|3:0|3:0,0:0:0:0:
139,111,155495,1,0,3:0:0:0:
248,116,155869,1,2,0:0:0:0:
