osu file format v14

[General]
AudioFilename: audio.mp3
AudioLeadIn: 0
PreviewTime: 60006
Countdown: 0
SampleSet: Soft
StackLeniency: 0.4
Mode: 0
LetterboxInBreaks: 0
WidescreenStoryboard: 1

[Editor]
DistanceSpacing: 1.2
BeatDivisor: 4
GridSize: 16
TimelineZoom: 1.8

[Metadata]
Title:BUGABUGA CHEW CHEW
TitleUnicode:BUGABUGA CHEW CHEW
Artist:BOOGABOO
ArtistUnicode:BOOGABOO
Creator:emu1337
Version:Insane
Source:
Tags:super 157 english electronic sleepymateo sleepy ratina0 jugment deviouspanda kowari shizuku- nick turbo va-va-boom eurobeat
BeatmapID:2205163
BeatmapSetID:1052766

[Difficulty]
HPDrainRate:5
CircleSize:4
OverallDifficulty:7
ApproachRate:8
SliderMultiplier:1.4
SliderTickRate:1

[Events]
//Background and Video events
0,0,"dddddd.jpg",0,0
//Break Periods
//Storyboard Layer 0 (Background)
//Storyboard Layer 1 (Fail)
//Storyboard Layer 2 (Pass)
//Storyboard Layer 3 (Foreground)
//Storyboard Layer 4 (Overlay)
//Storyboard Sound Samples

[TimingPoints]
125,374.836009245955,4,2,1,50,1,0
12119,-83.3333333333333,4,2,1,55,0,0
14837,-83.3333333333333,4,2,2,55,0,0
15118,-83.3333333333333,4,2,1,55,0,0
20834,-83.3333333333333,4,2,2,55,0,0
21115,-83.3333333333333,4,2,1,55,0,0
22708,-83.3333333333333,4,2,1,50,0,0
22802,-83.3333333333333,4,2,1,45,0,0
22896,-83.3333333333333,4,2,1,40,0,0
22989,-83.3333333333333,4,2,1,50,0,0
23083,-83.3333333333333,4,2,1,45,0,0
23177,-83.3333333333333,4,2,1,40,0,0
23271,-83.3333333333333,4,2,1,35,0,0
23364,-83.3333333333333,4,2,1,55,0,0
23457,-83.3333333333333,4,2,1,50,0,0
23551,-83.3333333333333,4,2,1,45,0,0
23645,-83.3333333333333,4,2,1,40,0,0
23738,-83.3333333333333,4,2,1,50,0,0
23832,-83.3333333333333,4,2,1,45,0,0
23926,-83.3333333333333,4,2,1,40,0,0
24020,-83.3333333333333,4,2,1,35,0,0
24114,-83.3333333333333,4,2,1,75,0,0
26832,-83.3333333333333,4,2,2,75,0,0
27113,-83.3333333333333,4,2,1,75,0,0
31611,-71.4285714285714,4,2,1,75,0,0
32829,-71.4285714285714,4,2,2,75,0,0
33110,-71.4285714285714,4,2,1,75,0,0
34422,-83.3333333333333,4,2,1,75,0,0
36109,-100,4,2,1,60,0,0
38826,-100,4,2,2,60,0,0
39107,-100,4,2,1,60,0,0
44824,-100,4,2,2,60,0,0
45105,-100,4,2,1,60,0,0
48104,-83.3333333333333,4,2,1,65,0,0
57100,-83.3333333333333,4,2,1,70,0,0
62816,-83.3333333333333,4,2,2,70,0,0
63097,-83.3333333333333,4,2,1,70,0,0
68813,-83.3333333333333,4,2,2,70,0,0
69094,-83.3333333333333,4,2,1,70,0,0
70687,-83.3333333333333,4,2,1,60,0,0
70781,-83.3333333333333,4,2,1,50,0,0
70875,-83.3333333333333,4,2,1,40,0,0
70969,-83.3333333333333,4,2,1,70,0,0
71062,-83.3333333333333,4,2,1,60,0,0
71156,-83.3333333333333,4,2,1,50,0,0
71250,-83.3333333333333,4,2,1,40,0,0
71343,-83.3333333333333,4,2,1,70,0,0
71436,-83.3333333333333,4,2,1,60,0,0
71437,-83.3333333333333,4,2,1,60,0,0
71530,-83.3333333333333,4,2,1,50,0,0
71531,-83.3333333333333,4,2,1,50,0,0
71624,-83.3333333333333,4,2,1,40,0,0
71718,-83.3333333333333,4,2,1,70,0,0
71812,-83.3333333333333,4,2,1,75,0,0
71906,-83.3333333333333,4,2,1,80,0,0
71999,-83.3333333333333,4,2,1,85,0,0
72093,-83.3333333333333,4,2,1,70,0,0
74811,-83.3333333333333,4,2,2,70,0,0
75092,-83.3333333333333,4,2,1,70,0,0
80808,-83.3333333333333,4,2,2,70,0,0
81089,-83.3333333333333,4,2,1,70,0,0
84088,-83.3333333333333,4,2,1,75,0,0
86805,-83.3333333333333,4,2,2,75,0,0
87086,-83.3333333333333,4,2,1,75,0,0
91584,-71.4285714285714,4,2,1,75,0,0
92803,-71.4285714285714,4,2,2,75,0,0
93084,-71.4285714285714,4,2,1,75,0,0
94396,-83.3333333333333,4,2,1,75,0,0
96083,-100,4,2,1,60,0,0
98800,-100,4,2,2,60,0,0
99081,-100,4,2,1,60,0,0
101330,-100,4,2,1,60,0,0
102080,-100,4,2,1,60,0,0
104798,-100,4,2,2,60,0,0
105079,-100,4,2,1,60,0,0
108077,-83.3333333333333,4,2,1,65,0,0
114075,-100,4,2,1,65,0,0
117073,-83.3333333333333,4,2,1,70,0,0
119697,-83.3333333333333,4,2,1,5,0,0
120072,-83.3333333333333,4,2,1,70,0,0
122790,-83.3333333333333,4,2,2,70,0,0
123071,-83.3333333333333,4,2,1,70,0,0
128787,-83.3333333333333,4,2,2,70,0,0
129068,-83.3333333333333,4,2,1,70,0,0
130661,-83.3333333333333,4,2,1,60,0,0
130755,-83.3333333333333,4,2,1,50,0,0
130849,-83.3333333333333,4,2,1,40,0,0
130943,-83.3333333333333,4,2,1,70,0,0
131036,-83.3333333333333,4,2,1,60,0,0
131130,-83.3333333333333,4,2,1,50,0,0
131224,-83.3333333333333,4,2,1,40,0,0
131317,-83.3333333333333,4,2,1,70,0,0
131410,-83.3333333333333,4,2,1,60,0,0
131411,-83.3333333333333,4,2,1,60,0,0
131504,-83.3333333333333,4,2,1,50,0,0
131505,-83.3333333333333,4,2,1,50,0,0
131598,-83.3333333333333,4,2,1,40,0,0
131692,-83.3333333333333,4,2,1,70,0,0
131786,-83.3333333333333,4,2,1,75,0,0
131880,-83.3333333333333,4,2,1,80,0,0
131973,-83.3333333333333,4,2,1,85,0,0
132067,-83.3333333333333,4,2,1,70,0,0
134785,-83.3333333333333,4,2,2,70,0,0
135066,-83.3333333333333,4,2,1,70,0,0
140782,-83.3333333333333,4,2,2,70,0,0
141063,-83.3333333333333,4,2,1,70,0,0
144062,-83.3333333333333,4,2,1,75,0,0
146779,-83.3333333333333,4,2,2,75,0,0
147060,-83.3333333333333,4,2,1,75,0,0
151558,-71.4285714285714,4,2,1,75,0,0
152776,-71.4285714285714,4,2,2,75,0,0
153058,-71.4285714285714,4,2,1,75,0,0
154370,-83.3333333333333,4,2,1,75,0,0

[Colours]
Combo1 : 255,255,0
Combo2 : 0,255,0
Combo3 : 0,128,255
Combo4 : 255,0,0

[HitObjects]
14,87,125,6,0,L|6:136,2,35,2|2|2,3:2|0:2|0:2,0:0:0:0:
75,39,499,1,8,3:2:0:0:
87,31,593,1,2,0:2:0:0:
124,102,780,1,2,0:2:0:0:
133,117,874,6,0,L|125:166,2,35,2|2|2,3:2|0:2|0:2,0:0:0:0:
196,68,1248,1,8,3:2:0:0:
208,60,1342,1,2,0:2:0:0:
243,132,1530,1,2,0:2:0:0:
252,147,1624,6,0,L|239:221,1,70,2|2,3:2|0:2,0:0:0:0:
193,271,1999,1,8,3:2:0:0:
181,279,2093,1,2,0:2:0:0:
238,330,2280,1,2,0:2:0:0:
256,336,2374,6,0,L|280:284,1,35,2|2,3:2|0:2,0:0:0:0:
349,312,2561,1,2,0:2:0:0:
410,359,2748,1,8,3:2:0:0:
422,367,2842,1,2,0:2:0:0:
502,333,3029,1,2,0:2:0:0:
485,304,3123,6,0,L|498:146,1,140,0|8,3:0|3:2,0:0:0:0:
430,95,3685,1,2,0:0:0:0:
372,171,3873,2,0,L|271:182,1,70,0|0,3:0|0:0,0:0:0:0:
249,83,4248,2,0,L|350:94,1,70,8|2,3:2|0:0,0:0:0:0:
176,187,4623,6,0,P|146:139|55:121,1,140,0|8,3:0|3:2,0:0:0:0:
0,179,5185,1,0,0:0:0:0:
74,278,5372,2,0,L|85:206,1,70,0|0,3:0|0:0,0:0:0:0:
155,314,5747,2,0,L|144:386,1,70,8|0,3:2|0:0,0:0:0:0:
309,351,6122,6,0,L|358:359,2,35,2|2|2,3:2|0:2|0:2,0:0:0:0:
261,290,6496,1,8,3:2:0:0:
253,278,6590,1,2,0:2:0:0:
308,222,6777,1,2,0:2:0:0:
316,206,6871,6,0,L|362:188,2,35,2|2|2,3:2|0:2|0:2,0:0:0:0:
242,176,7245,1,8,3:2:0:0:
229,170,7339,1,2,0:2:0:0:
251,99,7527,1,2,0:2:0:0:
250,81,7621,6,0,P|272:54|314:33,1,70,2|2,3:2|0:2,0:0:0:0:
370,75,7996,1,8,3:2:0:0:
382,83,8090,1,2,0:2:0:0:
463,57,8277,5,2,0:3:0:0:
463,57,8371,1,0,3:0:0:0:
463,57,8465,2,0,L|484:3,1,35,2|2,0:3|0:3,0:0:0:0:
463,200,8746,2,0,L|442:133,1,70,8|0,3:2|0:0,0:0:0:0:
317,209,9121,6,0,L|159:196,1,140,0|8,3:0|3:2,0:0:0:0:
109,131,9683,1,2,0:0:0:0:
53,203,9871,2,0,P|48:235|65:285,1,70,0|0,3:0|0:0,0:0:0:0:
134,348,10246,2,0,L|145:247,1,70,8|2,3:2|0:0,0:0:0:0:
328,295,10621,6,0,B|364:352|364:352|449:361,1,140,0|8,3:0|3:2,0:0:0:0:
504,303,11183,1,2,0:3:0:0:
420,272,11370,1,0,3:0:0:0:
420,272,11463,1,2,0:3:0:0:
420,272,11557,1,2,0:3:0:0:
328,295,11745,2,0,P|294:284|268:261,1,70,8|0,3:2|3:0,0:0:0:0:
205,59,12119,5,4,3:1:0:0:
238,140,12307,1,2,0:0:0:0:
158,183,12494,2,0,L|63:194,1,83.9999974365235,8|2,3:2|0:3,0:0:0:0:
183,270,12869,1,0,3:0:0:0:
183,270,12963,1,2,0:2:0:0:
183,270,13056,1,2,0:0:0:0:
221,347,13244,2,0,L|316:358,1,83.9999974365235,8|2,3:2|0:3,0:0:0:0:
45,384,13619,6,0,L|29:258,1,125.999996154785,0|0,3:0|0:0,0:0:0:0:
38,238,13993,1,8,3:2:0:0:
149,141,14181,1,2,0:0:0:0:
149,141,14275,1,2,0:0:0:0:
149,141,14368,2,0,L|159:191,3,41.9999987182618,0|0|2|0,3:0|0:0|0:3|0:0,0:0:0:0:
68,138,14743,2,0,L|76:96,3,41.9999987182618,8|8|8|8,3:0|0:0|0:0|0:0,0:0:0:0:
137,49,15118,6,0,P|183:41|227:53,1,83.9999974365235,2|2,3:2|0:0,0:0:0:0:
239,134,15493,2,0,P|279:142|320:134,1,83.9999974365235,8|2,3:2|0:3,0:0:0:0:
368,62,15868,1,0,3:0:0:0:
368,62,15961,1,0,0:0:0:0:
368,62,16055,1,2,0:0:0:0:
391,184,16242,1,8,3:2:0:0:
482,100,16430,1,2,0:3:0:0:
512,254,16617,6,0,L|407:264,1,83.9999974365235,8|0,3:0|0:0,0:0:0:0:
367,326,16992,1,8,3:2:0:0:
305,262,17180,1,2,0:0:0:0:
298,243,17273,1,2,0:0:0:0:
243,316,17461,1,2,0:0:0:0:
236,335,17554,1,2,0:3:0:0:
177,263,17742,2,0,L|93:255,1,83.9999974365235,8|2,3:2|0:3,0:0:0:0:
25,152,18117,5,4,3:1:0:0:
0,64,18305,1,2,0:0:0:0:
83,94,18492,2,0,L|178:83,1,83.9999974365235,8|2,3:2|0:3,0:0:0:0:
291,111,18867,1,0,3:0:0:0:
291,111,18961,1,2,0:2:0:0:
291,111,19054,1,2,0:0:0:0:
303,23,19242,2,0,L|208:12,1,83.9999974365235,8|2,3:2|0:3,0:0:0:0:
154,106,19617,6,0,L|170:232,1,125.999996154785,0|0,3:0|0:0,0:0:0:0:
161,252,19991,1,8,3:2:0:0:
220,356,20179,1,2,0:0:0:0:
220,356,20273,1,2,0:0:0:0:
220,356,20366,2,0,L|170:346,3,41.9999987182618,0|0|2|0,3:0|0:0|0:3|0:0,0:0:0:0:
267,296,20741,2,0,L|309:288,3,41.9999987182618,8|8|8|8,3:0|0:0|0:0|0:0,0:0:0:0:
308,366,21116,6,0,P|348:374|389:366,1,83.9999974365235,2|2,3:2|0:0,0:0:0:0:
450,212,21490,2,0,P|422:243|408:282,1,83.9999974365235,8|2,3:2|0:3,0:0:0:0:
361,175,21866,1,0,3:0:0:0:
361,175,21959,1,0,0:0:0:0:
361,175,22053,1,2,0:0:0:0:
308,288,22240,1,8,3:2:0:0:
275,170,22428,1,2,0:3:0:0:
317,100,22615,6,0,L|322:58,6,41.9999987182618,8|8|8|8|4|4|4,0:3|0:3|0:3|0:3|0:3|0:3|0:3,0:0:0:0:
475,53,23364,2,0,L|469:11,6,41.9999987182618,8|8|8|8|4|4|4,0:3|0:3|0:3|0:3|0:3|0:3|0:3,0:0:0:0:
413,175,24114,6,0,P|435:221|442:260,1,83.9999974365235,6|2,3:2|0:2,0:0:0:0:
434,327,24395,1,2,0:2:0:0:
417,356,24489,2,0,P|371:378|332:385,1,83.9999974365235,10|2,3:2|0:2,0:0:0:0:
272,347,24770,1,2,0:2:0:0:
247,322,24864,5,2,3:2:0:0:
220,322,24957,1,2,0:2:0:0:
194,328,25051,1,2,0:2:0:0:
171,338,25145,1,2,0:2:0:0:
241,237,25332,1,2,0:2:0:0:
245,222,25426,1,2,0:2:0:0:
251,205,25520,1,2,0:2:0:0:
239,178,25613,6,0,L|234:124,3,41.9999987182618,2|2|2|2,3:2|0:2|0:2|0:2,0:0:0:0:
300,100,25988,2,0,L|305:46,3,41.9999987182618,10|2|2|2,3:2|0:2|0:2|0:2,0:0:0:0:
244,11,26363,1,2,3:2:0:0:
215,14,26456,1,2,0:2:0:0:
189,26,26550,1,2,0:2:0:0:
166,42,26644,1,2,0:2:0:0:
148,66,26738,2,0,P|128:57|96:54,3,41.9999987182618,8|10|10|10,3:2|0:2|0:2|0:2,0:0:0:0:
60,116,27113,5,2,3:2:0:0:
62,136,27206,1,2,0:2:0:0:
125,196,27394,2,0,L|116:245,1,41.9999987182618,2|10,0:2|3:2,0:0:0:0:
41,258,27675,1,2,0:2:0:0:
43,278,27768,1,2,0:2:0:0:
106,338,27956,2,0,L|97:387,1,41.9999987182618,2|2,0:2|0:2,0:0:0:0:
209,254,28237,2,0,L|304:267,1,83.9999974365235,10|2,3:2|0:2,0:0:0:0:
382,303,28612,5,2,3:2:0:0:
383,284,28705,1,2,0:2:0:0:
442,227,28893,2,0,L|433:181,1,41.9999987182618,2|10,0:2|3:2,0:0:0:0:
366,151,29174,1,2,0:2:0:0:
367,132,29267,1,2,0:2:0:0:
424,81,29455,2,0,L|415:35,1,41.9999987182618,2|2,0:2|0:2,0:0:0:0:
301,83,29737,1,10,3:2:0:0:
301,83,29924,1,2,0:2:0:0:
211,102,30111,6,0,P|192:140|193:194,1,83.9999974365235,6|2,3:2|0:2,0:0:0:0:
220,255,30393,1,2,0:2:0:0:
236,285,30486,2,0,P|233:326|215:363,1,83.9999974365235,10|2,3:2|0:2,0:0:0:0:
133,352,30767,1,2,0:2:0:0:
112,326,30861,5,2,3:2:0:0:
108,298,30954,1,2,0:2:0:0:
109,271,31048,1,2,0:2:0:0:
118,245,31142,1,2,0:2:0:0:
232,277,31329,1,2,0:2:0:0:
247,281,31423,1,2,0:2:0:0:
264,287,31517,1,2,0:2:0:0:
295,266,31611,6,0,L|353:260,3,48.9999985046387,2|2|2|2,3:2|0:2|0:2|0:2,0:0:0:0:
371,332,31986,2,0,L|429:337,3,48.9999985046387,10|2|2|2,3:2|0:2|0:2|0:2,0:0:0:0:
488,292,32360,1,2,3:2:0:0:
490,262,32453,1,2,0:2:0:0:
493,233,32547,1,2,0:2:0:0:
495,203,32641,1,2,0:2:0:0:
496,174,32735,2,0,L|502:112,3,48.9999985046387,8|10|10|10,3:2|0:2|0:2|0:2,0:0:0:0:
451,67,33110,5,6,3:2:0:0:
409,70,33203,1,2,3:2:0:0:
371,86,33297,1,2,3:2:0:0:
340,111,33391,1,2,3:2:0:0:
319,145,33484,1,2,3:2:0:0:
285,237,33672,5,6,3:2:0:0:
247,252,33765,1,2,3:2:0:0:
207,256,33859,1,2,3:2:0:0:
167,248,33953,1,2,3:2:0:0:
133,228,34046,1,2,3:2:0:0:
74,152,34235,5,6,3:2:0:0:
33,161,34328,1,2,3:2:0:0:
7,197,34422,6,0,L|12:250,3,41.9999987182618,6|0|2|0,3:2|0:0|0:0|0:0,0:0:0:0:
80,267,34797,2,0,L|75:320,3,41.9999987182618,0|0|2|0,3:0|0:0|0:0|0:0,0:0:0:0:
146,334,35172,2,0,L|151:387,3,41.9999987182618,0|0|2|0,3:0|0:0|0:0|0:0,0:0:0:0:
203,281,35547,6,0,P|228:286|258:306,1,41.9999987182618,0|2,3:0|0:0,0:0:0:0:
285,360,35734,1,2,0:0:0:0:
295,360,35827,1,2,0:0:0:0:
305,361,35921,1,2,0:0:0:0:
316,362,36015,1,2,0:0:0:0:
326,362,36109,6,0,L|319:264,1,70,4|0,3:1|0:0,0:0:0:0:
455,293,36484,2,0,L|450:362,1,70,10|0,3:2|0:0,0:0:0:0:
315,208,36858,2,0,L|308:110,1,70,2|0,3:2|0:0,0:0:0:0:
469,146,37233,2,0,L|464:215,1,70,10|0,3:2|0:0,0:0:0:0:
384,83,37608,5,2,3:2:0:0:
344,11,37795,1,2,0:2:0:0:
256,20,37982,1,10,3:2:0:0:
231,98,38170,1,2,0:2:0:0:
310,138,38358,6,0,L|315:208,1,70,2|2,3:2|0:3,0:0:0:0:
290,275,38639,1,2,0:3:0:0:
283,292,38733,2,0,L|290:339,1,35,10|8,3:2|0:2,0:0:0:0:
216,364,38920,1,8,0:2:0:0:
216,364,39014,1,8,0:2:0:0:
216,364,39107,6,0,P|184:374|125:371,1,70,2|0,3:2|0:0,0:0:0:0:
362,316,39482,2,0,P|394:306|453:309,1,70,10|0,3:2|0:0,0:0:0:0:
208,256,39857,2,0,P|176:266|117:263,1,70,2|0,3:2|0:0,0:0:0:0:
369,176,40232,1,8,3:2:0:0:
270,189,40419,6,0,L|278:43,1,140,2|2,0:2|0:2,0:0:0:0:
78,52,40982,1,10,3:2:0:0:
189,110,41169,1,2,0:2:0:0:
61,137,41356,1,2,3:2:0:0:
58,154,41449,1,2,3:2:0:0:
55,171,41543,1,2,3:2:0:0:
52,188,41637,1,2,3:2:0:0:
48,204,41731,2,0,L|52:262,3,35,10|2|2|2,3:2|3:2|3:2|3:2,0:0:0:0:
126,263,42106,6,0,P|156:277|206:276,1,70,6|0,3:2|0:0,0:0:0:0:
314,358,42481,2,0,P|284:344|234:345,1,70,10|0,3:2|0:0,0:0:0:0:
178,193,42856,2,0,L|192:104,1,70,2|0,3:2|0:0,0:0:0:0:
296,200,43231,2,0,L|306:269,1,70,10|0,3:2|0:0,0:0:0:0:
457,328,43605,5,2,3:2:0:0:
512,256,43793,1,2,0:2:0:0:
433,218,43980,1,10,3:2:0:0:
481,141,44168,1,2,0:2:0:0:
376,158,44355,6,0,P|363:125|370:71,1,70,2|2,3:2|0:3,0:0:0:0:
418,37,44636,1,2,0:3:0:0:
436,27,44730,2,0,L|483:35,1,35,10|8,3:2|0:0,0:0:0:0:
351,1,44917,1,8,0:0:0:0:
351,1,45011,1,8,0:0:0:0:
351,1,45105,6,0,L|252:18,1,70,2|0,3:2|0:0,0:0:0:0:
193,87,45480,2,0,L|292:104,1,70,10|0,3:2|0:0,0:0:0:0:
151,11,45854,2,0,L|52:28,1,70,2|0,3:2|0:0,0:0:0:0:
23,102,46229,1,8,3:2:0:0:
193,87,46417,5,6,3:2:0:0:
319,297,46792,1,2,3:2:0:0:
319,87,47166,1,2,3:2:0:0:
193,297,47541,1,2,3:2:0:0:
180,311,48104,6,0,L|86:320,1,83.9999974365235,6|2,3:2|0:2,0:0:0:0:
65,135,48478,1,10,3:2:0:0:
106,228,48666,1,2,0:2:0:0:
198,188,48853,2,0,L|292:197,1,83.9999974365235,2|0,3:2|0:0,0:0:0:0:
430,219,49228,2,0,P|400:184|354:172,1,83.9999974365235,10|2,3:2|0:2,0:0:0:0:
500,374,49603,6,0,L|512:290,1,83.9999974365235,2|2,3:2|0:2,0:0:0:0:
318,315,49978,1,10,3:2:0:0:
414,333,50165,1,2,0:2:0:0:
437,229,50353,2,0,L|449:145,1,83.9999974365235,2|2,3:2|0:3,0:0:0:0:
383,10,50727,1,10,3:2:0:0:
371,121,50915,1,2,0:2:0:0:
371,121,51008,1,2,0:3:0:0:
371,121,51102,6,0,B|331:140|331:140|273:130,1,83.9999974365235,2|0,3:2|0:0,0:0:0:0:
171,110,51477,2,0,B|190:150|190:150|180:208,1,83.9999974365235,10|0,3:2|0:0,0:0:0:0:
160,310,51852,2,0,B|200:291|200:291|258:301,1,83.9999974365235,2|0,3:2|0:0,0:0:0:0:
360,321,52227,2,0,B|341:281|341:281|351:223,1,83.9999974365235,10|0,3:2|0:0,0:0:0:0:
183,189,52602,6,0,L|121:182,3,41.9999987182618,2|2|2|2,3:2|0:2|0:3|0:2,0:0:0:0:
177,111,52976,2,0,L|115:104,3,41.9999987182618,10|2|2|2,3:2|0:2|0:3|0:2,0:0:0:0:
70,155,53351,1,0,3:0:0:0:
66,176,53444,1,0,3:0:0:0:
62,197,53538,1,0,3:0:0:0:
58,217,53632,1,0,3:0:0:0:
54,238,53726,6,0,L|46:290,1,41.9999987182618,10|0,3:2|3:0,0:0:0:0:
118,305,53913,2,0,L|110:357,1,41.9999987182618,0|0,3:0|3:0,0:0:0:0:
223,328,54101,6,0,P|263:341|317:327,1,83.9999974365235,6|2,3:2|0:2,0:0:0:0:
366,185,54476,1,10,3:2:0:0:
294,254,54663,1,2,0:2:0:0:
199,221,54851,2,0,P|192:179|205:140,1,83.9999974365235,2|0,3:2|0:0,0:0:0:0:
272,18,55225,2,0,L|277:115,1,83.9999974365235,10|2,3:2|0:2,0:0:0:0:
415,30,55600,6,0,P|462:29|509:55,1,83.9999974365235,2|2,3:2|0:2,0:0:0:0:
512,216,55975,1,10,3:2:0:0:
476,121,56162,1,2,0:2:0:0:
412,200,56350,2,0,P|410:242|438:289,1,83.9999974365235,2|2,3:2|0:3,0:0:0:0:
512,346,56725,1,10,3:2:0:0:
337,292,56912,1,2,0:2:0:0:
337,292,57006,1,2,0:3:0:0:
337,292,57100,6,0,L|323:382,1,83.9999974365235,2|0,3:2|0:0,0:0:0:0:
175,292,57474,2,0,L|189:382,1,83.9999974365235,10|0,3:2|0:0,0:0:0:0:
357,162,57849,2,0,L|369:78,1,83.9999974365235,2|0,3:2|0:0,0:0:0:0:
155,162,58224,2,0,L|142:78,1,83.9999974365235,10|0,3:2|0:0,0:0:0:0:
337,292,58599,5,6,3:2:0:0:
175,292,58786,1,2,3:2:0:0:
357,162,58974,1,6,3:2:0:0:
155,162,59161,1,2,3:2:0:0:
256,48,59349,1,6,3:2:0:0:
256,48,60098,6,0,L|361:62,1,83.9999974365235,6|2,3:2|0:2,0:0:0:0:
217,131,60473,2,0,L|112:145,1,83.9999974365235,10|2,3:2|0:2,0:0:0:0:
416,109,60848,2,0,P|432:66|418:12,1,83.9999974365235,2|0,3:2|0:0,0:0:0:0:
264,205,61223,2,0,P|248:248|262:302,1,83.9999974365235,10|0,3:2|0:0,0:0:0:0:
488,311,61598,5,2,3:2:0:0:
372,200,61785,1,2,0:2:0:0:
495,319,61972,1,10,3:2:0:0:
364,191,62160,1,2,0:2:0:0:
383,355,62347,2,0,B|400:332|400:332|408:263,1,83.9999974365235,2|2,3:2|0:3,0:0:0:0:
508,141,62722,1,8,3:2:0:0:
508,151,62815,1,8,0:0:0:0:
509,161,62909,1,8,0:0:0:0:
405,80,63097,6,0,L|290:91,1,83.9999974365235,2|0,3:2|0:0,0:0:0:0:
169,30,63472,1,10,3:2:0:0:
169,30,63659,1,0,0:0:0:0:
233,98,63847,2,0,L|244:213,1,83.9999974365235,2|0,3:2|0:0,0:0:0:0:
160,338,64221,1,10,3:2:0:0:
160,338,64409,1,0,0:0:0:0:
230,287,64596,6,0,B|201:257|201:257|151:249,1,83.9999974365235,2|2,3:2|0:2,0:0:0:0:
80,381,64971,2,0,B|65:342|65:342|77:302,1,83.9999974365235,10|2,3:2|0:2,0:0:0:0:
177,174,65346,1,2,3:2:0:0:
174,160,65439,1,0,3:0:0:0:
172,148,65533,1,2,3:2:0:0:
64,121,65721,1,10,3:2:0:0:
69,97,65814,1,0,3:0:0:0:
72,72,65908,1,2,3:2:0:0:
77,46,66002,1,0,3:0:0:0:
80,25,66096,6,0,P|115:43|160:42,1,83.9999974365235,6|2,3:2|0:2,0:0:0:0:
317,27,66470,2,0,P|282:9|237:10,1,83.9999974365235,10|2,3:2|0:2,0:0:0:0:
270,179,66845,2,0,L|263:90,1,83.9999974365235,2|0,3:2|0:0,0:0:0:0:
405,18,67220,2,0,L|412:107,1,83.9999974365235,10|0,3:2|0:0,0:0:0:0:
426,275,67595,5,2,3:2:0:0:
270,179,67782,1,2,0:2:0:0:
431,266,67970,1,10,3:2:0:0:
261,189,68157,1,2,0:2:0:0:
395,183,68345,2,0,P|360:203|337:245,1,83.9999974365235,2|2,3:2|0:3,0:0:0:0:
301,373,68719,1,8,3:2:0:0:
298,362,68812,1,8,0:0:0:0:
296,352,68906,1,8,0:0:0:0:
294,342,69000,1,8,0:0:0:0:
292,331,69094,6,0,L|205:340,1,83.9999974365235,2|0,3:2|0:0,0:0:0:0:
88,229,69469,2,0,P|62:259|60:313,1,83.9999974365235,10|2,3:2|0:2,0:0:0:0:
141,294,69844,1,2,3:2:0:0:
121,152,70031,2,0,P|83:146|34:169,1,83.9999974365235,2|8,0:2|3:2,0:0:0:0:
204,234,70406,1,2,0:2:0:0:
276,175,70594,6,0,L|328:183,3,41.9999987182618,8|8|10|8,3:3|0:3|0:3|0:3,0:0:0:0:
236,107,70969,2,0,L|184:115,3,41.9999987182618,8|8|10|8,3:2|0:3|0:3|0:3,0:0:0:0:
291,45,71343,5,8,3:3:0:0:
303,46,71436,1,8,0:3:0:0:
315,48,71530,1,10,0:3:0:0:
329,49,71624,1,8,0:3:0:0:
353,72,71719,5,10,3:2:0:0:
378,68,71812,1,2,0:0:0:0:
404,64,71906,1,2,0:0:0:0:
430,61,72000,1,2,0:0:0:0:
459,77,72093,6,0,L|468:179,1,83.9999974365235,6|2,3:2|0:2,0:0:0:0:
310,214,72468,2,0,P|347:198|393:208,1,83.9999974365235,10|2,3:2|0:2,0:0:0:0:
364,367,72843,2,0,L|356:283,1,83.9999974365235,2|0,3:2|0:0,0:0:0:0:
237,164,73218,2,0,P|221:201|231:247,1,83.9999974365235,10|0,3:2|0:0,0:0:0:0:
36,348,73592,5,2,3:2:0:0:
178,302,73780,1,2,0:2:0:0:
38,256,73967,1,10,3:2:0:0:
126,380,74155,1,2,0:2:0:0:
122,230,74342,2,0,L|117:128,1,83.9999974365235,2|2,3:2|0:3,0:0:0:0:
31,105,74717,1,8,3:2:0:0:
31,115,74810,1,8,0:0:0:0:
31,125,74904,1,8,0:0:0:0:
132,33,75092,6,0,P|162:58|213:60,1,83.9999974365235,2|0,3:2|0:0,0:0:0:0:
349,18,75467,1,10,3:2:0:0:
349,18,75654,1,0,0:0:0:0:
295,85,75841,2,0,P|301:123|277:168,1,83.9999974365235,2|0,3:2|0:0,0:0:0:0:
156,267,76216,1,10,3:2:0:0:
156,267,76404,1,0,0:0:0:0:
247,241,76591,6,0,L|236:338,1,83.9999974365235,2|2,3:2|0:2,0:0:0:0:
382,243,76966,2,0,L|393:340,1,83.9999974365235,10|2,3:2|0:2,0:0:0:0:
312,174,77341,1,2,3:2:0:0:
312,160,77434,1,0,3:0:0:0:
312,148,77528,1,2,3:2:0:0:
407,165,77716,1,10,3:2:0:0:
432,166,77809,1,0,3:0:0:0:
458,168,77903,1,2,3:2:0:0:
485,172,77997,1,0,3:0:0:0:
510,174,78090,6,0,P|511:131|490:85,1,83.9999974365235,6|2,3:2|0:2,0:0:0:0:
369,25,78465,2,0,L|452:19,1,83.9999974365235,10|2,3:2|0:2,0:0:0:0:
337,109,78840,2,0,L|253:103,1,83.9999974365235,2|0,3:2|0:0,0:0:0:0:
419,147,79215,2,0,P|403:185|405:227,1,83.9999974365235,10|0,3:2|0:0,0:0:0:0:
458,365,79590,5,2,3:2:0:0:
336,288,79777,1,2,0:2:0:0:
483,275,79965,1,10,3:2:0:0:
368,369,80152,1,2,0:2:0:0:
405,227,80339,2,0,P|407:181|391:139,1,83.9999974365235,2|2,3:2|0:3,0:0:0:0:
336,288,80714,1,8,3:2:0:0:
315,289,80807,1,8,0:0:0:0:
294,291,80901,1,8,0:0:0:0:
273,293,80995,1,8,0:0:0:0:
252,295,81089,6,0,L|151:304,1,83.9999974365235,2|0,3:2|0:0,0:0:0:0:
171,127,81464,1,10,3:2:0:0:
171,127,81651,1,2,0:2:0:0:
228,196,81839,2,0,L|329:205,1,83.9999974365235,2|0,3:2|0:0,0:0:0:0:
223,58,82214,1,10,3:2:0:0:
223,58,82401,1,2,0:2:0:0:
324,111,82588,5,6,3:2:0:0:
187,272,82776,1,2,3:2:0:0:
299,35,83151,5,2,3:2:0:0:
212,348,83526,5,2,3:2:0:0:
228,340,84088,6,0,P|250:294|257:255,1,83.9999974365235,6|2,3:2|0:2,0:0:0:0:
249,188,84369,1,2,0:2:0:0:
247,156,84463,2,0,P|201:134|162:127,1,83.9999974365235,10|2,3:2|0:2,0:0:0:0:
117,184,84744,1,2,0:2:0:0:
85,205,84838,5,2,3:2:0:0:
55,205,84931,1,2,0:2:0:0:
26,196,85025,1,2,0:2:0:0:
0,186,85119,1,2,0:2:0:0:
39,88,85306,1,2,0:2:0:0:
45,70,85400,1,2,0:2:0:0:
49,54,85494,1,2,0:2:0:0:
76,30,85587,6,0,L|130:25,3,41.9999987182618,2|2|2|2,3:2|0:2|0:2|0:2,0:0:0:0:
154,91,85962,2,0,L|208:96,3,41.9999987182618,10|2|2|2,3:2|0:2|0:2|0:2,0:0:0:0:
239,161,86337,1,2,3:2:0:0:
269,156,86430,1,2,0:2:0:0:
297,143,86524,1,2,0:2:0:0:
322,125,86618,1,2,0:2:0:0:
344,98,86712,2,0,P|364:107|396:110,3,41.9999987182618,8|10|10|10,3:2|0:2|0:2|0:2,0:0:0:0:
410,37,87087,5,2,3:2:0:0:
430,39,87180,1,2,0:2:0:0:
467,117,87368,2,0,L|516:108,1,41.9999987182618,2|10,0:2|3:2,0:0:0:0:
428,196,87649,1,2,0:2:0:0:
408,198,87742,1,2,0:2:0:0:
469,264,87930,2,0,L|518:273,1,41.9999987182618,2|2,0:2|0:2,0:0:0:0:
375,301,88211,2,0,L|388:396,1,83.9999974365235,10|2,3:2|0:2,0:0:0:0:
263,367,88586,5,2,3:2:0:0:
244,366,88679,1,2,0:2:0:0:
187,307,88867,2,0,L|141:316,1,41.9999987182618,2|10,0:2|3:2,0:0:0:0:
235,246,89148,1,2,0:2:0:0:
254,245,89241,1,2,0:2:0:0:
175,190,89429,2,0,L|133:181,1,41.9999987182618,2|2,0:2|0:2,0:0:0:0:
257,133,89711,1,10,3:2:0:0:
257,133,89898,1,2,0:2:0:0:
266,36,90085,6,0,P|228:55|174:54,1,83.9999974365235,6|2,3:2|0:2,0:0:0:0:
113,27,90367,1,2,0:2:0:0:
82,15,90460,2,0,P|41:18|4:36,1,83.9999974365235,10|2,3:2|0:2,0:0:0:0:
16,114,90741,1,2,0:2:0:0:
36,137,90835,5,2,3:2:0:0:
61,140,90928,1,2,0:2:0:0:
87,139,91022,1,2,0:2:0:0:
111,130,91116,1,2,0:2:0:0:
184,191,91303,1,2,0:2:0:0:
180,206,91397,1,2,0:2:0:0:
174,223,91491,1,2,0:2:0:0:
188,252,91584,6,0,L|246:246,3,48.9999985046387,2|2|2|2,3:2|0:2|0:2|0:2,0:0:0:0:
264,318,91959,2,0,L|322:323,3,48.9999985046387,10|2|2|2,3:2|0:2|0:2|0:2,0:0:0:0:
359,253,92334,1,2,3:2:0:0:
361,220,92427,1,2,0:2:0:0:
365,189,92521,1,2,0:2:0:0:
368,156,92615,1,2,0:2:0:0:
373,127,92709,2,0,L|379:65,3,48.9999985046387,8|10|10|10,3:2|0:2|0:2|0:2,0:0:0:0:
459,84,93084,5,6,3:2:0:0:
485,111,93177,1,2,3:2:0:0:
504,145,93271,1,2,3:2:0:0:
512,186,93365,1,2,3:2:0:0:
506,226,93458,1,2,3:2:0:0:
436,322,93646,5,6,3:2:0:0:
403,346,93739,1,2,3:2:0:0:
366,359,93833,1,2,3:2:0:0:
327,362,93927,1,2,3:2:0:0:
288,352,94020,1,2,3:2:0:0:
195,278,94209,5,6,3:2:0:0:
183,240,94302,1,2,3:2:0:0:
199,197,94396,6,0,L|251:188,3,41.9999987182618,6|0|2|0,3:2|0:0|0:0|0:0,0:0:0:0:
255,113,94771,2,0,L|304:131,3,41.9999987182618,0|0|2|0,3:0|0:0|0:0|0:0,0:0:0:0:
221,41,95145,2,0,L|273:32,3,41.9999987182618,0|0|2|0,3:0|0:0|0:0|0:0,0:0:0:0:
156,84,95521,6,0,P|131:89|101:109,1,41.9999987182618,0|2,3:0|0:0,0:0:0:0:
107,174,95708,1,2,0:0:0:0:
106,185,95802,1,2,0:0:0:0:
105,195,95896,1,2,0:0:0:0:
105,205,95989,1,2,0:0:0:0:
105,216,96083,6,0,L|112:314,1,70,4|0,3:1|0:0,0:0:0:0:
21,384,96458,2,0,L|26:315,1,70,10|0,3:2|0:0,0:0:0:0:
259,200,96832,2,0,L|266:298,1,70,2|0,3:2|0:0,0:0:0:0:
184,384,97207,2,0,L|189:315,1,70,10|0,3:2|0:0,0:0:0:0:
344,341,97582,5,2,3:2:0:0:
404,279,97769,1,2,0:2:0:0:
361,204,97956,1,10,3:2:0:0:
425,143,98144,1,2,0:2:0:0:
376,70,98332,6,0,L|306:75,1,70,2|2,3:2|0:3,0:0:0:0:
263,134,98613,1,2,0:3:0:0:
246,141,98707,2,0,L|199:134,1,35,10|8,3:2|0:2,0:0:0:0:
190,64,98894,1,8,0:2:0:0:
190,64,98988,1,8,0:2:0:0:
190,64,99081,6,0,P|158:74|99:71,1,70,2|0,3:2|0:0,0:0:0:0:
233,233,99456,2,0,P|265:223|324:226,1,70,10|0,3:2|0:0,0:0:0:0:
68,154,99831,2,0,P|36:164|-23:161,1,70,2|0,3:2|0:0,0:0:0:0:
151,193,100206,1,8,3:2:0:0:
93,316,100393,6,0,L|239:324,1,140,2|2,0:2|0:2,0:0:0:0:
320,381,100956,1,10,3:2:0:0:
362,264,101143,1,2,0:2:0:0:
462,352,101330,1,2,3:2:0:0:
465,335,101423,1,2,3:2:0:0:
468,318,101517,1,2,3:2:0:0:
471,301,101611,1,2,3:2:0:0:
475,285,101705,2,0,L|471:227,3,35,10|2|2|2,3:2|3:2|3:2|3:2,0:0:0:0:
512,176,102080,6,0,P|482:162|432:163,1,70,6|0,3:2|0:0,0:0:0:0:
324,81,102455,2,0,P|354:95|404:94,1,70,10|0,3:2|0:0,0:0:0:0:
373,210,102830,2,0,L|359:299,1,70,2|0,3:2|0:0,0:0:0:0:
243,124,103205,2,0,L|233:55,1,70,10|0,3:2|0:0,0:0:0:0:
119,54,103579,5,2,3:2:0:0:
31,81,103767,1,2,0:2:0:0:
26,173,103954,1,10,3:2:0:0:
115,201,104142,1,2,0:2:0:0:
208,199,104329,6,0,P|202:234|169:277,1,70,2|2,3:2|0:3,0:0:0:0:
111,280,104610,1,2,0:3:0:0:
93,290,104704,2,0,L|46:282,1,35,10|8,3:2|0:0,0:0:0:0:
93,376,104891,1,8,0:0:0:0:
93,376,104985,1,8,0:0:0:0:
93,376,105079,6,0,L|192:359,1,70,2|0,3:2|0:0,0:0:0:0:
254,275,105454,2,0,L|155:258,1,70,10|0,3:2|0:0,0:0:0:0:
311,348,105828,6,0,L|410:331,1,70,2|0,3:2|0:0,0:0:0:0:
328,223,106203,1,8,3:2:0:0:
185,263,106391,5,6,3:2:0:0:
185,65,106765,1,2,3:2:0:0:
327,263,107140,1,2,3:2:0:0:
327,65,107515,1,2,3:2:0:0:
327,65,108077,6,0,L|421:74,1,83.9999974365235,6|2,3:2|0:2,0:0:0:0:
512,107,108451,1,10,3:2:0:0:
442,172,108639,1,2,0:2:0:0:
504,247,108826,2,0,L|495:341,1,83.9999974365235,2|0,3:2|0:0,0:0:0:0:
347,290,109201,2,0,P|377:255|423:243,1,83.9999974365235,10|2,3:2|0:2,0:0:0:0:
240,352,109576,6,0,L|156:364,1,83.9999974365235,2|2,3:2|0:2,0:0:0:0:
46,347,109951,1,10,3:2:0:0:
108,275,110138,1,2,0:2:0:0:
43,218,110326,2,0,L|54:133,1,83.9999974365235,2|2,3:2|0:3,0:0:0:0:
117,29,110700,1,10,3:2:0:0:
161,127,110888,1,2,0:2:0:0:
161,127,110981,1,2,0:3:0:0:
161,127,111075,6,0,B|201:146|201:146|259:136,1,83.9999974365235,2|0,3:2|0:0,0:0:0:0:
293,34,111451,2,0,B|296:78|296:78|334:123,1,83.9999974365235,10|0,3:2|0:0,0:0:0:0:
439,101,111826,2,0,B|402:126|402:126|382:181,1,83.9999974365235,2|0,3:2|0:0,0:0:0:0:
453,260,112200,2,0,B|412:240|412:240|354:251,1,83.9999974365235,10|0,3:2|0:0,0:0:0:0:
291,333,112575,6,0,L|284:271,3,41.9999987182618,2|2|2|2,3:2|0:2|0:3|0:2,0:0:0:0:
213,327,112950,2,0,L|206:265,3,41.9999987182618,10|2|2|2,3:2|0:2|0:3|0:2,0:0:0:0:
252,219,113324,1,0,3:0:0:0:
248,198,113419,1,0,3:0:0:0:
244,177,113511,1,0,3:0:0:0:
240,157,113605,1,0,3:0:0:0:
236,136,113700,6,0,L|228:84,1,41.9999987182618,10|0,3:2|3:0,0:0:0:0:
306,98,113887,2,0,L|298:46,1,41.9999987182618,0|0,3:0|3:0,0:0:0:0:
378,162,114075,6,0,P|454:178|529:152,2,140,6|2|2,0:2|0:2|0:2,0:0:0:0:
140,111,115199,2,0,L|144:27,1,70,2|2,0:2|0:2,0:0:0:0:
70,160,115574,6,0,P|138:143|207:167,2,140,6|2|2,0:2|0:2|0:2,0:0:0:0:
92,244,116511,2,0,L|85:281,2,35,2|2|2,0:3|0:3|0:2,0:0:0:0:
185,263,116885,1,2,0:2:0:0:
185,263,116979,1,2,0:3:0:0:
185,263,117073,6,0,L|171:353,1,83.9999974365235,2|0,3:2|0:0,0:0:0:0:
327,263,117448,2,0,L|341:353,1,83.9999974365235,2|0,3:2|0:0,0:0:0:0:
161,167,117823,2,0,L|147:77,1,83.9999974365235,2|0,3:2|0:0,0:0:0:0:
351,167,118198,2,0,L|365:77,1,83.9999974365235,2|0,3:2|0:0,0:0:0:0:
256,192,118573,12,0,119697,0:0:0:0:
458,125,120072,6,0,L|444:230,1,83.9999974365235,6|2,3:2|0:2,0:0:0:0:
375,86,120447,2,0,L|361:-19,1,83.9999974365235,10|2,3:2|0:2,0:0:0:0:
397,285,120822,2,0,P|440:301|494:287,1,83.9999974365235,2|0,3:2|0:0,0:0:0:0:
301,133,121197,2,0,P|258:117|204:131,1,83.9999974365235,10|0,3:2|0:0,0:0:0:0:
124,321,121572,5,2,3:2:0:0:
240,210,121759,1,2,0:2:0:0:
117,329,121946,1,10,3:2:0:0:
248,201,122134,1,2,0:2:0:0:
229,365,122321,2,0,B|212:342|212:342|204:273,1,83.9999974365235,2|2,3:2|0:3,0:0:0:0:
104,151,122696,1,8,3:2:0:0:
104,161,122789,1,8,0:0:0:0:
103,171,122883,1,8,0:0:0:0:
61,67,123071,6,0,L|176:56,1,83.9999974365235,2|0,3:2|0:0,0:0:0:0:
297,117,123446,1,10,3:2:0:0:
297,117,123633,1,0,0:0:0:0:
216,207,123821,2,0,L|205:92,1,83.9999974365235,2|0,3:2|0:0,0:0:0:0:
419,45,124195,1,10,3:2:0:0:
419,45,124383,1,0,0:0:0:0:
383,119,124570,6,0,B|371:159|371:159|389:206,1,83.9999974365235,2|2,3:2|0:2,0:0:0:0:
509,115,124945,2,0,B|524:154|524:154|512:194,1,83.9999974365235,10|2,3:2|0:2,0:0:0:0:
452,254,125320,1,2,3:2:0:0:
453,267,125413,1,0,3:0:0:0:
454,279,125507,1,2,3:2:0:0:
415,350,125695,1,10,3:2:0:0:
391,344,125788,1,0,3:0:0:0:
365,342,125882,1,2,3:2:0:0:
339,337,125976,1,0,3:0:0:0:
314,334,126070,6,0,P|279:316|234:317,1,83.9999974365235,6|2,3:2|0:2,0:0:0:0:
97,361,126444,2,0,P|132:379|177:378,1,83.9999974365235,10|2,3:2|0:2,0:0:0:0:
143,203,126819,2,0,L|149:286,1,83.9999974365235,2|0,3:2|0:0,0:0:0:0:
281,220,127194,2,0,L|274:136,1,83.9999974365235,10|0,3:2|0:0,0:0:0:0:
129,101,127569,5,2,3:2:0:0:
285,5,127756,1,2,0:2:0:0:
124,92,127944,1,10,3:2:0:0:
294,15,128131,1,2,0:2:0:0:
160,9,128319,2,0,P|195:29|218:71,1,83.9999974365235,2|2,3:2|0:3,0:0:0:0:
68,170,128693,1,8,3:2:0:0:
57,167,128786,1,8,0:0:0:0:
47,165,128880,1,8,0:0:0:0:
37,163,128974,1,8,0:0:0:0:
26,161,129068,6,0,L|35:74,1,83.9999974365235,2|0,3:2|0:0,0:0:0:0:
94,267,129443,2,0,P|124:293|178:295,1,83.9999974365235,10|2,3:2|0:2,0:0:0:0:
159,214,129818,1,2,3:2:0:0:
242,199,130005,2,0,P|228:163|183:132,1,83.9999974365235,2|8,0:2|3:2,0:0:0:0:
94,267,130380,1,2,0:2:0:0:
248,323,130568,6,0,L|240:375,3,41.9999987182618,8|8|10|8,3:3|0:3|0:3|0:3,0:0:0:0:
303,269,130943,2,0,L|295:217,3,41.9999987182618,8|8|10|8,3:2|0:3|0:3|0:3,0:0:0:0:
340,338,131317,5,8,3:3:0:0:
353,339,131410,1,8,0:3:0:0:
366,341,131504,1,10,0:3:0:0:
380,342,131598,1,8,0:3:0:0:
405,366,131693,5,10,3:2:0:0:
431,363,131786,1,2,0:0:0:0:
460,358,131880,1,2,0:0:0:0:
487,354,131974,1,2,0:0:0:0:
508,323,132067,6,0,L|499:221,1,83.9999974365235,6|2,3:2|0:2,0:0:0:0:
357,99,132442,2,0,P|394:83|440:93,1,83.9999974365235,10|2,3:2|0:2,0:0:0:0:
411,252,132817,2,0,L|403:168,1,83.9999974365235,2|0,3:2|0:0,0:0:0:0:
284,49,133192,2,0,P|268:86|278:132,1,83.9999974365235,10|0,3:2|0:0,0:0:0:0:
189,245,133566,5,2,3:2:0:0:
331,199,133754,1,2,0:2:0:0:
191,153,133941,1,10,3:2:0:0:
279,277,134129,1,2,0:2:0:0:
275,127,134316,2,0,L|270:25,1,83.9999974365235,2|2,3:2|0:3,0:0:0:0:
187,47,134691,1,8,3:2:0:0:
187,57,134784,1,8,0:0:0:0:
187,67,134878,1,8,0:0:0:0:
153,166,135066,6,0,P|123:191|72:193,1,83.9999974365235,2|0,3:2|0:0,0:0:0:0:
14,53,135441,1,10,3:2:0:0:
14,53,135628,1,0,0:0:0:0:
100,31,135815,2,0,P|106:69|82:114,1,83.9999974365235,2|0,3:2|0:0,0:0:0:0:
8,245,136190,1,10,3:2:0:0:
8,245,136378,1,0,0:0:0:0:
101,214,136565,6,0,L|90:311,1,83.9999974365235,2|2,3:2|0:2,0:0:0:0:
228,308,136940,2,0,L|234:224,1,83.9999974365235,10|2,3:2|0:2,0:0:0:0:
150,361,137315,1,2,3:2:0:0:
150,372,137408,1,0,3:0:0:0:
148,382,137502,1,2,3:2:0:0:
318,292,137690,1,10,3:2:0:0:
343,290,137783,1,0,3:0:0:0:
369,288,137877,1,2,3:2:0:0:
396,285,137971,1,0,3:0:0:0:
421,281,138064,6,0,P|422:324|401:370,1,83.9999974365235,6|2,3:2|0:2,0:0:0:0:
429,194,138439,2,0,L|512:188,1,83.9999974365235,10|2,3:2|0:2,0:0:0:0:
360,133,138814,2,0,L|276:127,1,83.9999974365235,2|0,3:2|0:0,0:0:0:0:
463,26,139189,2,0,P|447:64|449:106,1,83.9999974365235,10|0,3:2|0:0,0:0:0:0:
307,271,139564,5,2,3:2:0:0:
429,194,139751,1,2,0:2:0:0:
282,181,139939,1,10,3:2:0:0:
397,275,140126,1,2,0:2:0:0:
360,133,140313,2,0,P|352:89|365:47,1,83.9999974365235,2|2,3:2|0:3,0:0:0:0:
282,181,140688,1,8,3:2:0:0:
261,182,140781,1,8,0:0:0:0:
240,184,140875,1,8,0:0:0:0:
219,186,140969,1,8,0:0:0:0:
198,188,141063,6,0,L|97:197,1,83.9999974365235,2|0,3:2|0:0,0:0:0:0:
22,124,141438,1,10,3:2:0:0:
22,124,141625,1,2,0:2:0:0:
106,111,141813,2,0,L|113:194,1,83.9999974365235,2|0,3:2|0:0,0:0:0:0:
205,320,142188,1,10,3:2:0:0:
205,320,142375,1,2,0:2:0:0:
318,277,142562,5,6,3:2:0:0:
194,107,142750,1,2,3:2:0:0:
189,340,143124,5,2,3:2:0:0:
321,42,143499,5,2,3:2:0:0:
311,63,144062,6,0,P|333:109|340:148,1,83.9999974365235,6|2,3:2|0:2,0:0:0:0:
332,215,144343,1,2,0:2:0:0:
316,250,144437,2,0,P|270:272|231:279,1,83.9999974365235,10|2,3:2|0:2,0:0:0:0:
179,224,144718,1,2,0:2:0:0:
152,195,144812,5,2,3:2:0:0:
122,195,144905,1,2,0:2:0:0:
93,201,144999,1,2,0:2:0:0:
67,211,145093,1,2,0:2:0:0:
50,310,145280,1,2,0:2:0:0:
56,327,145374,1,2,0:2:0:0:
60,342,145468,1,2,0:2:0:0:
88,361,145561,6,0,L|142:366,3,41.9999987182618,2|2|2|2,3:2|0:2|0:2|0:2,0:0:0:0:
199,329,145936,2,0,L|253:324,3,41.9999987182618,10|2|2|2,3:2|0:2|0:2|0:2,0:0:0:0:
283,254,146311,1,2,3:2:0:0:
278,223,146404,1,2,0:2:0:0:
265,195,146498,1,2,0:2:0:0:
248,171,146592,1,2,0:2:0:0:
227,150,146686,2,0,P|236:130|239:98,3,41.9999987182618,8|10|10|10,3:2|0:2|0:2|0:2,0:0:0:0:
147,126,147061,5,2,3:2:0:0:
127,128,147154,1,2,0:2:0:0:
101,44,147342,2,0,L|150:35,1,41.9999987182618,2|10,0:2|3:2,0:0:0:0:
45,104,147623,1,2,0:2:0:0:
25,106,147716,1,2,0:2:0:0:
7,186,147904,2,0,L|56:195,1,41.9999987182618,2|2,0:2|0:2,0:0:0:0:
138,218,148185,2,0,L|151:313,1,83.9999974365235,10|2,3:2|0:2,0:0:0:0:
255,169,148560,5,2,3:2:0:0:
274,168,148653,1,2,0:2:0:0:
269,82,148841,2,0,L|227:90,1,41.9999987182618,2|10,0:2|3:2,0:0:0:0:
346,125,149122,1,2,0:2:0:0:
365,124,149215,1,2,0:2:0:0:
410,51,149403,2,0,L|368:42,1,41.9999987182618,2|2,0:2|0:2,0:0:0:0:
462,132,149685,1,10,3:2:0:0:
462,132,149872,1,2,0:2:0:0:
417,201,150059,6,0,P|414:243|386:289,1,83.9999974365235,6|2,3:2|0:2,0:0:0:0:
314,276,150341,1,2,0:2:0:0:
283,256,150434,2,0,P|242:259|205:277,1,83.9999974365235,10|2,3:2|0:2,0:0:0:0:
206,358,150715,1,2,0:2:0:0:
236,378,150809,5,2,3:2:0:0:
266,382,150902,1,2,0:2:0:0:
299,381,150996,1,2,0:2:0:0:
329,370,151090,1,2,0:2:0:0:
441,346,151277,1,2,0:2:0:0:
456,350,151371,1,2,0:2:0:0:
473,356,151465,1,2,0:2:0:0:
502,342,151558,6,0,L|496:284,3,48.9999985046387,2|2|2|2,3:2|0:2|0:2|0:2,0:0:0:0:
428,254,151933,2,0,L|433:196,3,48.9999985046387,10|2|2|2,3:2|0:2|0:2|0:2,0:0:0:0:
453,131,152308,1,2,3:2:0:0:
422,128,152401,1,2,0:2:0:0:
394,124,152495,1,2,0:2:0:0:
364,122,152589,1,2,0:2:0:0:
334,118,152683,2,0,L|272:112,3,48.9999985046387,8|10|10|10,3:2|0:2|0:2|0:2,0:0:0:0:
241,44,153058,5,6,3:2:0:0:
201,55,153151,1,2,3:2:0:0:
168,75,153245,1,2,3:2:0:0:
140,106,153339,1,2,3:2:0:0:
124,144,153432,1,2,3:2:0:0:
115,248,153620,5,6,3:2:0:0:
124,288,153713,1,2,3:2:0:0:
148,321,153807,1,2,3:2:0:0:
178,348,153901,1,2,3:2:0:0:
217,365,153994,1,2,3:2:0:0:
333,341,154183,5,6,3:2:0:0:
364,313,154276,1,2,3:2:0:0:
372,273,154370,6,0,L|331:239,3,41.9999987182618,6|0|2|0,3:2|0:0|0:0|0:0,0:0:0:0:
404,198,154744,2,0,L|385:148,3,41.9999987182618,0|0|2|0,3:0|0:0|0:0|0:0,0:0:0:0:
470,146,155119,2,0,L|479:94,3,41.9999987182618,0|0|2|0,3:0|0:0|0:0|0:0,0:0:0:0:
406,63,155495,6,0,P|386:54|366:50,1,41.9999987182618,0|2,3:0|0:0,0:0:0:0:
299,89,155682,1,2,0:0:0:0:
288,88,155776,1,2,0:0:0:0:
278,87,155870,1,2,0:0:0:0:
268,87,155963,1,2,0:0:0:0:
