osu file format v14

[General]
AudioFilename: Ano Mori de Matteru.mp3
AudioLeadIn: 0
PreviewTime: -1
Countdown: 0
SampleSet: Soft
StackLeniency: 0.7
Mode: 3
LetterboxInBreaks: 0
SpecialStyle: 1
WidescreenStoryboard: 1

[Editor]
DistanceSpacing: 1
BeatDivisor: 8
GridSize: 8
TimelineZoom: 1.6

[Metadata]
Title:Ano Mori de Matteru (TV size)
TitleUnicode:あの森で待ってる (TVサイズ)
Artist:Bonjour Suzuki
ArtistUnicode:ボンジュール鈴木
Creator:Strugatskaya
Version:HD
Source:
Tags:anime
BeatmapID:646054
BeatmapSetID:286120

[Difficulty]
HPDrainRate:8
CircleSize:7
OverallDifficulty:5
ApproachRate:5
SliderMultiplier:1.4
SliderTickRate:1

[Events]
//Background and Video events
0,0,"bg.jpg",0,0
//Break Periods
//Storyboard Layer 0 (Background)
//Storyboard Layer 1 (Fail)
//Storyboard Layer 2 (Pass)
//Storyboard Layer 3 (Foreground)
//Storyboard Sound Samples

[TimingPoints]
1346,681.818181818182,4,2,0,11,1,0

[HitObjects]
36,192,6118,5,0,0:0:0:0:
109,192,6118,1,0,0:0:0:0:
256,192,6289,1,0,0:0:0:0:
182,192,6459,1,0,0:0:0:0:
329,192,6459,1,0,0:0:0:0:
256,192,6630,1,0,0:0:0:0:
475,192,6800,1,0,0:0:0:0:
402,192,6800,1,0,0:0:0:0:
256,192,6971,1,0,0:0:0:0:
329,192,7141,1,0,0:0:0:0:
182,192,7141,1,0,0:0:0:0:
109,192,7311,1,0,0:0:0:0:
329,192,7311,1,0,0:0:0:0:
36,192,7482,1,0,0:0:0:0:
329,192,7482,1,0,0:0:0:0:
109,192,7652,1,0,0:0:0:0:
256,192,7652,1,0,0:0:0:0:
182,192,7823,1,0,0:0:0:0:
329,192,7823,1,0,0:0:0:0:
256,192,7993,1,0,0:0:0:0:
109,192,8164,1,0,0:0:0:0:
182,192,8164,1,0,0:0:0:0:
36,192,8164,128,0,8505:0:0:0:0:
256,192,8334,1,0,0:0:0:0:
329,192,8334,1,0,0:0:0:0:
109,192,8505,128,0,8846:0:0:0:0:
402,192,8505,1,0,0:0:0:0:
402,192,8846,1,0,0:0:0:0:
475,192,8846,1,0,0:0:0:0:
329,192,9016,1,0,0:0:0:0:
256,192,9186,1,0,0:0:0:0:
182,192,9186,1,0,0:0:0:0:
109,192,9357,1,0,0:0:0:0:
36,192,9357,1,0,0:0:0:0:
182,192,9527,1,0,0:0:0:0:
256,192,9527,1,0,0:0:0:0:
402,192,9698,1,0,0:0:0:0:
329,192,9868,1,0,0:0:0:0:
475,192,9868,1,0,0:0:0:0:
256,192,10039,1,0,0:0:0:0:
475,192,10039,1,0,0:0:0:0:
475,192,10209,1,0,0:0:0:0:
182,192,10209,1,0,0:0:0:0:
36,192,10380,1,0,0:0:0:0:
182,192,10380,1,0,0:0:0:0:
109,192,10465,1,0,0:0:0:0:
256,192,10465,1,0,0:0:0:0:
182,192,10550,1,0,0:0:0:0:
329,192,10550,1,0,0:0:0:0:
329,192,10721,1,0,0:0:0:0:
402,192,10891,1,0,0:0:0:0:
475,192,10891,1,0,0:0:0:0:
182,192,11061,1,0,0:0:0:0:
109,192,11061,1,0,0:0:0:0:
256,192,11232,1,0,0:0:0:0:
256,192,11573,1,0,0:0:0:0:
182,192,11573,1,0,0:0:0:0:
329,192,11573,128,0,12255:0:0:0:0:
109,192,11743,1,0,0:0:0:0:
36,192,11914,1,0,0:0:0:0:
182,192,11914,1,0,0:0:0:0:
109,192,12084,1,0,0:0:0:0:
402,192,12255,1,0,0:0:0:0:
475,192,12255,1,0,0:0:0:0:
256,192,12255,128,0,12936:0:0:0:0:
402,192,12425,1,0,0:0:0:0:
475,192,12596,1,0,0:0:0:0:
475,192,12766,1,0,0:0:0:0:
182,192,12936,128,0,13618:0:0:0:0:
329,192,12936,1,0,0:0:0:0:
475,192,12936,1,0,0:0:0:0:
402,192,13107,1,0,0:0:0:0:
329,192,13277,1,0,0:0:0:0:
256,192,13448,1,0,0:0:0:0:
256,192,13618,1,0,0:0:0:0:
402,192,13618,1,0,0:0:0:0:
109,192,13618,128,0,14300:0:0:0:0:
329,192,13789,1,0,0:0:0:0:
182,192,13959,1,0,0:0:0:0:
256,192,13959,1,0,0:0:0:0:
329,192,14300,1,0,0:0:0:0:
36,192,14300,128,0,16686:0:0:0:0:
475,192,14300,1,0,0:0:0:0:
256,192,14471,1,0,0:0:0:0:
182,192,14641,1,0,0:0:0:0:
109,192,14641,1,0,0:0:0:0:
329,192,14811,1,0,0:0:0:0:
182,192,14982,1,0,0:0:0:0:
256,192,14982,1,0,0:0:0:0:
329,192,15152,1,0,0:0:0:0:
182,192,15323,1,0,0:0:0:0:
402,192,15323,1,0,0:0:0:0:
256,192,15493,1,0,0:0:0:0:
402,192,15493,1,0,0:0:0:0:
402,192,15664,1,0,0:0:0:0:
475,192,15664,1,0,0:0:0:0:
109,192,15834,1,0,0:0:0:0:
256,192,15834,1,0,0:0:0:0:
182,192,15919,1,0,0:0:0:0:
329,192,15919,1,0,0:0:0:0:
256,192,16005,1,0,0:0:0:0:
402,192,16005,1,0,0:0:0:0:
329,192,16175,1,0,0:0:0:0:
182,192,16346,1,0,0:0:0:0:
109,192,16346,1,0,0:0:0:0:
256,192,16516,1,0,0:0:0:0:
329,192,16686,1,0,0:0:0:0:
475,192,16686,1,0,0:0:0:0:
402,192,17027,1,0,0:0:0:0:
475,192,17027,128,0,17368:0:0:0:0:
329,192,17027,1,0,0:0:0:0:
256,192,17368,1,0,0:0:0:0:
182,192,17368,1,0,0:0:0:0:
109,192,17539,1,0,0:0:0:0:
402,192,17709,128,0,18050:0:0:0:0:
256,192,17709,1,0,0:0:0:0:
329,192,17709,1,0,0:0:0:0:
182,192,17880,1,0,0:0:0:0:
329,192,18050,1,0,0:0:0:0:
109,192,18050,1,0,0:0:0:0:
256,192,18221,1,0,0:0:0:0:
36,192,18221,1,0,0:0:0:0:
182,192,18391,1,0,0:0:0:0:
329,192,18391,128,0,18732:0:0:0:0:
36,192,18391,1,0,0:0:0:0:
36,192,18561,1,0,0:0:0:0:
182,192,18732,1,0,0:0:0:0:
256,192,18732,1,0,0:0:0:0:
36,192,18902,1,0,0:0:0:0:
109,192,19073,1,0,0:0:0:0:
256,192,19073,128,0,19414:0:0:0:0:
182,192,19073,1,0,0:0:0:0:
475,192,19243,128,0,19414:0:0:0:0:
182,192,19414,128,0,19755:0:0:0:0:
329,192,19414,1,0,0:0:0:0:
402,192,19414,1,0,0:0:0:0:
329,192,19584,128,0,19755:0:0:0:0:
109,192,19755,1,0,0:0:0:0:
36,192,19755,1,0,0:0:0:0:
256,192,19925,128,0,20096:0:0:0:0:
182,192,20096,1,0,0:0:0:0:
329,192,20096,1,0,0:0:0:0:
182,192,20266,128,0,20436:0:0:0:0:
256,192,20436,1,0,0:0:0:0:
109,192,20436,1,0,0:0:0:0:
36,192,20436,128,0,20777:0:0:0:0:
256,192,20607,128,0,20777:0:0:0:0:
182,192,20777,1,0,0:0:0:0:
329,192,20777,1,0,0:0:0:0:
329,192,20948,1,0,0:0:0:0:
475,192,21118,1,0,0:0:0:0:
109,192,21118,128,0,21459:0:0:0:0:
402,192,21118,1,0,0:0:0:0:
329,192,21289,1,0,0:0:0:0:
475,192,21289,1,0,0:0:0:0:
402,192,21374,1,0,0:0:0:0:
256,192,21374,1,0,0:0:0:0:
329,192,21459,1,0,0:0:0:0:
182,192,21459,1,0,0:0:0:0:
182,192,21630,1,0,0:0:0:0:
36,192,21800,1,0,0:0:0:0:
109,192,21800,1,0,0:0:0:0:
182,192,21800,128,0,22141:0:0:0:0:
109,192,22141,1,0,0:0:0:0:
256,192,22482,1,0,0:0:0:0:
36,192,22482,128,0,23164:0:0:0:0:
329,192,22482,1,0,0:0:0:0:
402,192,22823,1,0,0:0:0:0:
475,192,22823,1,0,0:0:0:0:
329,192,22993,1,0,0:0:0:0:
109,192,23164,128,0,23846:0:0:0:0:
182,192,23164,1,0,0:0:0:0:
256,192,23164,1,0,0:0:0:0:
329,192,23334,1,0,0:0:0:0:
475,192,23505,1,0,0:0:0:0:
402,192,23505,1,0,0:0:0:0:
329,192,23675,1,0,0:0:0:0:
256,192,23846,1,0,0:0:0:0:
182,192,23846,128,0,24527:0:0:0:0:
329,192,23846,1,0,0:0:0:0:
402,192,24016,1,0,0:0:0:0:
329,192,24186,1,0,0:0:0:0:
402,192,24357,1,0,0:0:0:0:
329,192,24527,1,0,0:0:0:0:
256,192,24527,128,0,25209:0:0:0:0:
475,192,24527,1,0,0:0:0:0:
475,192,24698,1,0,0:0:0:0:
402,192,24868,1,0,0:0:0:0:
329,192,25039,1,0,0:0:0:0:
475,192,25209,1,0,0:0:0:0:
402,192,25209,1,0,0:0:0:0:
329,192,25209,128,0,27596:0:0:0:0:
256,192,25550,1,0,0:0:0:0:
182,192,25721,1,0,0:0:0:0:
109,192,25891,1,0,0:0:0:0:
36,192,25891,1,0,0:0:0:0:
182,192,26232,1,0,0:0:0:0:
256,192,26232,1,0,0:0:0:0:
109,192,26402,1,0,0:0:0:0:
36,192,26573,1,0,0:0:0:0:
182,192,26743,1,0,0:0:0:0:
36,192,26743,1,0,0:0:0:0:
109,192,26828,1,0,0:0:0:0:
182,192,26914,1,0,0:0:0:0:
256,192,26914,1,0,0:0:0:0:
36,192,27084,1,0,0:0:0:0:
109,192,27255,1,0,0:0:0:0:
256,192,27255,128,0,27596:0:0:0:0:
182,192,27425,1,0,0:0:0:0:
36,192,27596,1,0,0:0:0:0:
109,192,27596,1,0,0:0:0:0:
402,192,27936,128,0,28618:0:0:0:0:
109,192,27936,1,0,0:0:0:0:
182,192,27936,1,0,0:0:0:0:
256,192,28107,1,0,0:0:0:0:
329,192,28277,1,0,0:0:0:0:
256,192,28448,1,0,0:0:0:0:
109,192,28618,1,0,0:0:0:0:
182,192,28618,1,0,0:0:0:0:
256,192,28959,1,0,0:0:0:0:
329,192,28959,1,0,0:0:0:0:
182,192,29130,1,0,0:0:0:0:
182,192,29300,1,0,0:0:0:0:
36,192,29300,1,0,0:0:0:0:
109,192,29300,128,0,30664:0:0:0:0:
256,192,29471,1,0,0:0:0:0:
329,192,29641,1,0,0:0:0:0:
402,192,29726,1,0,0:0:0:0:
256,192,29811,1,0,0:0:0:0:
329,192,29982,1,0,0:0:0:0:
475,192,29982,1,0,0:0:0:0:
256,192,30323,1,0,0:0:0:0:
182,192,30323,1,0,0:0:0:0:
329,192,30664,1,0,0:0:0:0:
475,192,30664,1,0,0:0:0:0:
402,192,30664,128,0,31346:0:0:0:0:
256,192,30834,1,0,0:0:0:0:
182,192,31005,1,0,0:0:0:0:
109,192,31175,1,0,0:0:0:0:
36,192,31346,1,0,0:0:0:0:
182,192,31346,1,0,0:0:0:0:
256,192,31686,1,0,0:0:0:0:
182,192,31686,1,0,0:0:0:0:
182,192,31857,1,0,0:0:0:0:
36,192,32027,1,0,0:0:0:0:
182,192,32027,1,0,0:0:0:0:
109,192,32027,128,0,33391:0:0:0:0:
256,192,32198,1,0,0:0:0:0:
329,192,32368,1,0,0:0:0:0:
402,192,32539,1,0,0:0:0:0:
329,192,32709,1,0,0:0:0:0:
475,192,32709,1,0,0:0:0:0:
256,192,33050,1,0,0:0:0:0:
329,192,33050,1,0,0:0:0:0:
182,192,33391,1,0,0:0:0:0:
256,192,33391,1,0,0:0:0:0:
256,192,33561,1,0,0:0:0:0:
256,192,33732,1,0,0:0:0:0:
329,192,33732,1,0,0:0:0:0:
182,192,33902,1,0,0:0:0:0:
182,192,34073,1,0,0:0:0:0:
36,192,34073,1,0,0:0:0:0:
256,192,34130,1,0,0:0:0:0:
329,192,34186,1,0,0:0:0:0:
402,192,34243,1,0,0:0:0:0:
475,192,34300,1,0,0:0:0:0:
402,192,34357,1,0,0:0:0:0:
329,192,34414,1,0,0:0:0:0:
256,192,34471,1,0,0:0:0:0:
182,192,34527,1,0,0:0:0:0:
109,192,34584,1,0,0:0:0:0:
36,192,34641,1,0,0:0:0:0:
109,192,34698,1,0,0:0:0:0:
182,192,34755,1,0,0:0:0:0:
256,192,34811,1,0,0:0:0:0:
329,192,34868,1,0,0:0:0:0:
475,192,34925,1,0,0:0:0:0:
402,192,34982,1,0,0:0:0:0:
329,192,35039,1,0,0:0:0:0:
256,192,35096,1,0,0:0:0:0:
182,192,35152,1,0,0:0:0:0:
256,192,35209,1,0,0:0:0:0:
329,192,35266,1,0,0:0:0:0:
402,192,35323,1,0,0:0:0:0:
329,192,35380,1,0,0:0:0:0:
182,192,35436,1,0,0:0:0:0:
36,192,35436,1,0,0:0:0:0:
329,192,35777,1,0,0:0:0:0:
402,192,35777,1,0,0:0:0:0:
256,192,36118,1,0,0:0:0:0:
182,192,36118,1,0,0:0:0:0:
182,192,36800,128,0,38846:0:0:0:0:
256,192,37482,128,0,38846:0:0:0:0:
329,192,38164,128,0,38846:0:0:0:0:
36,192,38846,1,0,0:0:0:0:
109,192,38902,1,0,0:0:0:0:
182,192,38959,1,0,0:0:0:0:
256,192,39016,1,0,0:0:0:0:
329,192,39073,1,0,0:0:0:0:
402,192,39130,1,0,0:0:0:0:
475,192,39186,1,0,0:0:0:0:
36,192,39243,1,0,0:0:0:0:
109,192,39300,1,0,0:0:0:0:
182,192,39357,1,0,0:0:0:0:
256,192,39414,1,0,0:0:0:0:
329,192,39471,1,0,0:0:0:0:
402,192,39527,1,0,0:0:0:0:
475,192,39584,1,0,0:0:0:0:
36,192,39641,1,0,0:0:0:0:
109,192,39698,1,0,0:0:0:0:
182,192,39755,1,0,0:0:0:0:
256,192,39811,1,0,0:0:0:0:
329,192,39868,1,0,0:0:0:0:
402,192,39925,1,0,0:0:0:0:
475,192,39982,1,0,0:0:0:0:
182,192,40039,1,0,0:0:0:0:
36,192,40039,1,0,0:0:0:0:
256,192,40096,1,0,0:0:0:0:
109,192,40096,1,0,0:0:0:0:
329,192,40152,1,0,0:0:0:0:
182,192,40152,1,0,0:0:0:0:
402,192,40209,1,0,0:0:0:0:
256,192,40209,1,0,0:0:0:0:
329,192,40550,128,0,40891:0:0:0:0:
475,192,40550,128,0,40891:0:0:0:0:
256,192,40721,1,0,0:0:0:0:
109,192,40721,1,0,0:0:0:0:
402,192,40891,128,0,41232:0:0:0:0:
256,192,40891,128,0,41232:0:0:0:0:
36,192,41061,1,0,0:0:0:0:
182,192,41061,1,0,0:0:0:0:
182,192,41232,128,0,41573:0:0:0:0:
475,192,41232,128,0,41573:0:0:0:0:
256,192,41402,1,0,0:0:0:0:
402,192,41402,1,0,0:0:0:0:
256,192,41573,128,0,41914:0:0:0:0:
402,192,41573,128,0,41914:0:0:0:0:
475,192,41743,1,0,0:0:0:0:
329,192,41743,1,0,0:0:0:0:
475,192,41914,128,0,42255:0:0:0:0:
329,192,41914,128,0,42255:0:0:0:0:
256,192,42084,1,0,0:0:0:0:
109,192,42084,1,0,0:0:0:0:
402,192,42255,128,0,42596:0:0:0:0:
256,192,42255,128,0,42596:0:0:0:0:
329,192,42425,1,0,0:0:0:0:
475,192,42425,1,0,0:0:0:0:
109,192,42510,1,0,0:0:0:0:
182,192,42596,1,0,0:0:0:0:
36,192,42596,1,0,0:0:0:0:
182,192,42936,1,0,0:0:0:0:
329,192,42936,1,0,0:0:0:0:
182,192,43277,128,0,43618:0:0:0:0:
36,192,43277,128,0,43618:0:0:0:0:
256,192,43448,1,0,0:0:0:0:
109,192,43448,1,0,0:0:0:0:
109,192,43618,128,0,43959:0:0:0:0:
256,192,43618,128,0,43959:0:0:0:0:
182,192,43789,1,0,0:0:0:0:
329,192,43789,1,0,0:0:0:0:
329,192,43959,128,0,44300:0:0:0:0:
475,192,43959,128,0,44300:0:0:0:0:
402,192,44130,1,0,0:0:0:0:
182,192,44130,1,0,0:0:0:0:
402,192,44300,128,0,44641:0:0:0:0:
256,192,44300,128,0,44641:0:0:0:0:
182,192,44471,1,0,0:0:0:0:
109,192,44556,1,0,0:0:0:0:
36,192,44641,1,0,0:0:0:0:
475,192,44641,128,0,44982:0:0:0:0:
182,192,44641,128,0,44982:0:0:0:0:
256,192,44811,1,0,0:0:0:0:
402,192,44811,1,0,0:0:0:0:
36,192,44982,128,0,45323:0:0:0:0:
402,192,44982,128,0,45323:0:0:0:0:
329,192,45152,1,0,0:0:0:0:
182,192,45152,1,0,0:0:0:0:
256,192,45323,1,0,0:0:0:0:
109,192,45323,1,0,0:0:0:0:
329,192,45664,1,0,0:0:0:0:
182,192,45664,1,0,0:0:0:0:
182,192,46005,1,0,0:0:0:0:
36,192,46005,128,0,46346:0:0:0:0:
109,192,46005,1,0,0:0:0:0:
329,192,46175,1,0,0:0:0:0:
256,192,46346,1,0,0:0:0:0:
109,192,46346,128,0,46686:0:0:0:0:
182,192,46346,1,0,0:0:0:0:
402,192,46516,1,0,0:0:0:0:
329,192,46686,1,0,0:0:0:0:
182,192,46686,128,0,47027:0:0:0:0:
256,192,46686,1,0,0:0:0:0:
475,192,46857,1,0,0:0:0:0:
256,192,47027,1,0,0:0:0:0:
402,192,47027,1,0,0:0:0:0:
109,192,47027,128,0,47368:0:0:0:0:
182,192,47198,1,0,0:0:0:0:
329,192,47368,1,0,0:0:0:0:
475,192,47368,1,0,0:0:0:0:
36,192,47368,128,0,47709:0:0:0:0:
256,192,47539,1,0,0:0:0:0:
329,192,47709,1,0,0:0:0:0:
475,192,47709,1,0,0:0:0:0:
109,192,47709,128,0,48050:0:0:0:0:
182,192,47880,1,0,0:0:0:0:
402,192,48050,1,0,0:0:0:0:
256,192,48050,1,0,0:0:0:0:
182,192,48050,128,0,48391:0:0:0:0:
36,192,48221,1,0,0:0:0:0:
109,192,48391,1,0,0:0:0:0:
256,192,48391,1,0,0:0:0:0:
256,192,48561,128,0,48732:0:0:0:0:
329,192,48732,1,0,0:0:0:0:
182,192,48732,1,0,0:0:0:0:
402,192,48902,1,0,0:0:0:0:
182,192,48902,128,0,49073:0:0:0:0:
256,192,49073,1,0,0:0:0:0:
109,192,49073,1,0,0:0:0:0:
329,192,49243,1,0,0:0:0:0:
36,192,49414,1,0,0:0:0:0:
182,192,49414,1,0,0:0:0:0:
329,192,49584,1,0,0:0:0:0:
109,192,49755,1,0,0:0:0:0:
256,192,49755,1,0,0:0:0:0:
36,192,49925,1,0,0:0:0:0:
109,192,49982,1,0,0:0:0:0:
182,192,50039,1,0,0:0:0:0:
256,192,50096,1,0,0:0:0:0:
329,192,50152,1,0,0:0:0:0:
402,192,50209,1,0,0:0:0:0:
475,192,50266,1,0,0:0:0:0:
36,192,50323,1,0,0:0:0:0:
109,192,50380,1,0,0:0:0:0:
182,192,50436,1,0,0:0:0:0:
256,192,50493,1,0,0:0:0:0:
329,192,50550,1,0,0:0:0:0:
402,192,50607,1,0,0:0:0:0:
475,192,50664,1,0,0:0:0:0:
109,192,50721,1,0,0:0:0:0:
182,192,50777,1,0,0:0:0:0:
256,192,50834,1,0,0:0:0:0:
329,192,50891,1,0,0:0:0:0:
402,192,50948,1,0,0:0:0:0:
475,192,51118,1,0,0:0:0:0:
329,192,51118,1,0,0:0:0:0:
329,192,51459,128,0,51800:0:0:0:0:
182,192,51459,128,0,51800:0:0:0:0:
109,192,51630,1,0,0:0:0:0:
256,192,51630,1,0,0:0:0:0:
109,192,51800,128,0,52141:0:0:0:0:
402,192,51800,128,0,52141:0:0:0:0:
256,192,51971,1,0,0:0:0:0:
475,192,51971,1,0,0:0:0:0:
182,192,52141,128,0,52482:0:0:0:0:
475,192,52141,128,0,52482:0:0:0:0:
256,192,52311,1,0,0:0:0:0:
402,192,52311,1,0,0:0:0:0:
256,192,52482,128,0,52823:0:0:0:0:
402,192,52482,128,0,52823:0:0:0:0:
182,192,52652,1,0,0:0:0:0:
109,192,52738,1,0,0:0:0:0:
36,192,52823,1,0,0:0:0:0:
182,192,52823,128,0,53164:0:0:0:0:
329,192,52823,128,0,53164:0:0:0:0:
402,192,52993,1,0,0:0:0:0:
256,192,52993,1,0,0:0:0:0:
109,192,53164,128,0,53505:0:0:0:0:
256,192,53164,128,0,53505:0:0:0:0:
329,192,53334,1,0,0:0:0:0:
475,192,53334,1,0,0:0:0:0:
402,192,53505,1,0,0:0:0:0:
182,192,53505,1,0,0:0:0:0:
182,192,53846,1,0,0:0:0:0:
329,192,53846,1,0,0:0:0:0:
182,192,54186,128,0,54527:0:0:0:0:
329,192,54186,128,0,54527:0:0:0:0:
256,192,54357,1,0,0:0:0:0:
402,192,54357,1,0,0:0:0:0:
402,192,54527,128,0,54868:0:0:0:0:
256,192,54527,128,0,54868:0:0:0:0:
36,192,54698,1,0,0:0:0:0:
182,192,54698,1,0,0:0:0:0:
182,192,54868,128,0,55209:0:0:0:0:
36,192,54868,128,0,55209:0:0:0:0:
256,192,55039,1,0,0:0:0:0:
402,192,55039,1,0,0:0:0:0:
109,192,55209,128,0,55550:0:0:0:0:
256,192,55209,128,0,55550:0:0:0:0:
402,192,55380,1,0,0:0:0:0:
329,192,55465,1,0,0:0:0:0:
402,192,55550,1,0,0:0:0:0:
36,192,55550,128,0,55891:0:0:0:0:
182,192,55550,128,0,55891:0:0:0:0:
256,192,55721,1,0,0:0:0:0:
109,192,55721,1,0,0:0:0:0:
256,192,56232,1,0,0:0:0:0:
402,192,56232,128,0,56573:0:0:0:0:
109,192,56232,1,0,0:0:0:0:
182,192,56573,1,0,0:0:0:0:
329,192,56573,1,0,0:0:0:0:
475,192,56573,128,0,57255:0:0:0:0:
36,192,56914,1,0,0:0:0:0:
182,192,56914,1,0,0:0:0:0:
109,192,57084,1,0,0:0:0:0:
256,192,57084,1,0,0:0:0:0:
36,192,57255,1,0,0:0:0:0:
182,192,57255,1,0,0:0:0:0:
329,192,57596,1,0,0:0:0:0:
182,192,57596,1,0,0:0:0:0:
256,192,57766,1,0,0:0:0:0:
109,192,57766,1,0,0:0:0:0:
182,192,57936,1,0,0:0:0:0:
36,192,57936,128,0,58959:0:0:0:0:
329,192,57936,1,0,0:0:0:0:
109,192,58107,1,0,0:0:0:0:
256,192,58107,1,0,0:0:0:0:
182,192,58277,1,0,0:0:0:0:
329,192,58277,1,0,0:0:0:0:
256,192,58448,1,0,0:0:0:0:
402,192,58448,1,0,0:0:0:0:
329,192,58618,1,0,0:0:0:0:
475,192,58618,1,0,0:0:0:0:
475,192,58959,1,0,0:0:0:0:
329,192,58959,1,0,0:0:0:0:
402,192,59130,1,0,0:0:0:0:
256,192,59130,1,0,0:0:0:0:
329,192,59300,1,0,0:0:0:0:
475,192,59300,128,0,60664:0:0:0:0:
329,192,59641,1,0,0:0:0:0:
109,192,59641,1,0,0:0:0:0:
36,192,59641,1,0,0:0:0:0:
256,192,59811,1,0,0:0:0:0:
402,192,59811,1,0,0:0:0:0:
182,192,59982,1,0,0:0:0:0:
329,192,59982,1,0,0:0:0:0:
109,192,60323,1,0,0:0:0:0:
256,192,60323,1,0,0:0:0:0:
182,192,60493,1,0,0:0:0:0:
329,192,60493,1,0,0:0:0:0:
256,192,60664,1,0,0:0:0:0:
402,192,60664,1,0,0:0:0:0:
109,192,60834,1,0,0:0:0:0:
256,192,60834,1,0,0:0:0:0:
182,192,60919,1,0,0:0:0:0:
329,192,60919,1,0,0:0:0:0:
402,192,61005,1,0,0:0:0:0:
256,192,61005,1,0,0:0:0:0:
329,192,61175,1,0,0:0:0:0:
182,192,61175,1,0,0:0:0:0:
36,192,61175,1,0,0:0:0:0:
256,192,61346,1,0,0:0:0:0:
109,192,61346,1,0,0:0:0:0:
182,192,61516,1,0,0:0:0:0:
256,192,61686,1,0,0:0:0:0:
109,192,61686,1,0,0:0:0:0:
182,192,61857,1,0,0:0:0:0:
329,192,61857,1,0,0:0:0:0:
256,192,62027,1,0,0:0:0:0:
402,192,62027,1,0,0:0:0:0:
36,192,62027,128,0,62368:0:0:0:0:
329,192,62368,1,0,0:0:0:0:
182,192,62368,1,0,0:0:0:0:
109,192,62539,1,0,0:0:0:0:
256,192,62539,1,0,0:0:0:0:
182,192,62709,1,0,0:0:0:0:
329,192,62709,1,0,0:0:0:0:
182,192,63050,1,0,0:0:0:0:
36,192,63050,1,0,0:0:0:0:
256,192,63221,1,0,0:0:0:0:
109,192,63221,1,0,0:0:0:0:
182,192,63391,1,0,0:0:0:0:
329,192,63391,1,0,0:0:0:0:
256,192,63561,1,0,0:0:0:0:
109,192,63561,1,0,0:0:0:0:
329,192,63732,1,0,0:0:0:0:
182,192,63732,1,0,0:0:0:0:
256,192,63902,1,0,0:0:0:0:
402,192,63902,1,0,0:0:0:0:
475,192,64073,1,0,0:0:0:0:
329,192,64073,1,0,0:0:0:0:
36,192,64073,128,0,64755:0:0:0:0:
329,192,64414,1,0,0:0:0:0:
182,192,64414,1,0,0:0:0:0:
329,192,64755,1,0,0:0:0:0:
182,192,64755,1,0,0:0:0:0:
475,192,64755,128,0,65096:0:0:0:0:
402,192,65096,1,0,0:0:0:0:
256,192,65096,1,0,0:0:0:0:
329,192,65266,1,0,0:0:0:0:
182,192,65266,1,0,0:0:0:0:
256,192,65436,1,0,0:0:0:0:
109,192,65436,1,0,0:0:0:0:
256,192,65777,1,0,0:0:0:0:
109,192,65777,1,0,0:0:0:0:
182,192,65948,1,0,0:0:0:0:
329,192,65948,1,0,0:0:0:0:
109,192,66118,1,0,0:0:0:0:
256,192,66118,1,0,0:0:0:0:
182,192,66289,1,0,0:0:0:0:
256,192,66374,1,0,0:0:0:0:
182,192,66459,1,0,0:0:0:0:
36,192,66459,128,0,66800:0:0:0:0:
109,192,66630,1,0,0:0:0:0:
256,192,66630,1,0,0:0:0:0:
182,192,66800,1,0,0:0:0:0:
329,192,66800,1,0,0:0:0:0:
109,192,66800,128,0,67141:0:0:0:0:
256,192,67141,1,0,0:0:0:0:
402,192,67141,1,0,0:0:0:0:
36,192,67141,128,0,70209:0:0:0:0:
329,192,67482,1,0,0:0:0:0:
182,192,67482,1,0,0:0:0:0:
256,192,67652,1,0,0:0:0:0:
109,192,67652,1,0,0:0:0:0:
182,192,67823,1,0,0:0:0:0:
329,192,67823,1,0,0:0:0:0:
256,192,67993,1,0,0:0:0:0:
402,192,67993,1,0,0:0:0:0:
182,192,68164,1,0,0:0:0:0:
329,192,68164,1,0,0:0:0:0:
182,192,68505,1,0,0:0:0:0:
475,192,68505,1,0,0:0:0:0:
256,192,68675,1,0,0:0:0:0:
475,192,68675,1,0,0:0:0:0:
329,192,68846,1,0,0:0:0:0:
475,192,68846,1,0,0:0:0:0:
402,192,69016,1,0,0:0:0:0:
256,192,69016,1,0,0:0:0:0:
329,192,69186,1,0,0:0:0:0:
182,192,69186,1,0,0:0:0:0:
256,192,69357,1,0,0:0:0:0:
109,192,69357,1,0,0:0:0:0:
182,192,69527,1,0,0:0:0:0:
329,192,69527,1,0,0:0:0:0:
256,192,69868,1,0,0:0:0:0:
109,192,69868,1,0,0:0:0:0:
182,192,70209,1,0,0:0:0:0:
329,192,70209,1,0,0:0:0:0:
109,192,70209,128,0,70891:0:0:0:0:
329,192,70550,1,0,0:0:0:0:
182,192,70550,1,0,0:0:0:0:
256,192,70721,1,0,0:0:0:0:
402,192,70721,1,0,0:0:0:0:
182,192,70891,1,0,0:0:0:0:
329,192,70891,1,0,0:0:0:0:
329,192,71232,1,0,0:0:0:0:
36,192,71232,1,0,0:0:0:0:
109,192,71402,1,0,0:0:0:0:
256,192,71402,1,0,0:0:0:0:
36,192,71573,1,0,0:0:0:0:
182,192,71573,1,0,0:0:0:0:
475,192,71743,1,0,0:0:0:0:
329,192,71743,1,0,0:0:0:0:
402,192,71828,1,0,0:0:0:0:
256,192,71828,1,0,0:0:0:0:
329,192,71914,1,0,0:0:0:0:
182,192,71914,1,0,0:0:0:0:
402,192,72084,1,0,0:0:0:0:
256,192,72084,1,0,0:0:0:0:
475,192,72255,1,0,0:0:0:0:
329,192,72255,1,0,0:0:0:0:
402,192,72425,1,0,0:0:0:0:
256,192,72425,1,0,0:0:0:0:
329,192,72596,1,0,0:0:0:0:
182,192,72596,1,0,0:0:0:0:
109,192,72596,128,0,72936:0:0:0:0:
182,192,72936,1,0,0:0:0:0:
329,192,72936,1,0,0:0:0:0:
256,192,73107,1,0,0:0:0:0:
329,192,73277,1,0,0:0:0:0:
182,192,73277,1,0,0:0:0:0:
402,192,73448,1,0,0:0:0:0:
256,192,73448,1,0,0:0:0:0:
329,192,73618,1,0,0:0:0:0:
475,192,73618,1,0,0:0:0:0:
402,192,73959,1,0,0:0:0:0:
256,192,73959,1,0,0:0:0:0:
182,192,74130,1,0,0:0:0:0:
402,192,74130,1,0,0:0:0:0:
109,192,74300,1,0,0:0:0:0:
402,192,74300,1,0,0:0:0:0:
182,192,74471,1,0,0:0:0:0:
329,192,74471,1,0,0:0:0:0:
256,192,74641,1,0,0:0:0:0:
402,192,74641,1,0,0:0:0:0:
475,192,74811,1,0,0:0:0:0:
329,192,74811,1,0,0:0:0:0:
402,192,74982,1,0,0:0:0:0:
256,192,74982,1,0,0:0:0:0:
109,192,75323,1,0,0:0:0:0:
256,192,75323,1,0,0:0:0:0:
329,192,75323,128,0,75664:0:0:0:0:
36,192,75664,1,0,0:0:0:0:
182,192,75664,1,0,0:0:0:0:
182,192,76005,1,0,0:0:0:0:
329,192,76005,1,0,0:0:0:0:
256,192,76175,1,0,0:0:0:0:
402,192,76175,1,0,0:0:0:0:
329,192,76346,1,0,0:0:0:0:
475,192,76346,1,0,0:0:0:0:
402,192,76686,1,0,0:0:0:0:
109,192,76686,1,0,0:0:0:0:
329,192,76857,1,0,0:0:0:0:
109,192,76857,1,0,0:0:0:0:
256,192,77027,1,0,0:0:0:0:
109,192,77027,1,0,0:0:0:0:
475,192,77198,1,0,0:0:0:0:
329,192,77198,1,0,0:0:0:0:
402,192,77283,1,0,0:0:0:0:
256,192,77283,1,0,0:0:0:0:
182,192,77368,1,0,0:0:0:0:
329,192,77368,1,0,0:0:0:0:
256,192,77539,1,0,0:0:0:0:
182,192,77709,1,0,0:0:0:0:
329,192,77709,1,0,0:0:0:0:
36,192,78050,128,0,81118:0:0:0:0:
109,192,78391,128,0,83164:0:0:0:0:
182,192,79073,128,0,81118:0:0:0:0:
256,192,79414,128,0,83164:0:0:0:0:
329,192,79755,128,0,81118:0:0:0:0:
402,192,80436,128,0,83164:0:0:0:0:
475,192,81118,128,0,83164:0:0:0:0:
329,192,81800,1,0,0:0:0:0:
36,192,82482,1,0,0:0:0:0:
182,192,83164,1,0,0:0:0:0:
182,192,83846,1,0,0:0:0:0:
475,192,83846,128,0,85209:0:0:0:0:
329,192,83846,128,0,84527:0:0:0:0:
402,192,84527,128,0,85891:0:0:0:0:
329,192,85209,128,0,86573:0:0:0:0:
256,192,85891,128,0,88618:0:0:0:0:
475,192,85891,1,0,0:0:0:0:
182,192,86573,128,0,88618:0:0:0:0:
402,192,86573,1,0,0:0:0:0:
