osu file format v14

[General]
AudioFilename: audio.mp3
AudioLeadIn: 0
PreviewTime: 301308
Countdown: 0
SampleSet: Soft
StackLeniency: 0.2
Mode: 0
LetterboxInBreaks: 0
WidescreenStoryboard: 0

[Editor]
DistanceSpacing: 0.7
BeatDivisor: 4
GridSize: 32
TimelineZoom: 4.299998

[Metadata]
Title:Tombs / Pallbearer
TitleUnicode:Tombs / Pallbearer
Artist:Bong-Ra vs. Igorrr
ArtistUnicode:Bong-Ra vs. Igorrr
Creator:Sersh4nt
Version:Apocalypse
Source:
Tags:Igorrr vs Bong-Ra rsi alternative experimental baroque idm breakcore drum and bass dubstep electronic hardcore jungle sershant
BeatmapID:2017204
BeatmapSetID:963467

[Difficulty]
HPDrainRate:6
CircleSize:4.5
OverallDifficulty:9
ApproachRate:9.6
SliderMultiplier:2
SliderTickRate:1

[Events]
//Background and Video events
0,0,"bg.jpg",0,0
//Break Periods
2,175457,183132
2,278858,280908
//Storyboard Layer 0 (Background)
//Storyboard Layer 1 (Fail)
//Storyboard Layer 2 (Pass)
//Storyboard Layer 3 (Foreground)
//Storyboard Layer 4 (Overlay)
//Storyboard Sound Samples

[TimingPoints]
132,324.324324324324,4,2,1,40,1,0
132,-133.333333333333,4,2,1,40,0,0
456,276.497695852535,4,2,1,40,1,0
456,-133.333333333333,4,2,1,40,0,0
663,-133.333333333333,4,2,1,5,0,0
732,285.714285714286,4,2,0,40,1,0
732,-250,4,2,0,40,0,0
946,-250,4,2,0,5,0,0
1017,-250,4,2,0,40,0,0
1232,-250,4,2,0,5,0,0
1303,-250,4,2,0,40,0,0
1517,-250,4,2,0,5,0,0
1602,285.714285714286,4,2,0,5,1,0
1602,-250,4,2,0,40,0,0
1816,-250,4,2,0,5,0,0
1908,279.06976744186,4,2,0,40,1,0
1908,-250,4,2,0,40,0,0
2117,-250,4,2,0,5,0,0
2187,307.692307692308,4,2,0,40,1,0
2187,-250,4,2,0,40,0,0
2417,-250,4,2,0,5,0,0
2494,352.941176470588,4,2,0,40,1,0
2494,-133.333333333333,4,2,1,40,0,0
2846,279.06976744186,4,2,1,40,1,0
2846,-133.333333333333,4,2,1,40,0,0
3055,-133.333333333333,4,2,1,5,0,0
3125,272.727272727273,4,2,0,40,1,0
3125,-250,4,2,0,40,0,0
3329,-250,4,2,0,5,0,0
3397,312.5,4,2,0,40,1,0
3397,-250,4,2,0,40,0,0
3631,-250,4,2,0,5,0,0
3709,337.078651685393,4,2,1,40,1,0
3709,-133.333333333333,4,2,1,40,0,0
4046,294.117647058824,4,2,1,40,1,0
4046,-133.333333333333,4,2,1,40,0,0
4266,-133.333333333333,4,2,1,5,0,0
4340,279.06976744186,4,2,0,40,1,0
4340,-250,4,2,0,40,0,0
4549,-250,4,2,0,5,0,0
4619,-250,4,2,0,40,0,0
4828,-250,4,2,0,5,0,0
4898,327.868852459016,4,2,1,40,1,0
4898,-133.333333333333,4,2,1,40,0,0
5227,301.507537688442,4,2,1,40,1,0
5227,-133.333333333333,4,2,1,40,0,0
5453,-133.333333333333,4,2,1,5,0,0
5529,272.727272727273,4,2,0,40,1,0
5529,-200,4,2,0,40,0,0
5732,-200,4,2,0,5,0,0
5801,288.461538461538,4,2,0,5,1,0
5801,-200,4,2,0,40,0,0
6017,-200,4,2,0,5,0,0
6090,320.855614973262,4,2,0,5,1,0
6090,-200,4,2,0,40,0,0
6330,-200,4,2,0,5,0,0
6411,298.507462686567,4,2,0,40,1,0
6411,-200,4,2,0,40,0,0
6634,-200,4,2,0,5,0,0
6709,-200,4,2,0,40,0,0
6933,-200,4,2,0,5,0,0
7008,-200,4,2,0,40,0,0
7231,-200,4,2,0,5,0,0
7306,324.324324324324,4,2,0,40,1,0
7306,-133.333333333333,4,2,1,40,0,0
7630,310.880829015544,4,2,1,40,1,0
7630,-133.333333333333,4,2,1,40,0,0
7863,-133.333333333333,4,2,1,5,0,0
7940,275.229357798165,4,2,0,40,1,0
7940,-200,4,2,0,40,0,0
8146,-200,4,2,0,5,0,0
8215,317.460317460317,4,2,0,5,1,0
8215,-200,4,2,0,40,0,0
8453,-200,4,2,0,5,0,0
8532,300,4,2,1,60,1,0
8532,-200,4,2,1,60,0,0
9132,-200,4,2,0,60,0,0
9357,-200,4,2,1,5,0,0
9432,-200,4,2,0,60,0,0
9657,-200,4,2,1,5,0,0
9732,-133.333333333333,4,2,1,60,0,0
12957,-100,4,2,0,60,0,0
13032,-133.333333333333,4,2,1,60,0,0
14157,-100,4,2,0,60,0,0
14232,-133.333333333333,4,2,1,60,0,0
15057,-133.333333333333,4,2,1,5,0,0
15132,-133.333333333333,4,2,1,60,0,0
15357,-133.333333333333,4,2,1,5,0,0
15432,-133.333333333333,4,2,1,60,0,0
15657,-133.333333333333,4,2,1,5,0,0
15732,-133.333333333333,4,2,1,60,0,0
16257,-133.333333333333,4,2,1,5,0,0
16332,-133.333333333333,4,2,1,60,0,0
16557,-133.333333333333,4,2,1,5,0,0
16632,-133.333333333333,4,2,1,60,0,0
16857,-133.333333333333,4,2,1,5,0,0
16932,-133.333333333333,4,2,1,60,0,0
17682,-200,4,2,0,60,0,0
17832,-133.333333333333,4,2,1,60,0,0
18957,-100,4,2,0,60,0,0
19032,-133.333333333333,4,2,1,60,0,0
22532,-133.333333333333,4,2,0,60,0,0
22632,-133.333333333333,4,2,1,60,0,0
23732,-133.333333333333,4,2,0,60,0,0
23832,-133.333333333333,4,2,1,60,0,0
24657,-133.333333333333,4,2,1,5,0,0
24732,-133.333333333333,4,2,1,60,0,0
24957,-133.333333333333,4,2,1,5,0,0
25032,-133.333333333333,4,2,1,60,0,0
25257,-133.333333333333,4,2,1,5,0,0
25332,-133.333333333333,4,2,1,60,0,0
25857,-133.333333333333,4,2,1,5,0,0
25932,-133.333333333333,4,2,1,60,0,0
26157,-133.333333333333,4,2,1,5,0,0
26232,-133.333333333333,4,2,1,60,0,0
26457,-133.333333333333,4,2,1,5,0,0
26532,-133.333333333333,4,2,1,60,0,0
28932,-133.333333333333,4,2,2,60,0,0
29832,-111.111111111111,4,2,1,60,0,0
30132,-95.2380952380952,4,2,1,60,0,0
30432,-100,4,2,2,60,0,0
31332,-133.333333333333,4,2,1,60,0,0
31482,-133.333333333333,4,2,2,60,0,0
32532,-133.333333333333,4,2,1,60,0,0
32682,-133.333333333333,4,2,2,60,0,0
33432,-100,4,2,1,60,0,0
33732,-133.333333333333,4,2,2,60,0,0
34932,-133.333333333333,4,2,1,60,0,0
35082,-133.333333333333,4,2,2,60,0,0
36432,-80,4,2,2,60,0,0
36732,-133.333333333333,4,2,2,60,0,0
37332,-100,4,2,1,60,0,0
37782,-100,4,2,2,60,0,0
39732,-100,4,2,1,60,0,0
40032,-100,4,2,2,60,0,0
42132,-100,4,2,1,60,0,0
42732,-66.6666666666667,4,2,1,60,0,0
43332,-100,4,2,2,60,0,0
44532,-100,4,2,1,60,0,0
44682,-100,4,2,2,60,0,0
46032,-66.6666666666667,4,2,2,60,0,0
46332,-100,4,2,2,60,0,0
46932,-100,4,2,1,60,0,0
46982,-100,4,2,2,60,0,0
47532,-333.333333333333,4,2,1,60,0,0
48132,-80,4,2,1,60,0,0
51732,-333.333333333333,4,2,1,60,0,0
52932,-100,4,2,2,60,0,0
54132,-100,4,2,1,60,0,0
54282,-100,4,2,2,60,0,0
55332,-100,4,2,1,60,0,0
55482,-100,4,2,2,60,0,0
56532,-100,4,2,1,60,0,0
56832,-66.6666666666667,4,2,1,60,0,0
57132,-100,4,2,2,60,0,0
57732,-80,4,2,1,60,0,0
61332,-333.333333333333,4,2,1,60,0,0
62532,-100,4,2,2,60,0,0
63732,-100,4,2,1,60,0,0
63807,-100,4,2,2,60,0,0
64932,-100,4,2,1,60,0,0
65082,-100,4,2,2,60,0,0
66132,-100,4,2,1,60,0,0
66732,-100,4,2,2,60,0,0
67032,-100,4,2,1,60,0,0
67332,-80,4,2,1,60,0,0
70932,-333.333333333333,4,2,1,60,0,0
72132,-100,4,2,2,60,0,0
73332,-100,4,2,1,60,0,0
73632,-83.3333333333333,4,2,2,60,0,0
74232,-333.333333333333,4,2,2,60,0,0
74532,-133.333333333333,4,2,1,60,0,0
74832,-100,4,2,2,60,0,0
75732,-100,4,2,1,60,0,0
76107,-100,4,2,2,60,0,0
76932,-83.3333333333333,4,2,1,60,0,0
80682,-83.3333333333333,4,2,2,60,0,0
81732,-100,4,2,1,60,0,0
81882,-100,4,2,2,60,0,0
82932,-100,4,2,2,60,0,0
83232,-100,4,2,2,60,0,0
83832,-100,4,2,1,60,0,0
84432,-100,4,2,2,60,0,0
85032,-200,4,2,2,60,0,0
85332,-100,4,2,1,60,0,0
85482,-100,4,2,2,60,0,0
85632,-200,4,2,1,60,0,0
85932,-100,4,2,2,60,0,0
86232,-100,4,2,1,60,0,0
86532,297.029702970297,4,2,1,30,1,0
86532,-500,4,2,1,50,0,0
86606,-500,4,2,1,30,0,0
88908,289.855072463768,5,2,0,40,1,0
88908,-500,5,2,0,40,0,0
90357,324.324324324324,3,2,0,40,1,0
90357,-250,3,2,0,40,0,0
90681,-166.666666666667,3,2,0,40,0,0
91005,-125,3,2,0,40,0,0
91332,300,4,2,0,50,1,0
91332,-250,4,2,0,50,0,0
91557,-250,4,2,0,5,0,0
91632,-166.666666666667,4,2,0,50,0,0
91857,-166.666666666667,4,2,0,5,0,0
91932,-125,4,2,0,50,0,0
92157,-125,4,2,0,5,0,0
92232,-125,4,2,0,50,0,0
92457,-125,4,2,0,5,0,0
92532,-100,4,2,0,50,0,0
93132,-125,4,2,0,50,0,0
93357,-125,4,2,0,5,0,0
93432,-125,4,2,0,50,0,0
93657,-125,4,2,0,5,0,0
93732,-125,4,2,0,50,0,0
95532,-1000,4,2,1,60,0,0
96132,-100,4,2,1,60,0,0
105207,-100,4,2,2,60,0,0
105582,-100,4,2,1,60,0,0
112932,-100,4,2,2,60,0,0
113007,-100,4,2,2,5,0,0
113082,-100,4,2,2,60,0,0
113307,-100,4,2,2,5,0,0
113382,-100,4,2,2,60,0,0
114732,-500,4,2,1,60,0,0
115332,-100,4,2,1,60,0,1
122532,-100,4,2,1,60,0,0
124932,-100,4,2,1,60,0,1
134532,-100,4,2,1,60,0,0
138132,-125,4,2,1,60,0,0
138432,-166.666666666667,4,2,1,60,0,0
138732,-250.000000000001,4,2,1,60,0,0
139032,-500.000000000005,4,2,1,60,0,0
139332,-66.6666666666667,4,2,3,60,0,1
141732,-66.6666666666667,4,2,1,60,0,1
142932,-66.6666666666667,4,2,10,60,0,1
143232,-66.6666666666667,4,2,9,60,0,1
143532,-66.6666666666667,4,2,8,60,0,1
143832,-66.6666666666667,4,2,1,60,0,1
144132,-100,4,2,2,60,0,0
148032,-76.9230769230769,4,2,2,60,0,0
148332,-62.5,4,2,2,60,0,0
148632,-52.6315789473684,4,2,2,60,0,0
148932,-100,4,2,1,60,0,1
151348,300,4,2,1,60,1,0
151348,-200,4,2,0,50,0,0
153732,300,4,2,1,60,1,0
153732,-100,4,2,2,60,0,0
155382,-83.3333333333333,4,2,2,60,0,0
155532,-71.4285714285714,4,2,2,60,0,0
155682,-62.5,4,2,2,60,0,0
155832,-55.5555555555556,4,2,2,60,0,0
155982,-50,4,2,2,60,0,0
156132,-100,4,2,2,60,0,0
157032,-71.4285714285714,4,2,2,60,0,0
157332,-83.3333333333333,4,2,2,60,0,0
157632,-100,4,2,2,60,0,0
157932,-125,4,2,2,60,0,0
158232,-166.666666666667,4,2,2,60,0,0
158532,-100,4,2,1,60,0,1
160932,-100,4,2,1,60,0,0
163032,-83.3333333333333,4,2,1,60,0,0
163332,-100,4,2,2,60,0,0
165732,-83.3333333333333,4,2,1,60,0,0
166032,-100,4,2,1,60,0,0
166332,-125,4,2,1,60,0,0
166632,-100,4,2,2,60,0,0
167232,-86.9565217391304,4,2,2,60,0,0
167532,-76.9230769230769,4,2,2,60,0,0
167832,-68.9655172413793,4,2,2,60,0,0
168132,-100,4,2,1,60,0,1
169407,-100,4,2,2,60,0,1
169782,-100,4,2,1,60,0,1
169857,-100,4,2,2,60,0,1
170232,-100,4,2,1,60,0,1
170307,-100,4,2,2,60,0,1
170532,-100,4,2,1,60,0,0
183708,300,4,2,1,60,1,0
183858,-100,4,2,2,60,0,0
185508,-66.6666666666667,4,2,1,60,0,0
186108,-100,4,2,1,60,0,0
186408,-100,4,2,2,60,0,0
188058,-250,4,2,2,60,0,0
188508,-100,4,2,1,60,0,0
188658,-100,4,2,2,60,0,0
190308,-100,4,2,1,60,0,0
191508,-100,4,2,2,60,0,0
192108,-100,4,2,1,60,0,0
192708,-33.3333333333333,4,2,2,60,0,0
192858,-100,4,2,1,60,0,0
193158,-100,4,2,2,60,0,0
193308,-100,4,2,1,60,0,0
193458,-100,4,2,2,60,0,0
195108,-66.6666666666667,4,2,1,60,0,0
195408,-100,4,2,1,60,0,0
195708,-66.6666666666667,4,2,1,60,0,0
196308,-100,4,2,1,60,0,0
196908,-100,4,2,2,60,0,0
197658,-200,4,2,1,60,0,0
198108,-100,4,2,1,60,0,0
198258,-100,4,2,2,60,0,0
199308,-333.333333333333,4,2,2,60,0,0
200358,-133.333333333333,4,2,1,60,0,0
200508,-100,4,2,1,60,0,0
201108,-100,4,2,2,60,0,0
201708,-100,4,2,2,60,0,0
202908,-100,4,2,1,60,0,0
203058,-100,4,2,2,60,0,0
204708,-100,4,2,1,60,0,0
205008,-100,4,2,2,60,0,0
205308,-100,4,2,1,60,0,0
205608,-100,4,2,2,60,0,0
207258,-250,4,2,2,60,0,0
207708,-100,4,2,1,60,0,0
207858,-100,4,2,2,60,0,0
209958,-100,4,2,1,60,0,0
210333,-100,4,2,1,5,0,0
210408,-100,4,2,1,60,0,0
210633,-100,4,2,1,5,0,0
210708,-100,4,2,2,60,0,0
211458,-100,4,2,1,60,0,0
211608,-100,4,2,2,60,0,0
211758,-100,4,2,1,60,0,0
211908,-100,4,2,2,60,0,0
212208,-100,4,2,1,60,0,0
212358,-100,4,2,2,60,0,0
212508,-100,4,2,1,60,0,0
212958,-100,4,2,2,60,0,0
214908,-66.6666666666667,4,2,1,60,0,0
215208,-100,4,2,2,60,0,0
215658,-250,4,2,1,60,0,0
216108,-100,4,2,2,60,0,0
217308,-100,4,2,1,60,0,0
217458,-100,4,2,2,60,0,0
218808,-100,4,2,1,60,0,0
218958,-100,4,2,2,60,0,0
219108,-100,4,2,3,60,0,0
219708,-250,4,2,1,60,0,0
220008,-166.666666666667,4,2,1,60,0,0
220608,-166.666666666667,4,2,2,60,0,0
220908,-100,4,2,2,60,0,0
221058,-83.3333333333333,4,2,2,60,0,0
221208,-71.4285714285714,4,2,2,60,0,0
221358,-62.5,4,2,2,60,0,0
221508,-333.333333333333,4,2,1,60,0,0
222033,-333.333333333333,4,2,1,5,0,0
222108,-100,4,2,1,60,0,0
222258,-100,4,2,2,60,0,0
222858,-100,4,2,3,60,0,0
223308,-100,4,2,1,60,0,0
223608,-100,4,2,2,60,0,0
223908,-88.8888888888889,4,2,1,60,0,0
224358,-100,4,2,2,60,0,0
224508,-100,4,2,1,60,0,0
225108,-100,4,2,2,60,0,0
226458,-250,4,2,2,60,0,0
226908,-100,4,2,1,60,0,0
227058,-100,4,2,2,60,0,0
229308,-100,4,2,1,60,0,0
229608,-100,4,2,2,60,0,0
233508,-66.6666666666667,4,2,1,60,0,0
234108,-100,4,2,1,60,0,0
234408,-100,4,2,2,60,0,0
235508,-90.9090909090909,4,2,2,60,0,0
235758,-83.3333333333333,4,2,2,60,0,0
235958,-66.6666666666667,4,2,2,60,0,0
236158,-76.9230769230769,4,2,2,60,0,0
236408,-35.7142857142857,4,2,2,60,0,0
236508,-100,4,2,1,60,0,0
236658,-100,4,2,2,60,0,0
238308,-250,4,2,3,60,0,0
238608,-100,4,2,2,60,0,0
238758,-100,4,2,1,60,0,0
239058,-250,4,2,2,60,0,0
239508,-100,4,2,2,60,0,0
240108,-66.6666666666667,4,2,2,60,0,0
240258,-100,4,2,2,60,0,0
241308,-100,4,2,1,60,0,0
241458,-100,4,2,2,60,0,0
243108,-100,4,2,1,60,0,0
243408,-66.6666666666667,4,2,2,60,0,0
243708,-100,4,2,1,60,0,0
244008,-100,4,2,2,60,0,0
245658,-250,4,2,2,60,0,0
246108,-100,4,2,1,60,0,0
246258,-100,4,2,2,60,0,0
246858,-100,4,2,1,60,0,0
247108,-80,4,2,1,60,0,0
247208,-66.6666666666667,4,2,1,60,0,0
247308,-66.6666666666667,4,2,1,60,0,0
247608,-100,4,2,2,60,0,0
247758,-100,4,2,1,60,0,0
248358,-100,4,2,1,60,0,0
248508,-83.3333333333333,4,2,1,60,0,0
249108,-83.3333333333333,4,2,2,60,0,0
249408,-83.3333333333333,4,2,10,60,0,0
250608,-83.3333333333333,4,2,1,60,0,0
251358,-83.3333333333333,4,2,2,60,0,0
252858,-250,4,2,1,60,0,0
253308,-50,4,2,1,60,0,0
253383,-83.3333333333333,4,2,1,60,0,0
253608,-83.3333333333333,4,2,2,60,0,0
254058,-250,4,2,1,60,0,0
254508,-83.3333333333333,4,2,1,60,0,0
254808,-83.3333333333333,4,2,2,60,0,0
255108,-83.3333333333333,4,2,1,60,0,0
255408,-83.3333333333333,4,2,2,60,0,0
255708,-83.3333333333333,4,2,1,60,0,0
255858,-83.3333333333333,4,2,2,60,0,0
257508,-83.3333333333333,4,2,1,60,0,0
260508,-166.666666666667,4,2,1,60,0,0
261108,-250,4,2,1,60,0,0
261708,-500,4,2,1,60,0,0
263208,-500,4,2,0,60,0,0
265308,-50,4,2,1,60,0,0
265908,-250,4,2,1,60,0,0
266508,-500,4,2,1,60,0,0
267708,-833.333333333333,4,2,1,60,0,0
275508,333.333333333333,4,2,1,60,1,0
276174,283.618867924528,4,2,1,60,1,0
277308,300,4,2,1,60,1,0
281508,-222.222222222221,4,2,1,60,0,0
282108,-250,4,2,1,60,0,1
282408,-83.3333333333333,4,2,1,60,0,1
284508,-100,4,2,1,60,0,0
286908,-250,4,2,1,60,0,1
287208,-83.3333333333333,4,2,1,60,0,1
289308,-100,4,2,1,60,0,0
291108,-500,4,2,3,60,0,0
291708,-250,4,2,1,60,0,1
292008,-83.3333333333333,4,2,1,60,0,1
292308,-83.3333333333333,4,2,2,60,0,1
292458,-83.3333333333333,4,2,1,60,0,1
292533,-83.3333333333333,4,2,2,60,0,1
292758,-83.3333333333333,4,2,2,60,0,1
292908,-83.3333333333333,4,2,1,60,0,1
292983,-83.3333333333333,4,2,2,60,0,1
293208,-83.3333333333333,4,2,2,60,0,1
293358,-83.3333333333333,4,2,1,60,0,1
293433,-83.3333333333333,4,2,2,60,0,1
293658,-83.3333333333333,4,2,2,60,0,1
293808,-83.3333333333333,4,2,1,60,0,1
293883,-83.3333333333333,4,2,2,60,0,1
294108,-83.3333333333333,4,2,1,60,0,1
296208,-200,4,2,1,60,0,1
296508,-83.3333333333333,4,2,1,60,0,1
297108,-83.3333333333333,4,2,2,60,0,1
297258,-83.3333333333333,4,2,1,60,0,1
297333,-83.3333333333333,4,2,2,60,0,1
297558,-83.3333333333333,4,2,2,60,0,1
297708,-83.3333333333333,4,2,1,60,0,1
297783,-83.3333333333333,4,2,2,60,0,1
298008,-83.3333333333333,4,2,2,60,0,1
298158,-83.3333333333333,4,2,1,60,0,1
298233,-83.3333333333333,4,2,2,60,0,1
298458,-83.3333333333333,4,2,2,60,0,1
298608,-83.3333333333333,4,2,1,60,0,1
298683,-83.3333333333333,4,2,2,60,0,1
298908,-83.3333333333333,4,2,1,60,0,0
300708,-200,4,2,1,60,0,0
301308,-83.3333333333333,4,2,1,60,0,1
303708,-111.111111111111,4,2,1,60,0,1
306108,-200,4,2,1,60,0,1
306408,-83.3333333333333,4,2,1,60,0,1
308508,-111.111111111111,4,2,1,60,0,1
310308,-111.111111111111,4,2,10,60,0,1
310508,-111.111111111111,4,2,9,60,0,1
310708,-111.111111111111,4,2,8,60,0,1
310908,-111.111111111111,4,2,1,60,0,1
311508,-111.111111111111,4,2,2,60,0,1
311658,-111.111111111111,4,2,1,60,0,1
311733,-111.111111111111,4,2,2,60,0,1
311958,-111.111111111111,4,2,2,60,0,1
312108,-111.111111111111,4,2,1,60,0,1
312183,-111.111111111111,4,2,2,60,0,1
312408,-111.111111111111,4,2,2,60,0,1
312558,-111.111111111111,4,2,1,60,0,1
312633,-111.111111111111,4,2,2,60,0,1
312858,-111.111111111111,4,2,2,60,0,1
313008,-111.111111111111,4,2,1,60,0,1
313083,-111.111111111111,4,2,2,60,0,1
313308,-111.111111111111,4,2,1,60,0,1
316308,-111.111111111111,4,2,2,60,0,1
316458,-111.111111111111,4,2,1,60,0,1
316533,-111.111111111111,4,2,2,60,0,1
316758,-111.111111111111,4,2,2,60,0,1
316908,-111.111111111111,4,2,1,60,0,1
316983,-111.111111111111,4,2,2,60,0,1
317208,-111.111111111111,4,2,2,60,0,1
317358,-111.111111111111,4,2,1,60,0,1
317433,-111.111111111111,4,2,2,60,0,1
317658,-111.111111111111,4,2,2,60,0,1
317808,-111.111111111111,4,2,1,60,0,1
317883,-111.111111111111,4,2,2,60,0,1
318108,-83.3333333333333,4,2,1,30,0,0
318408,-83.3333333333333,4,2,1,35,0,0
318708,-83.3333333333333,4,2,1,40,0,0
319008,-83.3333333333333,4,2,1,45,0,0
319908,-250,4,2,1,60,0,0
320508,-83.3333333333333,4,2,1,60,0,1
321408,-83.3333333333333,4,2,2,60,0,1
321558,-83.3333333333333,4,2,1,60,0,1
323508,-83.3333333333333,4,2,2,60,0,1
323808,-83.3333333333333,4,2,2,60,0,1
324708,-83.3333333333333,4,2,1,60,0,1
325308,-83.3333333333333,4,2,1,60,0,1
325458,-83.3333333333333,4,2,2,60,0,1
325758,-83.3333333333333,4,2,1,60,0,1
326058,-83.3333333333333,4,2,2,60,0,1
326358,-83.3333333333333,4,2,1,60,0,1
327408,-83.3333333333333,4,2,2,60,0,1
327708,-83.3333333333333,4,2,1,60,0,1
329658,-83.3333333333333,4,2,2,60,0,1
329958,-166.666666666667,4,2,1,60,0,1
330108,-83.3333333333333,4,2,1,60,0,1
331908,-83.3333333333333,4,2,2,60,0,1
332508,-83.3333333333333,4,2,1,60,0,1
334308,-83.3333333333333,4,2,2,60,0,1
334458,-83.3333333333333,4,2,1,60,0,1
335058,-83.3333333333333,4,2,2,60,0,1
335508,-83.3333333333333,4,2,1,60,0,1
335808,-83.3333333333333,4,2,2,60,0,1
335958,-83.3333333333333,4,2,1,60,0,1
336858,-250,4,2,1,60,0,1
337308,-83.3333333333333,4,2,1,60,0,0
337358,-83.3333333333333,4,2,2,45,0,0
337608,-83.3333333333333,4,2,1,60,0,0
337658,-83.3333333333333,4,2,2,45,0,0
337908,-83.3333333333333,4,2,1,60,0,0
337958,-83.3333333333333,4,2,2,45,0,0
338208,-83.3333333333333,4,2,1,60,0,0
338258,-83.3333333333333,4,2,2,45,0,0
338508,-83.3333333333333,4,2,1,45,0,0
338558,-83.3333333333333,4,2,2,30,0,0
338808,-83.3333333333333,4,2,1,45,0,0
338858,-83.3333333333333,4,2,2,30,0,0
339108,-250,4,2,1,60,0,0
339708,-83.3333333333333,4,2,1,60,0,1
339858,-83.3333333333333,4,2,2,60,0,1
340008,-83.3333333333333,4,2,1,60,0,1
340608,-83.3333333333333,4,2,2,60,0,1
340758,-83.3333333333333,4,2,1,60,0,1
342708,-83.3333333333333,4,2,2,60,0,1
343908,-83.3333333333333,4,2,1,60,0,1
344058,-83.3333333333333,4,2,2,60,0,1
344508,-83.3333333333333,4,2,1,60,0,1
346608,-83.3333333333333,4,2,2,60,0,1
346758,-83.3333333333333,4,2,1,60,0,1
347208,-62.5,4,2,1,60,0,1
348108,-83.3333333333333,4,2,1,60,0,1
352308,-83.3333333333333,4,2,2,60,0,1
352908,-83.3333333333333,4,2,1,60,0,1
353958,-83.3333333333333,4,2,2,60,0,1
354108,-83.3333333333333,4,2,1,60,0,1
355458,-83.3333333333333,4,2,2,60,0,1
355758,-83.3333333333333,4,2,1,60,0,1
356208,-83.3333333333333,4,2,2,60,0,1
356358,-83.3333333333333,4,2,1,60,0,1
356958,-250,4,2,1,60,0,1
357708,-100,4,2,2,60,0,0
359508,-100,4,2,2,45,0,0
359808,-100,4,2,2,30,0,0

[Colours]
Combo1 : 255,128,0
Combo2 : 50,101,163
Combo3 : 139,188,207
Combo4 : 124,176,72
Combo5 : 175,208,145
Combo6 : 255,0,0

[HitObjects]
49,370,132,5,2,0:2:0:0:
95,272,456,2,0,P|92:217|58:174,1,112.500004291535,2|0,0:2|0:0,0:0:0:0:
117,160,732,6,0,L|58:174,1,60,2|0,0:2|0:0,0:0:0:0:
107,175,1017,2,0,L|50:193,1,60,2|0,0:2|0:0,0:0:0:0:
98,190,1303,2,0,L|42:213,1,60,2|0,0:2|0:0,0:0:0:0:
90,205,1602,2,0,L|37:233,1,60,2|0,0:2|0:0,0:0:0:0:
83,220,1908,2,0,L|32:252,1,60,2|0,0:2|0:0,0:0:0:0:
77,235,2187,2,0,L|29:272,1,60,2|0,0:2|0:0,0:0:0:0:
109,354,2494,5,2,0:2:0:0:
154,255,2846,2,0,P|152:200|118:157,1,112.500004291535,2|0,0:2|0:0,0:0:0:0:
161,115,3125,2,0,L|117:156,1,60,2|0,0:2|0:0,0:0:0:0:
157,130,3397,2,0,L|116:174,1,60,2|0,0:2|0:0,0:0:0:0:
284,158,3709,5,2,0:2:0:0:
221,67,4046,2,0,P|173:42|118:50,1,112.500004291535,2|0,0:2|0:0,0:0:0:0:
99,108,4340,2,0,L|118:51,1,60,2|0,0:2|0:0,0:0:0:0:
86,100,4619,2,0,L|100:41,1,60,2|0,0:2|0:0,0:0:0:0:
209,309,4898,37,2,0:2:0:0:
254,200,5227,2,0,P|296:166|352:161,1,112.500004291535,2|0,0:2|0:0,0:0:0:0:
441,216,5529,2,0,P|477:220|512:207,1,75.0000028610231,2|0,0:2|0:0,0:0:0:0:
432,252,5801,2,0,P|468:246|499:225,1,75.0000028610231,2|0,0:2|0:0,0:0:0:0:
431,288,6090,2,0,P|465:275|490:247,1,75.0000028610231,2|0,0:2|0:0,0:0:0:0:
439,324,6411,2,0,P|468:302|485:269,1,75.0000028610231,2|0,0:2|0:0,0:0:0:0:
455,356,6709,2,0,P|478:328|487:292,1,75.0000028610231,2|0,0:2|0:0,0:0:0:0:
478,383,7008,2,0,P|494:350|493:313,1,75.0000028610231,2|0,0:2|0:0,0:0:0:0:
446,202,7306,5,2,0:2:0:0:
327,279,7630,2,0,P|362:323|416:332,1,112.500004291535,2|0,0:2|0:0,0:0:0:0:
418,180,7940,2,0,L|403:253,1,75,2|0,0:2|0:0,0:0:0:0:
384,165,8215,2,0,L|387:239,1,75,2|0,0:2|0:0,0:0:0:0:
469,61,8532,5,12,0:2:0:0:
88,140,8832,1,0,3:0:0:0:
145,234,9132,2,0,P|180:249|216:241,1,75,2|0,0:2|0:0,0:0:0:0:
263,217,9432,2,0,P|227:222|193:207,1,75,2|0,0:2|0:0,0:0:0:0:
237,32,9732,5,12,0:1:0:0:
156,337,10032,2,0,B|203:321|203:321|298:351,2,150.000005722046
24,203,10932,37,12,0:2:0:0:
275,152,11232,2,0,P|323:98|319:25,2,150.000005722046
182,361,12132,5,12,0:1:0:0:
136,156,12432,2,0,P|169:91|238:68,1,150.000005722046
80,50,12957,2,0,L|28:44,1,50,2|0,0:2|0:0,0:0:0:0:
409,92,13332,5,12,0:2:0:0:
370,384,13632,2,0,P|328:324|342:252,1,150.000005722046
227,288,14157,2,0,L|179:302,1,50.0000019073487,2|0,0:2|0:0,0:0:0:0:
54,40,14532,5,12,0:1:0:0:
33,276,14832,2,0,P|81:250|97:198,1,112.500004291535
132,292,15132,2,0,P|134:238|97:197,1,112.500004291535
196,215,15432,2,0,P|149:185|96:196,1,112.500004291535
220,384,15732,37,12,0:2:0:0:
441,291,16032,2,0,L|459:179,1,112.500004291535
389,125,16332,2,0,L|407:236,1,112.500004291535
354,292,16632,2,0,L|372:180,1,112.500004291535
494,0,16932,5,12,0:1:0:0:
313,102,17232,2,0,B|261:123|261:123|170:96,1,150.000005722046
197,193,17682,2,0,P|202:217|195:241,1,50.0000019073487,2|0,0:2|0:0,0:0:0:0:
0,384,18132,5,12,0:2:0:0:
220,310,18432,2,0,L|369:322,1,150.000005722046
468,337,18957,2,0,P|481:359|480:384,1,50.0000019073487,2|0,0:2|0:0,0:0:0:0:
400,106,19332,5,12,0:1:0:0:
206,192,19632,2,0,B|177:152|177:152|77:140,2,150.000005722046
256,0,20532,37,12,0:2:0:0:
346,192,20832,2,0,B|374:231|374:231|475:242,2,150.000005722046
256,384,21732,5,12,0:1:0:0:
170,154,22032,2,0,B|105:159|105:159|81:176|81:176|26:183,1,150.000005722046
134,233,22532,2,0,L|183:228,1,50.0000019073487,2|0,0:2|0:0,0:0:0:0:
0,0,22932,5,12,0:2:0:0:
83,205,23232,2,0,P|151:234|221:210,1,150.000005722046
184,321,23732,2,0,L|167:368,1,50.0000019073487,2|0,0:2|0:0,0:0:0:0:
258,99,24132,5,12,0:1:0:0:
300,316,24432,2,0,L|409:292,1,112.500004291535
312,234,24732,2,0,L|421:210,1,112.500004291535
324,152,25032,2,0,L|433:128,1,112.500004291535
224,0,25332,37,12,0:2:0:0:
152,243,25632,2,0,P|121:290|68:303,1,112.500004291535
131,158,25932,2,0,P|186:160|226:199,1,112.500004291535
70,216,26232,2,0,P|45:168|58:115,1,112.500004291535,8|0,0:1|0:0,0:0:0:0:
226,284,26532,5,12,0:1:0:0:
128,32,26832,1,8,0:2:0:0:
128,32,27432,1,12,0:1:0:0:
339,202,27732,5,10,0:2:0:0:
402,89,28032,1,0,3:0:0:0:
407,97,28332,1,0,0:0:0:0:
371,284,28632,5,8,0:2:0:0:
310,117,28782,1,8,0:2:0:0:
462,256,28932,38,0,L|387:265,1,75.0000028610231,4|8,3:2|0:2,0:0:0:0:
311,186,29232,2,0,L|385:195,1,75.0000028610231,0|8,3:0|0:2,0:0:0:0:
251,245,29532,6,0,P|226:197|236:142,1,112.500004291535,0|0,3:0|0:0,0:0:0:0:
232,134,29832,6,0,P|217:199|252:255,1,134.999995880127,0|0,3:0|0:0,0:0:0:0:
250,266,30132,6,0,P|209:200|227:126,1,157.499995193482,8|0,0:2|0:0,0:0:0:0:
275,51,30432,1,0,0:0:0:0:
154,91,30582,2,0,P|131:101|105:99,1,50,2|0,0:2|0:0,0:0:0:0:
23,168,30732,2,0,P|18:144|24:120,1,50,8|0,0:2|0:0,0:0:0:0:
123,193,30882,1,0,3:0:0:0:
0,337,31032,2,0,L|65:330,1,50,2|0,0:2|0:0,0:0:0:0:
154,319,31182,1,0,3:0:0:0:
404,337,31332,37,8,0:1:0:0:
250,319,31482,1,2,0:2:0:0:
457,234,31632,1,8,0:2:0:0:
332,250,31782,2,0,L|321:175,1,75.0000028610231,2|2,0:2|0:2,0:0:0:0:
346,124,32007,1,8,0:2:0:0:
335,118,32082,1,0,3:0:0:0:
185,184,32232,1,8,0:2:0:0:
356,260,32382,1,8,0:2:0:0:
226,46,32532,5,8,0:2:0:0:
270,220,32682,1,2,0:2:0:0:
152,355,32832,5,8,0:2:0:0:
160,361,32982,1,0,3:0:0:0:
72,300,33132,2,0,L|66:262,1,37.5000014305115
61,290,33282,2,0,L|55:252,1,37.5000014305115,2|0,0:1|0:0,0:0:0:0:
118,195,33432,2,0,L|142:189,6,25,2|0|0|0|0|0|0,0:2|0:0|0:0|0:0|0:0|0:0|0:0,0:0:0:0:
74,93,33732,6,0,P|41:77|4:75,1,75.0000028610231,4|2,3:2|0:2,0:0:0:0:
189,116,34032,2,0,P|181:79|159:48,1,75.0000028610231,0|8,3:0|0:2,0:0:0:0:
240,220,34332,37,2,3:2:0:0:
290,63,34482,1,8,0:2:0:0:
353,241,34632,5,2,3:2:0:0:
294,49,34782,1,8,0:2:0:0:
437,163,34932,5,8,0:2:0:0:
298,35,35082,1,8,0:2:0:0:
425,48,35232,5,2,0:2:0:0:
458,90,35307,1,2,0:2:0:0:
460,68,35382,2,0,P|474:55|492:49,1,37.5000014305115,8|0,0:2|0:0,0:0:0:0:
363,122,35532,2,0,P|344:123|326:119,1,37.5000014305115,8|2,0:2|0:2,0:0:0:0:
455,196,35682,1,2,0:2:0:0:
441,215,35757,2,0,L|452:258,1,37.5000014305115,8|2,0:2|0:2,0:0:0:0:
288,384,35982,1,8,0:2:0:0:
349,213,36132,38,0,L|370:295,1,75.0000028610231,0|0,3:0|0:0,0:0:0:0:
226,108,36432,2,0,P|154:146|206:209,1,187.5,2|0,0:1|0:0,0:0:0:0:
243,197,36732,2,0,L|224:269,1,75.0000028610231,0|0,3:0|0:0,0:0:0:0:
196,374,37032,53,8,0:2:0:0:
127,343,37132,1,8,0:2:0:0:
59,372,37232,1,8,0:2:0:0:
131,319,37332,54,0,P|122:247|60:210,1,150,8|0,0:2|0:0,0:0:0:0:
92,141,37632,2,0,P|131:110|180:113,1,100,0|2,0:0|0:2,0:0:0:0:
286,164,37932,37,8,0:2:0:0:
387,176,38032,1,8,0:2:0:0:
484,144,38132,1,8,0:2:0:0:
380,135,38232,1,8,0:2:0:0:
333,264,38332,1,8,0:2:0:0:
417,206,38432,1,8,0:2:0:0:
305,129,38532,6,0,P|256:127|213:151,1,100,4|2,3:2|0:2,0:0:0:0:
285,345,38832,2,0,P|310:303|312:254,1,100,0|2,3:0|0:2,0:0:0:0:
108,219,39132,1,8,0:2:0:0:
229,278,39282,1,2,0:2:0:0:
33,331,39432,1,8,0:2:0:0:
229,278,39582,1,0,3:0:0:0:
239,275,39657,1,0,3:0:0:0:
252,241,39732,6,0,P|253:217|243:195,1,50,8|0,0:2|0:0,0:0:0:0:
165,133,39882,1,0,3:0:0:0:
185,114,39957,1,0,3:0:0:0:
210,102,40032,2,0,P|233:95|258:96,1,50,8|0,0:2|0:0,0:0:0:0:
351,204,40182,1,0,3:0:0:0:
342,176,40257,1,0,3:0:0:0:
341,147,40332,2,0,P|344:123|356:101,1,50,8|0,0:2|0:0,0:0:0:0:
427,28,40482,1,0,3:0:0:0:
429,157,40632,1,2,0:2:0:0:
328,0,40782,1,8,0:2:0:0:
264,170,40932,6,0,P|196:201|126:181,1,150,0|0,3:0|0:0,0:0:0:0:
53,103,41232,2,0,B|68:131|68:131|46:195,1,100,2|0,0:2|0:0,0:0:0:0:
2,317,41532,2,0,L|34:322,3,33.3333333333333,0|0|0|0,3:0|3:0|3:0|3:0,0:0:0:0:
174,301,41832,22,0,L|168:337,1,33.3333333333333,8|8,0:2|0:2,0:0:0:0:
183,307,41932,2,0,L|187:351,1,33.3333333333333,8|8,0:2|0:2,0:0:0:0:
193,312,42032,2,0,L|206:354,1,33.3333333333333,8|8,0:2|0:2,0:0:0:0:
240,291,42132,21,8,0:2:0:0:
264,260,42207,1,0,0:0:0:0:
270,221,42282,1,0,0:0:0:0:
256,184,42357,1,0,0:0:0:0:
223,157,42432,2,0,P|201:146|177:143,1,50
255,63,42582,2,0,P|254:39|244:16,1,50
328,143,42732,6,0,B|395:189|452:176|491:134|496:80|441:39|387:37|345:88|366:162|414:208|414:208|467:261|447:325,1,525.000020027161,2|0,0:1|0:0,0:0:0:0:
487,357,43332,6,0,L|387:350,1,100,4|2,3:2|0:2,0:0:0:0:
276,231,43632,2,0,L|400:223,1,100,0|2,3:0|0:2,0:0:0:0:
233,344,43932,5,2,3:2:0:0:
169,180,44082,1,8,0:2:0:0:
239,357,44232,37,2,3:2:0:0:
80,260,44382,1,8,0:2:0:0:
288,222,44532,6,0,P|317:183|320:134,1,100,8|2,0:2|0:2,0:0:0:0:
279,105,44757,1,8,0:2:0:0:
285,91,44832,1,0,3:0:0:0:
347,25,44982,1,8,0:2:0:0:
435,46,45132,5,2,3:2:0:0:
400,232,45282,1,8,0:2:0:0:
373,111,45432,5,2,3:2:0:0:
488,253,45582,1,8,0:2:0:0:
303,260,45732,37,0,3:0:0:0:
290,260,45807,1,0,3:0:0:0:
278,260,45882,1,0,3:0:0:0:
265,260,45957,1,0,3:0:0:0:
218,300,46032,6,0,L|208:150,1,150.000005722046,2|0,0:1|0:0,0:0:0:0:
82,384,46332,5,0,3:0:0:0:
82,364,46407,1,0,3:0:0:0:
83,345,46482,1,0,3:0:0:0:
84,325,46557,1,0,3:0:0:0:
114,270,46632,6,0,P|90:267|67:278,1,50,8|0,0:2|0:0,0:0:0:0:
0,176,46782,2,0,P|24:181|43:197,1,50,8|0,0:2|0:0,0:0:0:0:
174,167,46932,38,0,L|136:173,4,33.3333333333333,8|2|2|2|2,0:2|0:2|0:2|0:2|0:2,0:0:0:0:
394,134,47232,1,2,0:1:0:0:
394,134,47532,6,0,L|404:29,1,104.999996795654,0|0,3:0|0:0,0:0:0:0:
317,58,48132,6,0,B|274:110|207:103|207:103|203:95|203:95|142:84|115:22,3,250,12|0|0|0,0:1|0:0|0:0|0:0,0:0:0:0:
187,215,49332,2,0,B|163:151|203:97|203:97|211:97|211:97|251:50|319:58,3,250,12|0|0|0,0:2|0:0|0:0|0:0,0:0:0:0:
115,24,50532,2,0,B|182:35|209:96|209:96|205:103|205:103|225:161|184:216,3,250,12|0|0|0,0:1|0:0|0:0|0:0,0:0:0:0:
374,51,51732,6,0,L|370:110,2,59.9999981689454,12|0|0,0:2|0:0|0:0,0:0:0:0:
287,152,52482,2,0,L|284:109,2,29.9999990844727
364,203,52932,37,4,3:2:0:0:
281,245,53082,1,2,0:2:0:0:
386,112,53232,1,8,0:2:0:0:
402,293,53382,1,2,0:2:0:0:
403,304,53457,1,0,0:0:0:0:
427,338,53532,2,0,P|403:339|375:355,1,50,2|8,0:2|0:2,0:0:0:0:
218,332,53682,2,0,P|231:355|232:383,1,50,0|0,3:0|0:0,0:0:0:0:
307,212,53832,5,8,0:2:0:0:
311,203,53982,1,8,0:2:0:0:
242,93,54132,5,8,0:2:0:0:
123,132,54282,1,8,0:2:0:0:
123,257,54432,1,2,0:2:0:0:
123,132,54582,1,2,0:2:0:0:
114,125,54657,1,0,0:0:0:0:
105,118,54732,2,0,L|43:114,1,50,8|0,0:2|0:0,0:0:0:0:
132,250,54882,2,0,L|194:246,1,50,8|0,0:2|0:0,0:0:0:0:
236,104,55032,1,0,3:0:0:0:
77,192,55182,1,8,0:2:0:0:
281,174,55332,6,0,P|311:135|316:86,1,100,8|2,0:2|0:2,0:0:0:0:
440,42,55632,2,0,L|471:39,6,25,0|0|0|0|0|0|0,3:0|0:0|0:0|0:0|0:0|0:0|0:0,0:0:0:0:
465,115,55932,2,0,P|489:115|512:106,1,50,2|0,0:2|0:0,0:0:0:0:
317,86,56082,2,0,P|292:87|268:95,1,50,0|0,3:0|0:0,0:0:0:0:
416,172,56232,2,0,P|431:191|453:203,1,50,0|0,3:0|0:0,0:0:0:0:
367,30,56382,2,0,P|350:11|328:0,1,50,8|0,0:2|0:0,0:0:0:0:
342,157,56532,38,0,L|336:306,1,150,8|0,0:2|0:0,0:0:0:0:
384,333,56832,6,0,B|320:333|320:333|314:327|314:327|231:327|231:327|224:333|224:333|163:333,1,225.000008583069,0|0,3:0|0:0,0:0:0:0:
154,339,57132,1,0,0:0:0:0:
80,257,57282,1,2,0:1:0:0:
135,161,57432,2,0,L|159:155,6,25,0|0|0|0|0|0|0,3:0|0:0|0:0|0:0|0:0|0:0|0:0,0:0:0:0:
163,54,57732,6,0,B|283:60|283:60|289:68|289:68|416:75,3,250,12|0|0|0,0:1|0:0|0:0|0:0,0:0:0:0:
262,171,58932,2,0,B|381:164|381:164|387:156|387:156|507:150,3,250,12|0|0|0,0:2|0:0|0:0|0:0,0:0:0:0:
167,253,60132,2,0,B|287:259|287:259|293:267|293:267|420:274,3,250,12|0|0|0,0:1|0:0|0:0|0:0,0:0:0:0:
156,166,61332,6,0,P|127:172|103:189,2,59.9999981689454,12|0|0,0:2|0:0|0:0,0:0:0:0:
198,90,62082,2,0,P|178:83|157:82,2,29.9999990844727,0|8|0,0:0|0:1|0:0,0:0:0:0:
243,162,62532,38,0,P|263:148|287:142,1,50,4|0,3:2|0:0,0:0:0:0:
399,115,62682,1,2,0:2:0:0:
394,110,62757,1,2,0:2:0:0:
434,88,62832,5,8,0:2:0:0:
438,145,62907,1,8,0:2:0:0:
469,193,62982,2,0,P|491:210|529:214,2,50,2|0|2,0:2|0:0|0:2,0:0:0:0:
375,220,63207,1,2,0:2:0:0:
347,231,63282,1,0,3:0:0:0:
328,254,63357,1,0,3:0:0:0:
331,308,63432,5,8,0:2:0:0:
285,338,63507,1,8,0:2:0:0:
230,344,63582,1,8,0:2:0:0:
178,323,63657,1,8,0:2:0:0:
170,273,63732,5,8,0:2:0:0:
162,243,63807,1,2,0:2:0:0:
142,220,63882,2,0,P|120:206|96:203,1,50,2|0,0:2|0:0,0:0:0:0:
247,238,64032,37,8,0:2:0:0:
255,208,64107,1,8,0:2:0:0:
249,178,64182,2,0,P|237:156|217:141,1,50,2|0,0:2|0:0,0:0:0:0:
100,106,64332,1,8,0:2:0:0:
305,54,64482,1,8,0:2:0:0:
179,206,64632,5,0,3:0:0:0:
171,218,64782,1,2,3:2:0:0:
215,0,64932,5,8,0:2:0:0:
306,171,65082,1,2,0:2:0:0:
315,174,65157,1,2,0:2:0:0:
335,214,65232,5,0,3:0:0:0:
383,219,65307,2,0,L|442:225,1,50,8|0,0:2|0:0,0:0:0:0:
480,339,65457,1,0,0:0:0:0:
473,330,65532,38,0,P|451:317|427:312,1,50,0|2,0:0|0:2,0:0:0:0:
328,361,65682,2,0,L|340:294,1,50,0|0,3:0|0:0,0:0:0:0:
265,255,65832,5,0,3:0:0:0:
209,231,65907,1,8,0:2:0:0:
149,233,65982,1,8,0:2:0:0:
91,251,66057,1,8,0:2:0:0:
45,306,66132,6,0,L|54:156,1,150,8|0,0:2|0:0,0:0:0:0:
14,96,66432,2,0,B|59:117|59:117|157:98,1,150,0|0,3:0|0:0,0:0:0:0:
195,64,66732,1,2,0:2:0:0:
340,97,66882,1,2,0:1:0:0:
407,229,67032,2,0,L|437:235,6,25,8|0|0|0|8|0|0,0:2|0:0|0:0|0:0|0:2|0:0|0:0,0:0:0:0:
349,294,67332,6,0,B|292:263|292:263|213:274|213:274|202:272|202:272|103:288,3,250,12|0|0|0,0:1|0:0|0:0|0:0,0:0:0:0:
251,186,68532,2,0,B|158:200|158:200|146:198|146:198|68:209|68:209|11:178,3,250,12|0|0|0,0:2|0:0|0:0|0:0,0:0:0:0:
324,133,69732,2,0,B|267:102|267:102|188:113|188:113|177:111|177:111|78:127,3,250,12|0|0|0,0:1|0:0|0:0|0:0,0:0:0:0:
215,28,70932,38,0,L|155:36,2,59.9999981689454,12|0|0,0:2|0:0|0:0,0:0:0:0:
356,60,71682,2,0,L|317:40,2,29.9999990844727
448,169,72132,6,0,L|427:123,1,50,12|0,3:2|0:0,0:0:0:0:
355,266,72282,1,0,3:0:0:0:
349,233,72357,1,0,3:0:0:0:
343,201,72432,6,0,L|335:151,1,50,8|0,0:2|0:0,0:0:0:0:
237,215,72582,1,0,3:0:0:0:
238,181,72657,1,0,3:0:0:0:
239,149,72732,6,0,L|240:124,6,25,2|0|0|0|0|0|0,0:1|0:0|0:0|0:0|0:0|0:0|0:0,0:0:0:0:
149,112,73032,38,0,L|158:62,1,50,8|0,0:2|0:0,0:0:0:0:
65,0,73182,1,0,3:0:0:0:
20,23,73257,1,0,3:0:0:0:
0,69,73332,6,0,L|11:218,1,150,8|0,0:2|0:0,0:0:0:0:
26,232,73632,2,0,L|12:53,1,179.999994506836,0|0,3:0|0:0,0:0:0:0:
59,26,73932,1,2,0:1:0:0:
158,62,74082,1,2,0:1:0:0:
257,22,74232,6,0,P|278:17|301:17,1,44.999998626709,2|0,3:1|0:0,0:0:0:0:
334,51,74532,6,0,L|342:163,1,112.500004291535,8|0,0:2|0:0,0:0:0:0:
373,188,74832,37,0,3:0:0:0:
375,150,74907,1,8,0:2:0:0:
378,113,74982,1,8,0:2:0:0:
381,75,75057,1,8,0:2:0:0:
334,51,75132,6,0,L|331:0,1,50,2|8,0:2|0:2,0:0:0:0:
256,118,75282,1,0,3:0:0:0:
339,258,75432,5,0,3:0:0:0:
375,267,75507,1,2,0:2:0:0:
411,257,75582,1,2,0:2:0:0:
439,232,75657,1,2,0:2:0:0:
480,178,75732,6,0,L|489:277,1,100,8|0,0:2|0:0,0:0:0:0:
473,353,75957,1,0,3:0:0:0:
466,362,76032,37,0,3:0:0:0:
442,353,76107,1,8,0:2:0:0:
417,349,76182,1,8,0:2:0:0:
393,350,76257,1,8,0:2:0:0:
367,355,76332,2,0,P|343:360|323:374,1,50,8|0,0:2|0:0,0:0:0:0:
295,265,76482,5,0,3:0:0:0:
300,253,76557,2,0,L|304:203,1,50,0|0,3:0|3:0,0:0:0:0:
223,328,76707,1,8,0:2:0:0:
208,331,76782,1,8,0:2:0:0:
193,330,76857,1,8,0:2:0:0:
163,356,76932,6,0,B|152:245|152:245|157:236|157:236|145:115,3,239.999992675781,12|0|0|0,0:1|0:0|0:0|0:0,0:0:0:0:
349,129,78132,2,0,B|306:177|249:178|249:178|244:169|244:169|178:165|140:111,3,239.999992675781,12|0|0|0,0:2|0:0|0:0|0:0,0:0:0:0:
331,366,79332,2,0,B|342:255|342:255|337:246|337:246|349:125,3,239.999992675781,12|0|0|0,0:1|0:0|0:0|0:0,0:0:0:0:
242,259,80532,5,8,0:2:0:0:
241,161,80682,2,0,L|241:121,19,39.9999987792969,8|8|8|8|8|8|8|8|8|8|8|8|8|8|8|8|8|8|8|8,0:2|0:2|0:2|0:2|0:2|0:2|0:2|0:2|0:2|0:2|0:2|0:2|0:2|0:2|0:2|0:2|0:2|0:2|0:2|0:2,0:0:0:0:
129,82,81732,38,0,L|79:76,1,50,12|0,0:1|0:0,0:0:0:0:
117,92,81882,2,0,L|67:86,1,50,8|0,0:2|0:0,0:0:0:0:
158,187,82032,6,0,L|207:187,1,50,8|0,0:2|0:0,0:0:0:0:
162,197,82182,2,0,L|211:197,1,50,8|0,0:2|0:0,0:0:0:0:
129,302,82332,6,0,L|79:307,1,50,8|0,0:2|0:0,0:0:0:0:
117,292,82482,2,0,L|67:297,1,50,8|0,0:2|0:0,0:0:0:0:
222,284,82632,6,0,L|226:333,1,50,8|0,0:2|0:0,0:0:0:0:
74,218,82782,2,0,L|78:168,1,50,8|0,0:2|0:0,0:0:0:0:
304,67,82932,37,14,0:1:0:0:
320,320,83232,6,0,L|369:327,1,50,8|0,0:2|0:0,0:0:0:0:
409,185,83382,2,0,L|459:185,1,50,8|0,0:2|0:0,0:0:0:0:
320,64,83532,6,0,L|369:56,1,50,8|0,0:2|0:0,0:0:0:0:
423,199,83682,2,0,L|473:199,1,50,8|0,0:2|0:0,0:0:0:0:
306,306,83832,1,8,0:1:0:0:
153,267,83982,1,8,0:1:0:0:
395,171,84132,5,12,0:2:0:0:
225,279,84432,38,0,L|228:328,1,50,8|0,0:2|0:0,0:0:0:0:
128,188,84582,2,0,L|131:138,1,50,8|0,0:2|0:0,0:0:0:0:
117,311,84732,6,0,L|67:315,1,50,8|0,0:2|0:0,0:0:0:0:
253,165,84882,2,0,L|302:168,1,50,8|0,0:2|0:0,0:0:0:0:
348,319,85032,6,0,L|352:244,1,75,2|0,3:2|0:0,0:0:0:0:
363,103,85332,5,8,0:2:0:0:
194,218,85482,2,0,P|180:198|175:174,1,50,8|0,0:2|0:0,0:0:0:0:
204,120,85632,38,0,B|166:131|166:131|132:118,1,75,8|0,0:1|0:0,0:0:0:0:
46,37,85932,6,0,L|50:86,1,50,8|0,0:2|0:0,0:0:0:0:
168,54,86082,2,0,L|172:4,1,50,8|8,0:2|0:2,0:0:0:0:
58,185,86232,5,8,0:2:0:0:
312,173,86382,1,8,0:2:0:0:
411,244,86532,6,0,L|412:253,31,10,12|0|0|0|0|0|0|0|0|0|0|0|0|0|0|0|0|0|0|0|0|0|0|0|0|0|0|0|0|0|0|0,0:1|0:0|0:0|0:0|0:0|0:0|0:0|0:0|0:0|0:0|0:0|0:0|0:0|0:0|0:0|0:0|0:0|0:0|0:0|0:0|0:0|0:0|0:0|0:0|0:0|0:0|0:0|0:0|0:0|0:0|0:0|0:0,0:0:0:0:
332,165,88908,2,0,L|332:155,19,10,2|0|0|0|0|0|0|0|0|0|0|0|0|0|0|0|0|0|0|0,0:2|0:0|0:0|0:0|0:0|0:0|0:0|0:0|0:0|0:0|0:0|0:0|0:0|0:0|0:0|0:0|0:0|0:0|0:0|0:0,0:0:0:0:
243,216,90357,38,0,P|236:207|232:198,3,20,2|0|0|0,0:2|0:0|0:0|0:0,0:0:0:0:
149,217,90681,6,0,P|148:203|151:188,3,29.9999990844727,2|0|0|0,0:2|0:0|0:0|0:0,0:0:0:0:
63,170,91005,6,0,P|74:154|89:141,3,40,2|0|0|0,0:2|0:0|0:0|0:0,0:0:0:0:
70,262,91332,6,0,L|62:321,1,60,2|0,0:2|0:0,0:0:0:0:
137,373,91632,38,0,P|180:385|224:377,1,89.9999972534181,2|0,0:2|0:0,0:0:0:0:
333,376,91932,6,0,P|370:331|376:272,1,120,2|0,0:2|0:0,0:0:0:0:
368,262,92232,2,0,P|330:307|325:366,1,120,2|0,0:2|0:0,0:0:0:0:
487,246,92532,6,0,B|442:275|442:275|297:249,1,200,2|0,0:2|0:0,0:0:0:0:
193,41,93132,6,0,L|190:160,1,120,2|0,0:2|0:0,0:0:0:0:
188,261,93432,2,0,P|244:275|297:249,1,120,2|0,0:2|0:0,0:0:0:0:
256,192,93732,12,0,95457,0:0:0:0:
352,154,95532,38,0,L|351:188,1,35,8|0,0:2|0:0,0:0:0:0:
362,314,96132,5,2,3:2:0:0:
342,308,96207,1,0,3:0:0:0:
323,303,96282,1,0,3:0:0:0:
303,301,96357,1,0,3:0:0:0:
283,300,96432,1,2,3:2:0:0:
263,302,96507,1,0,3:0:0:0:
243,305,96582,2,0,P|218:309|196:322,1,50,0|0,3:0|3:0,0:0:0:0:
179,217,96732,5,10,3:2:0:0:
156,186,96807,1,0,3:0:0:0:
146,151,96882,1,0,3:0:0:0:
149,113,96957,1,0,3:0:0:0:
165,80,97032,5,2,3:2:0:0:
143,67,97107,1,0,3:0:0:0:
120,58,97182,1,0,3:0:0:0:
95,55,97257,1,0,3:0:0:0:
70,57,97332,38,0,P|41:62|20:77,3,50,2|0|0|0,3:2|3:0|3:0|3:0,0:0:0:0:
50,180,97632,2,0,P|27:192|12:211,3,50,2|0|0|0,3:2|3:0|3:0|3:0,0:0:0:0:
177,170,97932,2,0,P|165:148|145:132,3,50,10|0|0|0,3:2|3:0|3:0|3:0,0:0:0:0:
120,267,98232,2,0,P|119:291|128:314,3,50,2|0|0|0,3:2|3:0|3:0|3:0,0:0:0:0:
243,339,98532,5,2,3:2:0:0:
280,306,98607,1,0,3:0:0:0:
327,288,98682,1,0,3:0:0:0:
377,286,98757,1,0,3:0:0:0:
424,301,98832,5,2,3:2:0:0:
397,259,98907,1,0,3:0:0:0:
357,228,98982,1,0,3:0:0:0:
310,213,99057,1,0,3:0:0:0:
260,214,99132,5,10,3:2:0:0:
258,194,99207,1,0,3:0:0:0:
259,174,99282,1,0,3:0:0:0:
263,154,99357,1,0,3:0:0:0:
270,133,99432,38,0,P|281:112|298:93,3,50,2|0|0|0,0:2|0:0|0:0|0:0,0:0:0:0:
184,162,99732,2,0,P|181:137|184:112,3,50,2|0|0|0,0:2|0:0|0:0|0:0,0:0:0:0:
130,233,100032,2,0,P|113:214|102:191,3,50,2|0|0|0,0:2|0:0|0:0|0:0,0:0:0:0:
126,322,100332,2,0,P|101:315|79:304,3,50,10|0|0|0,0:2|0:0|0:0|0:0,0:0:0:0:
206,281,100632,2,0,P|230:276|255:277,3,50,2|0|0|0,0:2|0:0|0:0|0:0,0:0:0:0:
361,359,100932,5,2,3:2:0:0:
357,339,101007,1,0,3:0:0:0:
355,319,101082,1,0,3:0:0:0:
355,299,101157,1,0,3:0:0:0:
356,279,101232,1,2,3:2:0:0:
359,259,101307,1,0,3:0:0:0:
362,239,101382,2,0,P|371:215|383:193,1,50,0|0,3:0|3:0,0:0:0:0:
458,96,101532,5,10,3:2:0:0:
439,88,101607,1,0,3:0:0:0:
420,82,101682,1,0,3:0:0:0:
400,79,101757,1,0,3:0:0:0:
380,79,101832,1,2,3:2:0:0:
360,80,101907,1,0,3:0:0:0:
341,83,101982,1,0,3:0:0:0:
321,88,102057,1,0,3:0:0:0:
302,94,102132,1,2,3:2:0:0:
283,100,102207,1,0,3:0:0:0:
264,106,102282,1,0,3:0:0:0:
244,110,102357,1,0,3:0:0:0:
224,112,102432,1,2,3:2:0:0:
204,111,102507,1,0,3:0:0:0:
183,108,102582,2,0,P|159:105|136:94,1,50,0|0,3:0|3:0,0:0:0:0:
0,5,102732,5,10,0:2:0:0:
300,352,103032,38,0,L|292:302,1,50,0|0,3:0|0:0,0:0:0:0:
300,120,103182,2,0,L|292:169,1,50,0|0,3:0|0:0,0:0:0:0:
197,334,103332,5,2,3:1:0:0:
184,339,103482,1,2,0:1:0:0:
402,229,103632,1,8,0:2:0:0:
174,216,103782,5,2,3:1:0:0:
160,207,103932,1,2,0:1:0:0:
404,331,104082,1,8,0:2:0:0:
375,101,104232,5,2,3:1:0:0:
301,333,104382,1,0,0:0:0:0:
240,116,104532,37,2,3:1:0:0:
225,107,104682,1,0,0:0:0:0:
482,262,104832,1,2,3:1:0:0:
485,212,104907,1,0,3:0:0:0:
488,162,104982,1,0,3:0:0:0:
491,112,105057,1,0,3:0:0:0:
494,62,105132,5,8,0:2:0:0:
466,60,105207,1,2,0:2:0:0:
440,46,105282,2,0,P|422:28|415:4,1,50,2|0,3:1|3:0,0:0:0:0:
339,144,105432,2,0,P|357:128|381:121,1,50,2|8,0:2|0:2,0:0:0:0:
257,36,105581,2,0,L|207:28,1,50,8|0,0:2|0:0,0:0:0:0:
72,84,105732,5,2,3:2:0:0:
81,101,105807,1,0,3:0:0:0:
89,119,105882,1,0,3:0:0:0:
95,138,105957,1,0,3:0:0:0:
100,158,106032,1,2,3:2:0:0:
103,178,106107,1,0,3:0:0:0:
104,197,106182,2,0,P|102:224|96:246,1,50,0|0,3:0|3:0,0:0:0:0:
155,357,106332,5,10,3:2:0:0:
185,336,106407,1,0,3:0:0:0:
220,323,106482,1,0,3:0:0:0:
257,320,106557,1,0,3:0:0:0:
294,328,106632,37,2,3:2:0:0:
299,303,106707,1,0,3:0:0:0:
310,281,106782,1,0,3:0:0:0:
327,262,106857,1,0,3:0:0:0:
348,246,106932,6,0,P|347:222|351:197,3,50,2|0|0|0,3:2|3:0|3:0|3:0,0:0:0:0:
261,95,107232,2,0,P|266:119|268:144,3,50,2|0|0|0,3:2|3:0|3:0|3:0,0:0:0:0:
402,108,107532,2,0,P|377:115|352:118,3,50,10|0|0|0,3:2|3:0|3:0|3:0,0:0:0:0:
214,231,107832,2,0,P|239:231|264:234,3,50,2|0|0|0,3:2|3:0|3:0|3:0,0:0:0:0:
132,92,108132,5,0,3:0:0:0:
129,78,108282,1,0,0:0:0:0:
162,350,108432,1,8,0:2:0:0:
240,94,108582,5,0,3:0:0:0:
243,80,108732,1,0,0:0:0:0:
212,354,108882,1,8,0:2:0:0:
294,79,109032,37,0,3:0:0:0:
345,358,109182,1,0,3:0:0:0:
462,127,109332,1,8,0:2:0:0:
233,173,109482,5,0,3:0:0:0:
473,276,109632,1,0,3:0:0:0:
385,41,109782,1,8,0:2:0:0:
348,278,109932,5,0,3:0:0:0:
345,290,110007,1,0,3:0:0:0:
343,302,110082,1,0,3:0:0:0:
341,314,110157,1,0,3:0:0:0:
339,327,110232,1,8,0:2:0:0:
257,167,110382,1,0,3:0:0:0:
374,59,110532,5,2,3:2:0:0:
354,54,110607,1,0,3:0:0:0:
334,51,110682,1,0,3:0:0:0:
314,49,110757,1,0,3:0:0:0:
294,48,110832,1,2,3:2:0:0:
274,49,110907,1,0,3:0:0:0:
253,51,110982,2,0,P|229:52|205:59,1,50,0|0,3:0|3:0,0:0:0:0:
75,16,111132,37,10,3:2:0:0:
67,34,111207,1,0,3:0:0:0:
62,53,111282,1,0,3:0:0:0:
59,73,111357,1,0,3:0:0:0:
58,93,111432,1,2,3:2:0:0:
60,113,111507,1,0,3:0:0:0:
63,133,111582,1,0,3:0:0:0:
68,152,111657,1,0,3:0:0:0:
75,171,111732,1,2,3:2:0:0:
81,190,111807,1,0,3:0:0:0:
86,209,111882,1,0,3:0:0:0:
88,229,111957,1,0,3:0:0:0:
87,249,112032,1,2,3:2:0:0:
85,269,112107,1,0,3:0:0:0:
79,289,112182,2,0,P|73:312|58:332,1,50,0|0,3:0|3:0,0:0:0:0:
272,307,112332,5,8,0:2:0:0:
272,307,112632,5,0,3:0:0:0:
280,270,112707,1,0,3:0:0:0:
301,240,112782,1,0,3:0:0:0:
332,219,112857,1,0,3:0:0:0:
369,212,112932,6,0,L|417:225,1,50,8|0,0:2|0:0,0:0:0:0:
512,254,113082,1,2,3:2:0:0:
354,162,113232,38,0,L|394:191,1,50,8|0,0:2|0:0,0:0:0:0:
474,250,113382,1,2,3:2:0:0:
357,109,113532,6,0,L|384:150,1,50,8|0,0:2|0:0,0:0:0:0:
439,233,113682,1,2,3:2:0:0:
378,62,113832,6,0,L|390:110,1,50,8|0,0:2|0:0,0:0:0:0:
413,206,113982,1,2,3:2:0:0:
414,24,114132,6,0,L|409:73,1,50,8|0,0:2|0:0,0:0:0:0:
397,171,114282,1,2,3:2:0:0:
460,0,114432,38,0,L|437:44,1,50,8|0,0:2|0:0,0:0:0:0:
394,132,114582,1,2,3:2:0:0:
50,90,114732,6,0,L|55:159,1,70,10|0,3:2|0:0,0:0:0:0:
62,235,115332,5,0,3:0:0:0:
129,253,115482,1,0,3:0:0:0:
342,123,115632,1,8,0:2:0:0:
204,384,115782,5,0,3:0:0:0:
253,334,115932,1,0,3:0:0:0:
247,85,116082,1,8,0:2:0:0:
404,335,116232,37,0,3:0:0:0:
385,268,116382,1,0,3:0:0:0:
166,148,116532,1,8,0:2:0:0:
461,137,116682,5,0,3:0:0:0:
394,120,116832,1,0,3:0:0:0:
180,249,116982,1,8,0:2:0:0:
315,0,117132,5,0,3:0:0:0:
266,49,117282,1,0,3:0:0:0:
271,298,117432,1,8,0:2:0:0:
320,249,117582,1,0,3:0:0:0:
60,147,117732,5,2,3:1:0:0:
57,127,117882,1,2,3:1:0:0:
100,381,118032,38,0,L|109:331,1,50,8|0,0:2|0:0,0:0:0:0:
131,208,118182,1,0,0:0:0:0:
151,193,118257,1,0,0:0:0:0:
174,186,118332,2,0,P|198:187|222:196,1,50,0|0,3:0|0:0,0:0:0:0:
304,354,118482,6,0,L|307:304,1,50,8|0,0:2|0:0,0:0:0:0:
320,125,118632,1,0,0:0:0:0:
433,333,118782,6,0,L|429:283,1,50,0|0,3:0|0:0,0:0:0:0:
412,69,118932,1,8,0:2:0:0:
412,57,119082,1,0,0:0:0:0:
318,293,119232,6,0,L|308:243,1,50,0|0,3:0|0:0,0:0:0:0:
270,39,119382,1,8,0:2:0:0:
267,25,119532,1,0,0:0:0:0:
160,310,119682,38,0,L|196:275,1,50,0|0,3:0|0:0,0:0:0:0:
346,129,119832,1,8,0:2:0:0:
357,117,119982,1,0,0:0:0:0:
127,143,120132,5,2,3:1:0:0:
280,281,120282,1,2,3:1:0:0:
256,0,120432,1,8,0:2:0:0:
177,243,120582,5,2,3:1:0:0:
373,179,120732,1,2,0:1:0:0:
105,46,120882,1,8,0:2:0:0:
282,301,121032,5,2,0:1:0:0:
24,205,121182,1,2,0:1:0:0:
208,149,121332,38,0,P|257:141|307:141,1,100,2|0,3:1|0:0,0:0:0:0:
132,322,121632,1,8,0:2:0:0:
188,55,121782,5,2,0:1:0:0:
193,40,121932,1,2,3:1:0:0:
272,281,122082,1,8,0:2:0:0:
71,108,122232,5,2,0:1:0:0:
337,87,122382,1,2,0:1:0:0:
189,300,122532,6,0,P|159:235|194:171,1,150,0|0,3:0|0:0,0:0:0:0:
288,120,122832,2,0,B|248:140|248:140|144:120,1,150,8|0,0:2|0:0,0:0:0:0:
12,137,123132,2,0,P|32:124|57:121,1,50,0|0,3:0|0:0,0:0:0:0:
96,0,123282,2,0,P|103:25|98:49,1,50
153,245,123432,2,0,L|163:145,1,100,8|0,0:2|0:0,0:0:0:0:
87,315,123732,38,0,P|156:339|222:309,1,150,0|0,3:0|0:0,0:0:0:0:
299,358,124032,2,0,P|359:316|432:328,1,150,8|0,0:2|0:0,0:0:0:0:
489,204,124332,2,0,P|466:210|448:227,1,50,0|0,3:0|0:0,0:0:0:0:
390,96,124482,1,8,0:2:0:0:
297,268,124632,1,0,0:0:0:0:
294,255,124707,1,0,0:0:0:0:
292,243,124782,1,0,0:0:0:0:
290,231,124857,1,0,0:0:0:0:
328,199,124932,6,0,P|258:176|183:179,1,150,0|0,3:0|0:0,0:0:0:0:
146,281,125232,2,0,P|171:275|193:264,1,50,8|0,0:2|0:0,0:0:0:0:
284,140,125382,1,0,0:0:0:0:
135,19,125532,6,0,L|138:68,1,50,0|0,3:0|0:0,0:0:0:0:
147,213,125682,1,8,0:2:0:0:
212,121,125832,1,0,0:0:0:0:
90,15,125982,6,0,L|101:63,1,50,0|0,3:0|0:0,0:0:0:0:
145,244,126132,1,8,0:2:0:0:
187,118,126282,1,0,0:0:0:0:
41,12,126432,38,0,L|61:57,1,50,0|0,3:0|0:0,0:0:0:0:
143,275,126582,1,8,0:2:0:0:
161,120,126732,1,0,0:0:0:0:
0,35,126882,6,0,L|23:79,1,50,0|0,3:0|0:0,0:0:0:0:
141,306,127032,1,8,0:2:0:0:
136,126,127182,1,0,0:0:0:0:
28,343,127332,6,0,P|98:322|168:346,1,150,0|0,3:0|0:0,0:0:0:0:
274,252,127632,2,0,P|226:246|181:268,1,100,8|0,0:2|0:0,0:0:0:0:
391,330,127932,1,0,3:0:0:0:
241,329,128082,1,0,3:0:0:0:
376,163,128232,2,0,L|394:64,1,100,8|0,0:2|0:0,0:0:0:0:
182,44,128532,6,0,P|240:91|313:86,1,150,0|0,3:0|0:0,0:0:0:0:
232,119,128832,2,0,P|205:161|212:210,1,100,8|0,0:2|0:0,0:0:0:0:
281,350,129132,1,0,0:0:0:0:
298,331,129207,1,0,0:0:0:0:
320,319,129282,1,0,3:0:0:0:
343,314,129357,1,0,0:0:0:0:
364,317,129432,2,0,P|341:274|296:255,1,100,8|0,0:2|0:0,0:0:0:0:
128,335,129732,38,0,P|177:335|215:306,1,100,0|0,3:0|0:0,0:0:0:0:
254,113,130032,1,8,0:2:0:0:
151,257,130182,2,0,L|147:207,1,50
134,43,130332,1,0,3:0:0:0:
141,32,130407,1,0,3:0:0:0:
154,30,130482,6,0,L|104:23,1,50,8|0,0:2|0:0,0:0:0:0:
182,162,130632,1,0,0:0:0:0:
177,174,130707,1,0,0:0:0:0:
176,187,130782,1,0,3:0:0:0:
183,198,130857,1,0,3:0:0:0:
196,200,130932,6,0,L|146:206,1,50,8|0,0:2|0:0,0:0:0:0:
298,81,131082,1,0,0:0:0:0:
310,86,131157,1,0,0:0:0:0:
323,87,131232,1,0,3:0:0:0:
334,80,131307,1,0,3:0:0:0:
336,67,131382,6,0,L|329:17,1,50,8|0,0:2|0:0,0:0:0:0:
394,215,131532,1,0,0:0:0:0:
393,227,131607,1,0,0:0:0:0:
392,240,131682,1,0,3:0:0:0:
392,253,131757,1,0,3:0:0:0:
391,266,131832,38,0,L|389:315,1,50,8|0,0:2|0:0,0:0:0:0:
292,192,131982,1,0,0:0:0:0:
299,179,132057,1,0,0:0:0:0:
309,170,132132,6,0,P|331:159|355:160,1,50,0|0,3:0|0:0,0:0:0:0:
496,228,132282,1,0,3:0:0:0:
201,275,132432,2,0,P|177:233|176:183,1,100,8|0,0:2|0:0,0:0:0:0:
214,153,132657,1,0,0:0:0:0:
184,113,132732,1,0,3:0:0:0:
137,100,132807,1,0,3:0:0:0:
91,118,132882,6,0,L|78:69,1,50,8|0,0:2|0:0,0:0:0:0:
79,264,133032,1,0,0:0:0:0:
78,276,133107,1,0,0:0:0:0:
77,289,133182,1,0,0:0:0:0:
76,302,133257,1,0,0:0:0:0:
50,324,133332,5,0,3:0:0:0:
217,352,133482,1,0,3:0:0:0:
32,160,133632,1,8,0:2:0:0:
187,272,133782,37,0,0:0:0:0:
211,265,133857,1,0,0:0:0:0:
235,266,133932,2,0,P|258:274|277:290,1,50,0|0,3:0|3:0,0:0:0:0:
332,176,134082,2,0,P|338:153|338:128,1,50,8|0,0:2|0:0,0:0:0:0:
224,188,134232,2,0,P|206:172|182:165,1,50
371,268,134382,2,0,P|394:277|418:279,1,50
435,122,134532,5,0,3:0:0:0:
438,111,134682,1,0,3:0:0:0:
365,349,134832,1,8,0:2:0:0:
339,325,134907,1,0,0:0:0:0:
327,290,134982,2,0,P|328:265|339:243,1,50,2|0,0:1|0:0,0:0:0:0:
287,54,135132,1,2,0:1:0:0:
224,288,135282,5,8,0:2:0:0:
189,293,135357,1,0,0:0:0:0:
154,299,135432,2,0,L|104:305,1,50,2|0,0:1|0:0,0:0:0:0:
169,165,135582,2,0,P|190:179|203:201,1,50,2|0,0:1|0:0,0:0:0:0:
69,109,135732,6,0,P|70:85|82:63,1,50,8|0,0:2|0:0,0:0:0:0:
275,139,135882,2,0,L|324:134,1,50,2|0,0:1|0:0,0:0:0:0:
136,229,136032,2,0,L|86:224,1,50,2|0,0:1|0:0,0:0:0:0:
199,37,136182,37,8,0:2:0:0:
230,51,136257,1,0,0:0:0:0:
264,50,136332,2,0,P|288:42|308:27,1,50,2|0,0:1|0:0,0:0:0:0:
268,206,136482,2,0,L|260:156,1,50,2|0,0:1|0:0,0:0:0:0:
423,211,136632,5,8,0:2:0:0:
149,339,136782,1,0,0:0:0:0:
160,328,136857,1,0,0:0:0:0:
167,313,136932,6,0,P|168:265|135:228,1,100,0|0,3:0|3:0,0:0:0:0:
310,364,137232,1,8,0:2:0:0:
200,154,137382,5,0,3:0:0:0:
198,141,137532,1,0,3:0:0:0:
239,370,137682,1,8,0:2:0:0:
302,181,137832,38,0,L|327:33,1,150,0|0,3:0|0:0,0:0:0:0:
275,46,138132,6,0,L|294:164,1,120,0|0,3:0|0:0,0:0:0:0:
250,152,138432,6,0,L|264:63,1,89.9999972534181,8|0,0:2|0:0,0:0:0:0:
221,80,138732,6,0,L|231:139,1,60,0|0,3:0|0:0,0:0:0:0:
194,124,139032,38,0,L|198:94,1,30,0|0,3:0|0:0,0:0:0:0:
512,128,139332,6,0,L|362:140,1,150.000005722046,6|0,0:2|0:0,0:0:0:0:
260,233,139557,2,0,L|409:245,1,150.000005722046,6|0,0:2|0:0,0:0:0:0:
214,154,139782,6,0,P|141:146|85:194,1,150.000005722046,6|0,0:2|0:0,0:0:0:0:
260,233,140007,2,0,P|301:174|288:102,1,150.000005722046,6|0,0:2|0:0,0:0:0:0:
167,232,140232,2,0,P|198:299|267:322,1,150.000005722046,6|0,0:2|0:0,0:0:0:0:
50,332,140532,6,0,L|61:182,1,150.000005722046,6|0,0:2|0:0,0:0:0:0:
156,82,140757,2,0,L|167:231,1,150.000005722046,6|0,0:2|0:0,0:0:0:0:
286,173,140982,38,0,P|333:115|339:41,1,150.000005722046,6|0,0:2|0:0,0:0:0:0:
259,267,141207,2,0,P|333:259|389:211,1,150.000005722046,6|0,0:2|0:0,0:0:0:0:
172,313,141432,2,0,P|230:360|303:370,1,150.000005722046,6|0,0:2|0:0,0:0:0:0:
52,272,141732,54,0,L|1:286,1,50.0000019073487,2|2,0:3|0:3,0:0:0:0:
37,246,141832,2,0,L|-14:250,1,50.0000019073487,2|2,0:3|0:3,0:0:0:0:
39,207,141932,2,0,L|-19:206,1,50.0000019073487,2|2,0:3|0:3,0:0:0:0:
82,148,142032,6,0,L|133:162,1,50.0000019073487,2|2,0:3|0:3,0:0:0:0:
97,122,142132,2,0,L|148:126,1,50.0000019073487,2|2,0:3|0:3,0:0:0:0:
95,83,142232,2,0,L|153:82,1,50.0000019073487,2|2,0:3|0:3,0:0:0:0:
57,19,142332,70,0,L|3:9,5,50.0000019073487,2|2|2|2|2|2,0:3|0:3|0:3|0:3|0:3|0:3,0:0:0:0:
189,77,142632,2,0,L|243:70,5,50.0000019073487,2|2|2|2|2|2,0:3|0:3|0:3|0:3|0:3|0:3,0:0:0:0:
231,300,142932,21,8,0:2:0:0:
266,273,143007,1,8,0:2:0:0:
284,232,143082,1,8,0:2:0:0:
281,188,143157,1,8,0:2:0:0:
247,150,143232,5,8,0:2:0:0:
267,158,143307,1,8,0:2:0:0:
289,164,143382,1,8,0:2:0:0:
311,165,143457,1,8,0:2:0:0:
357,145,143532,5,8,0:2:0:0:
359,135,143607,1,8,0:2:0:0:
360,127,143682,1,8,0:2:0:0:
361,117,143757,1,8,0:2:0:0:
341,91,143832,5,0,3:0:0:0:
338,81,143907,1,0,3:0:0:0:
336,72,143982,1,0,3:0:0:0:
334,63,144057,1,0,3:0:0:0:
362,37,144132,38,0,P|316:21|267:27,1,100,0|2,3:0|0:2,0:0:0:0:
185,99,144357,1,8,0:2:0:0:
162,97,144432,2,0,P|152:75|150:50,1,50,0|0,3:0|0:0,0:0:0:0:
120,162,144582,2,0,P|100:148|87:127,1,50,0|0,3:0|0:0,0:0:0:0:
245,215,144732,6,0,P|258:195|280:183,1,50,2|0,0:2|0:0,0:0:0:0:
130,315,144882,2,0,L|125:265,1,50,8|0,0:2|0:0,0:0:0:0:
275,340,145032,5,0,3:0:0:0:
320,360,145107,1,0,3:0:0:0:
369,359,145182,1,0,3:0:0:0:
413,336,145257,1,0,3:0:0:0:
449,273,145332,5,0,3:0:0:0:
369,101,145482,1,8,0:2:0:0:
179,95,145632,1,8,0:2:0:0:
299,207,145782,38,0,P|322:196|338:177,1,50,2|2,0:2|0:2,0:0:0:0:
182,274,145932,2,0,L|177:323,1,50,8|0,0:2|0:0,0:0:0:0:
275,134,146082,2,0,L|270:84,1,50,8|0,0:2|0:0,0:0:0:0:
314,286,146232,6,0,L|319:335,1,50,0|0,3:0|0:0,0:0:0:0:
324,296,146382,2,0,L|329:345,1,50,0|0,3:0|0:0,0:0:0:0:
212,199,146532,6,0,P|187:193|162:195,1,50,0|2,3:0|0:2,0:0:0:0:
30,159,146682,2,0,P|51:144|75:138,1,50,0|2,3:0|0:2,0:0:0:0:
103,266,146832,1,2,0:2:0:0:
92,288,146907,1,8,0:2:0:0:
72,305,146982,2,0,P|51:318|27:322,1,50,0|2,3:0|0:2,0:0:0:0:
236,299,147132,5,8,0:2:0:0:
191,127,147282,1,2,0:2:0:0:
198,103,147357,1,8,0:2:0:0:
204,78,147432,2,0,L|214:29,1,50,8|0,0:2|0:0,0:0:0:0:
154,202,147582,2,0,P|132:191|118:171,1,50,0|0,3:0|0:0,0:0:0:0:
311,164,147732,38,0,P|320:210|282:237,1,100,8|0,0:2|3:0,0:0:0:0:
327,170,148032,6,0,P|344:230|304:278,1,129.999994049073,8|0,0:2|3:0,0:0:0:0:
344,172,148332,6,0,P|378:241|345:311,1,160,8|0,0:2|3:0,0:0:0:0:
361,170,148632,6,0,P|416:243|395:333,1,189.999994926453,8|0,0:2|3:0,0:0:0:0:
405,78,148932,37,0,3:0:0:0:
417,70,149082,1,0,0:0:0:0:
194,178,149232,1,8,0:2:0:0:
125,50,149382,5,0,0:0:0:0:
86,39,149457,1,0,0:0:0:0:
46,45,149532,2,0,P|25:60|9:79,1,50
76,225,149682,6,0,L|82:175,1,50,8|0,0:2|0:0,0:0:0:0:
211,19,149832,2,0,L|217:68,1,50
244,288,149982,1,0,3:0:0:0:
245,273,150057,1,0,3:0:0:0:
247,258,150132,6,0,P|201:238|153:248,1,100,8|0,0:2|0:0,0:0:0:0:
171,159,150357,2,0,P|165:135|151:115,1,50
195,317,150507,1,0,0:0:0:0:
193,339,150582,2,0,P|186:363|171:384,1,50,8|0,0:2|0:0,0:0:0:0:
322,265,150732,37,0,0:0:0:0:
358,258,150807,1,0,0:0:0:0:
395,267,150882,1,0,0:0:0:0:
425,288,150957,1,0,0:0:0:0:
445,320,151032,2,0,P|449:344|448:369,1,50,8|0,0:2|0:0,0:0:0:0:
420,192,151182,2,0,L|429:142,1,50
359,349,151348,6,0,L|284:357,1,75,2|0,0:2|0:0,0:0:0:0:
276,328,151648,2,0,L|201:320,1,75,2|0,0:2|0:0,0:0:0:0:
182,343,151948,2,0,L|165:344,5,16.6666666666667
121,324,152248,6,0,L|119:299,1,25,2|0,0:2|0:0,0:0:0:0:
154,243,152398,2,0,L|153:268,1,25,2|0,0:2|0:0,0:0:0:0:
90,264,152548,2,0,L|114:262,1,25,2|0,0:2|0:0,0:0:0:0:
187,303,152698,2,0,L|162:301,1,25,2|0,0:2|0:0,0:0:0:0:
227,276,152848,6,0,P|241:242|236:206,1,75,2|0,0:2|0:0,0:0:0:0:
205,202,153148,2,0,P|199:165|214:131,1,75,2|0,0:2|0:0,0:0:0:0:
240,112,153448,2,0,L|165:118,1,75,2|0,0:2|0:0,0:0:0:0:
152,72,153732,38,0,L|251:80,1,100,0|2,3:0|0:2,0:0:0:0:
379,92,153957,1,8,0:2:0:0:
405,78,154032,2,0,P|420:58|425:34,1,50,0|0,3:0|0:0,0:0:0:0:
313,157,154182,2,0,P|322:180|340:196,1,50,0|0,3:0|0:0,0:0:0:0:
397,330,154332,5,0,3:0:0:0:
362,294,154407,1,0,3:0:0:0:
314,283,154482,1,0,3:0:0:0:
267,299,154557,1,0,3:0:0:0:
214,345,154632,6,0,L|156:351,1,50,8|0,0:2|3:0,0:0:0:0:
161,239,154782,2,0,L|103:245,1,50,8|0,0:2|3:0,0:0:0:0:
212,123,154932,2,0,L|154:129,1,50,8|0,0:2|3:0,0:0:0:0:
159,17,155082,2,0,L|101:23,1,50,8|0,0:2|3:0,0:0:0:0:
227,198,155232,6,0,P|250:190|268:173,1,50,8|0,0:2|0:0,0:0:0:0:
288,216,155382,38,0,P|307:193|315:164,1,59.9999981689454,8|0,0:2|0:0,0:0:0:0:
351,202,155532,6,0,P|356:167|343:135,1,69.9999978637696,8|0,0:2|0:0,0:0:0:0:
399,156,155682,6,0,P|383:119|351:95,1,80,8|0,0:2|0:0,0:0:0:0:
417,91,155832,6,0,P|380:65|336:60,1,89.9999972534181,8|0,0:2|0:0,0:0:0:0:
400,26,155982,38,0,P|350:22|308:48,1,100,8|0,0:2|0:0,0:0:0:0:
288,216,156132,6,0,B|311:181|311:181|294:125,1,100,0|2,3:0|0:2,0:0:0:0:
232,73,156357,1,8,0:2:0:0:
204,63,156432,2,0,P|179:62|156:72,1,50,0|0,3:0|0:0,0:0:0:0:
74,181,156582,1,0,3:0:0:0:
40,23,156732,6,0,P|64:26|84:41,1,50,2|0,0:2|0:0,0:0:0:0:
184,188,156882,2,0,L|195:134,1,50,8|0,0:2|0:0,0:0:0:0:
123,255,157032,6,0,P|187:277|249:249,1,139.999995727539,8|0,0:2|3:0,0:0:0:0:
152,300,157332,38,0,P|210:292|249:249,1,119.999996337891,8|0,0:2|3:0,0:0:0:0:
191,322,157632,6,0,P|232:294|249:249,1,100,8|0,0:2|3:0,0:0:0:0:
229,323,157932,6,0,P|249:288|249:249,1,80,8|0,0:2|3:0,0:0:0:0:
257,306,158232,6,0,P|259:276|248:248,1,59.9999981689454,8|0,0:2|3:0,0:0:0:0:
421,357,158532,37,0,3:0:0:0:
423,372,158682,1,0,0:0:0:0:
384,123,158832,1,8,0:2:0:0:
331,276,158982,6,0,P|353:287|377:290,1,50
302,158,159132,2,0,L|295:89,1,50
229,323,159282,2,0,L|236:254,1,50,8|0,0:2|0:0,0:0:0:0:
193,107,159432,1,0,3:0:0:0:
177,143,159507,1,0,3:0:0:0:
144,167,159582,2,0,P|120:173|95:171,1,50,0|0,3:0|3:0,0:0:0:0:
165,33,159732,6,0,P|189:27|214:29,1,50,8|0,0:2|0:0,0:0:0:0:
342,226,159882,1,0,3:0:0:0:
337,188,159957,1,0,3:0:0:0:
333,151,160032,1,0,3:0:0:0:
329,114,160107,1,0,3:0:0:0:
325,76,160182,2,0,L|320:26,1,50,8|0,0:2|0:0,0:0:0:0:
234,163,160332,5,0,3:0:0:0:
202,182,160407,1,0,3:0:0:0:
165,191,160482,1,0,3:0:0:0:
128,187,160557,1,0,3:0:0:0:
94,172,160632,2,0,P|71:156|56:136,1,50,8|0,0:2|0:0,0:0:0:0:
163,271,160782,2,0,P|171:294|170:319,1,50
155,93,160932,38,0,P|222:60|294:76,1,150,0|0,3:0|0:0,0:0:0:0:
349,153,161232,2,0,P|420:168|487:136,1,150,8|0,0:2|0:0,0:0:0:0:
276,172,161532,54,0,L|271:227,1,33.3333333333333,2|0,0:3|0:0,0:0:0:0:
268,238,161632,2,0,L|263:293,1,33.3333333333333,2|0,0:3|0:0,0:0:0:0:
260,304,161732,2,0,L|255:359,1,33.3333333333333,2|0,0:3|0:0,0:0:0:0:
213,373,161832,38,0,P|275:348|370:384,1,150,8|0,0:2|0:0,0:0:0:0:
294,258,162132,6,0,P|301:185|358:140,1,150,0|0,3:0|0:0,0:0:0:0:
415,65,162432,2,0,L|419:31,5,33.3333333333333,8|0|0|0|0|0,0:2|0:0|0:0|0:0|0:0|0:0,0:0:0:0:
311,66,162732,6,0,L|145:53,1,150,8|0,0:2|0:0,0:0:0:0:
326,82,163032,38,0,L|143:68,1,179.999994506836,8|0,0:2|0:0,0:0:0:0:
81,130,163332,6,0,P|65:112|57:88,1,50,0|2,3:0|0:2,0:0:0:0:
167,159,163482,2,0,P|158:183|140:200,1,50,0|2,3:0|0:2,0:0:0:0:
58,307,163632,1,8,0:2:0:0:
75,304,163707,1,2,0:2:0:0:
92,301,163782,2,0,L|141:291,1,50,0|0,3:0|0:0,0:0:0:0:
231,341,163932,2,0,L|219:338,28,12.5,2|0|0|0|0|0|0|0|0|0|0|0|0|0|0|0|0|0|0|0|0|0|0|0|0|0|0|0|0,0:1|0:0|0:0|0:0|0:0|0:0|0:0|0:0|0:0|0:0|0:0|0:0|0:0|0:0|0:0|0:0|0:0|0:0|0:0|0:0|0:0|0:0|0:0|0:0|0:0|0:0|0:0|0:0|0:0,0:0:0:0:
339,360,164532,5,0,3:0:0:0:
336,346,164607,1,0,3:0:0:0:
316,328,164682,5,8,0:2:0:0:
312,288,164757,1,8,0:2:0:0:
308,248,164832,1,8,0:2:0:0:
305,208,164907,1,8,0:2:0:0:
319,186,164982,37,2,0:2:0:0:
302,142,165057,1,8,0:2:0:0:
319,87,165132,5,2,0:1:0:0:
288,111,165207,1,2,0:1:0:0:
234,152,165282,5,2,0:1:0:0:
252,181,165357,1,2,0:1:0:0:
248,211,165432,1,2,0:1:0:0:
199,266,165507,5,2,0:1:0:0:
143,232,165582,1,2,0:1:0:0:
78,241,165657,1,2,0:1:0:0:
90,166,165732,38,0,L|107:45,1,119.999996337891,8|0,0:2|3:0,0:0:0:0:
103,159,166032,6,0,L|117:59,1,100,8|0,0:2|3:0,0:0:0:0:
115,151,166332,6,0,L|125:71,1,80,8|0,0:2|3:0,0:0:0:0:
124,163,166632,6,0,L|138:63,1,100,8|0,0:2|3:0,0:0:0:0:
220,38,166857,1,0,3:0:0:0:
243,45,166932,38,0,P|291:37|323:0,1,100,8|0,0:2|3:0,0:0:0:0:
244,149,167157,1,0,3:0:0:0:
260,166,167232,6,0,P|305:183|368:160,1,115.000002193451,8|0,0:2|3:0,0:0:0:0:
401,47,167457,1,0,3:0:0:0:
406,69,167532,6,0,P|449:115|513:121,1,129.999994049073,8|0,0:2|3:0,0:0:0:0:
436,234,167757,1,0,3:0:0:0:
429,256,167832,6,0,P|448:323|512:352,1,145.000004425049,8|0,0:2|3:0,0:0:0:0:
352,356,168057,1,0,3:0:0:0:
326,353,168132,38,0,L|214:344,1,100,0|0,3:0|0:0,0:0:0:0:
171,207,168432,2,0,L|282:198,1,100,8|0,0:2|0:0,0:0:0:0:
385,190,168657,1,0,0:0:0:0:
383,187,168732,1,0,0:0:0:0:
381,184,168807,1,0,0:0:0:0:
379,181,168882,2,0,P|392:160|415:150,1,50,8|0,0:2|0:0,0:0:0:0:
305,94,169032,5,0,0:0:0:0:
264,65,169107,1,0,0:0:0:0:
217,48,169182,1,0,0:0:0:0:
167,46,169257,1,0,0:0:0:0:
117,54,169332,5,8,0:2:0:0:
128,76,169407,1,8,0:2:0:0:
121,101,169482,5,2,0:1:0:0:
116,135,169557,1,2,0:1:0:0:
143,175,169632,1,2,0:1:0:0:
116,209,169707,1,2,0:1:0:0:
160,246,169782,37,8,0:2:0:0:
145,281,169857,1,2,0:1:0:0:
161,310,169932,1,2,0:1:0:0:
176,275,170007,1,2,0:1:0:0:
120,257,170082,5,2,0:1:0:0:
116,209,170157,1,2,0:1:0:0:
143,175,170232,5,8,0:2:0:0:
111,150,170307,1,8,0:2:0:0:
107,110,170382,1,2,0:1:0:0:
128,76,170457,1,2,0:1:0:0:
117,54,170532,6,0,L|216:45,1,100,0|0,3:0|0:0,0:0:0:0:
270,189,170832,2,0,L|170:180,1,100,8|0,0:2|0:0,0:0:0:0:
308,94,171132,6,0,P|320:82|325:67,1,33.3333333333333,2|0,0:3|0:0,0:0:0:0:
337,120,171232,2,0,P|352:113|362:100,1,33.3333333333333,2|0,0:3|0:0,0:0:0:0:
355,155,171332,2,0,P|371:154|385:145,1,33.3333333333333,2|0,0:3|0:0,0:0:0:0:
351,224,171432,21,0,3:0:0:0:
346,248,171582,1,0,0:0:0:0:
341,272,171732,1,0,3:0:0:0:
336,296,171882,1,0,0:0:0:0:
331,321,172032,6,0,L|355:204,1,100,8|0,0:2|3:0,0:0:0:0:
181,321,172332,2,0,L|157:204,1,100,8|0,0:2|3:0,0:0:0:0:
346,307,172632,6,0,L|374:202,1,100,8|0,0:2|3:0,0:0:0:0:
166,307,172932,2,0,L|137:202,1,100,8|0,0:2|3:0,0:0:0:0:
364,296,173232,6,0,L|398:201,1,100,8|0,0:2|3:0,0:0:0:0:
148,296,173532,2,0,L|113:201,1,100,8|0,0:2|3:0,0:0:0:0:
256,96,173832,38,0,L|256:211,1,100,8|0,0:2|3:0,0:0:0:0:
215,225,174057,1,0,3:0:0:0:
165,231,174132,6,0,P|117:217|82:178,1,100,8|0,0:2|3:0,0:0:0:0:
297,225,174357,1,0,3:0:0:0:
346,231,174432,6,0,P|395:217|430:178,1,100,8|0,0:2|3:0,0:0:0:0:
204,289,174657,1,0,3:0:0:0:
150,316,174732,6,0,P|89:318|34:289,1,100,8|0,0:2|3:0,0:0:0:0:
308,289,174957,1,0,3:0:0:0:
362,316,175032,38,0,P|422:318|477:289,1,100,8|0,0:2|3:0,0:0:0:0:
256,256,175257,1,0,3:0:0:0:
167,134,183708,5,8,0:1:0:0:
184,278,183858,2,0,B|189:327,1,50,2|0,0:1|0:0,0:0:0:0:
173,291,184008,2,0,B|178:340,1,50,2|0,0:1|0:0,0:0:0:0:
99,229,184158,1,0,3:0:0:0:
337,186,184308,5,8,0:2:0:0:
251,231,184458,1,0,3:0:0:0:
458,363,184608,1,2,0:1:0:0:
363,347,184758,1,0,3:0:0:0:
423,145,184908,5,0,3:0:0:0:
268,331,185058,37,2,0:3:0:0:
266,318,185133,1,2,0:3:0:0:
292,299,185208,5,2,0:3:0:0:
294,286,185283,1,2,0:3:0:0:
259,268,185358,6,0,L|246:193,1,50,8|0,3:2|0:0,0:0:0:0:
230,81,185508,6,0,B|339:21|365:172|425:125|474:37|454:10|398:-34|329:-8|317:20|308:86|334:114|369:150|369:150|395:182|396:216,1,525.000020027161,8|0,0:2|0:0,0:0:0:0:
460,269,186108,38,0,B|414:251|414:251|290:278,1,150,8|0,0:1|0:0,0:0:0:0:
269,283,186408,1,8,0:2:0:0:
270,115,186558,1,0,3:0:0:0:
137,12,186708,1,8,0:2:0:0:
162,118,186858,1,0,3:0:0:0:
253,22,187008,6,0,L|302:17,1,50,2|0,0:2|0:0,0:0:0:0:
368,54,187158,2,0,L|318:49,1,50,0|0,3:0|0:0,0:0:0:0:
449,16,187308,5,2,0:1:0:0:
370,144,187458,1,0,0:0:0:0:
430,281,187608,1,0,0:0:0:0:
452,107,187758,1,2,0:1:0:0:
354,233,187908,2,0,L|329:235,1,25,2|0,0:1|0:0,0:0:0:0:
279,99,188058,6,0,L|288:-4,1,100,8|0,0:2|0:0,0:0:0:0:
236,51,188508,37,8,0:1:0:0:
381,50,188658,2,0,L|432:49,1,50,2|0,0:1|0:0,0:0:0:0:
395,32,188808,2,0,L|446:31,1,50,2|0,0:1|0:0,0:0:0:0:
356,135,188958,1,0,3:0:0:0:
397,374,189108,5,8,0:2:0:0:
441,289,189258,1,0,3:0:0:0:
206,361,189408,1,2,0:1:0:0:
289,313,189558,1,0,3:0:0:0:
106,286,189708,6,0,L|38:278,1,50,0|0,3:0|0:0,0:0:0:0:
183,238,189858,2,0,P|181:213|169:191,1,50,2|0,0:2|0:0,0:0:0:0:
29,136,190008,2,0,L|97:128,1,50,8|0,0:2|0:0,0:0:0:0:
216,114,190158,1,0,3:0:0:0:
415,0,190308,5,8,0:2:0:0:
381,348,190608,1,2,0:3:0:0:
381,343,190683,1,2,0:3:0:0:
382,338,190758,1,2,0:3:0:0:
382,333,190833,1,2,0:3:0:0:
383,328,190908,38,0,P|315:298|241:308,1,150,8|0,0:1|0:0,0:0:0:0:
184,334,191208,1,8,0:2:0:0:
182,180,191358,1,0,3:0:0:0:
65,80,191508,5,2,3:1:0:0:
56,74,191658,1,0,3:0:0:0:
51,219,191808,2,0,L|100:213,1,50,2|0,0:2|0:0,0:0:0:0:
182,180,191958,2,0,L|132:174,1,50,2|0,0:2|0:0,0:0:0:0:
241,321,192108,6,0,L|247:252,1,50,2|0,0:3|0:0,0:0:0:0:
261,71,192258,1,8,0:2:0:0:
266,334,192408,6,0,L|283:267,1,50,2|0,0:3|0:0,0:0:0:0:
328,90,192558,1,0,3:0:0:0:
384,229,192708,38,0,P|429:195|380:222,1,150.000005722046,2|0,0:1|0:0,0:0:0:0:
277,206,192858,5,2,0:3:0:0:
254,204,192933,1,2,0:3:0:0:
220,235,193008,5,2,0:3:0:0:
197,237,193083,1,2,0:3:0:0:
170,195,193158,6,0,L|119:189,1,50,8|0,3:2|0:0,0:0:0:0:
0,252,193308,37,8,0:1:0:0:
79,106,193458,2,0,L|83:54,1,50,2|0,0:1|0:0,0:0:0:0:
91,93,193608,2,0,L|95:41,1,50,2|0,0:1|0:0,0:0:0:0:
193,164,193758,1,0,3:0:0:0:
92,354,193908,5,8,0:2:0:0:
100,258,194058,1,0,3:0:0:0:
279,344,194208,2,0,L|290:321,1,25,2|0,0:1|0:0,0:0:0:0:
333,236,194358,1,0,3:0:0:0:
448,384,194508,6,0,L|449:333,1,50,2|0,0:1|0:0,0:0:0:0:
439,239,194658,1,2,0:1:0:0:
459,217,194733,1,2,0:1:0:0:
426,166,194808,1,2,0:1:0:0:
476,118,194883,1,2,0:1:0:0:
413,66,194958,2,0,P|430:49|454:42,1,50,2|0,0:1|0:0,0:0:0:0:
326,91,195108,6,0,B|263:88|263:88|252:80|252:80|177:77|177:77|166:85|166:85|106:83,1,225.000008583069,2|0,0:1|0:0,0:0:0:0:
65,83,195408,38,0,P|133:85|141:154,1,150,2|0,0:3|0:0,0:0:0:0:
81,230,195708,6,0,L|305:243,1,225.000008583069,8|0,0:1|0:0,0:0:0:0:
431,344,196008,2,0,L|203:358,1,225.000008583069,8|0,0:1|0:0,0:0:0:0:
229,217,196308,5,8,0:2:0:0:
258,177,196383,1,8,0:2:0:0:
305,162,196458,2,0,P|330:164|352:175,1,50,0|0,3:0|3:0,0:0:0:0:
193,120,196608,5,8,0:2:0:0:
199,71,196683,1,8,0:2:0:0:
232,34,196758,2,0,P|254:23|279:21,1,50,0|0,3:0|3:0,0:0:0:0:
100,89,196908,38,0,L|62:86,1,25,2|0,0:1|0:0,0:0:0:0:
306,242,197058,1,0,3:0:0:0:
272,103,197208,1,2,0:2:0:0:
230,187,197358,1,2,0:1:0:0:
413,54,197508,6,0,L|417:4,1,50,8|0,0:2|0:0,0:0:0:0:
401,185,197658,6,0,L|396:234,2,50,2|2|2,0:3|0:3|0:3,0:0:0:0:
468,353,198108,5,8,0:1:0:0:
323,344,198258,2,0,B|273:340,1,50,2|0,0:1|0:0,0:0:0:0:
312,330,198408,2,0,B|262:326,1,50,2|0,0:1|0:0,0:0:0:0:
386,268,198558,1,0,3:0:0:0:
151,210,198708,37,8,0:2:0:0:
177,302,198858,1,0,3:0:0:0:
304,96,199008,1,2,0:1:0:0:
281,189,199158,1,0,3:0:0:0:
222,119,199308,6,0,L|220:95,1,14.9999995422363,2|0,0:3|0:0,0:0:0:0:
186,164,199458,2,0,L|188:140,1,14.9999995422363,2|0,0:3|0:0,0:0:0:0:
149,108,199608,2,0,P|143:104|134:103,1,14.9999995422363,2|0,0:3|0:0,0:0:0:0:
170,53,199758,2,0,P|166:46|160:41,1,14.9999995422363,2|0,0:3|0:0,0:0:0:0:
54,72,199908,6,0,L|55:120,1,44.999998626709,8|0,0:2|0:0,0:0:0:0:
85,153,200208,5,2,0:3:0:0:
83,175,200283,1,2,0:3:0:0:
83,197,200358,2,0,L|80:245,1,37.5000014305115,8|0,0:2|0:0,0:0:0:0:
33,318,200508,38,0,L|188:311,1,150,8|0,0:1|0:0,0:0:0:0:
271,325,200808,1,2,0:3:0:0:
276,311,200883,1,2,0:3:0:0:
314,313,200958,5,8,0:1:0:0:
393,125,201108,38,0,L|430:121,2,33.3333333333333,2|2|2,0:2|0:2|0:2,0:0:0:0:
412,147,201258,2,0,L|453:150,2,33.3333333333333,0|0|0,3:0|3:0|3:0,0:0:0:0:
316,89,201408,6,0,L|345:55,2,33.3333333333333,2|2|2,0:2|0:2|0:2,0:0:0:0:
307,62,201558,2,0,L|326:18,2,33.3333333333333,0|0|0,3:0|3:0|3:0,0:0:0:0:
231,144,201708,54,0,L|236:94,1,50,2|0,0:1|0:0,0:0:0:0:
168,196,201858,1,2,0:1:0:0:
218,244,201933,1,2,0:1:0:0:
185,295,202008,1,2,0:1:0:0:
205,317,202083,1,2,0:1:0:0:
196,338,202158,38,0,L|136:344,1,50,8|0,3:2|0:0,0:0:0:0:
184,352,202308,2,0,L|124:358,1,50,8|0,3:2|0:0,0:0:0:0:
318,222,202458,6,0,L|351:220,1,25,2|0,0:1|0:0,0:0:0:0:
102,236,202608,1,8,0:2:0:0:
253,115,202758,1,8,0:2:0:0:
277,348,202908,5,8,0:1:0:0:
174,171,203058,2,0,L|168:111,1,50,2|0,0:1|0:0,0:0:0:0:
158,158,203208,2,0,L|152:98,1,50,2|0,0:1|0:0,0:0:0:0:
103,263,203358,1,0,3:0:0:0:
305,130,203508,5,8,0:2:0:0:
289,225,203658,1,0,3:0:0:0:
175,11,203808,1,2,0:1:0:0:
185,107,203958,1,0,3:0:0:0:
419,72,204108,37,2,0:2:0:0:
394,214,204258,5,2,0:3:0:0:
392,234,204333,1,2,0:3:0:0:
413,273,204408,5,2,0:3:0:0:
415,299,204483,1,2,0:3:0:0:
379,328,204558,6,0,L|371:390,1,50,8|0,0:2|0:0,0:0:0:0:
304,270,204708,2,0,P|342:239|391:233,1,100,8|0,0:2|0:0,0:0:0:0:
154,343,205008,2,0,L|125:345,1,25,8|0,0:2|0:0,0:0:0:0:
218,215,205158,37,2,0:3:0:0:
213,195,205233,1,2,0:3:0:0:
251,167,205308,6,0,B|199:186|199:186|102:171,1,150,8|0,0:1|0:0,0:0:0:0:
0,205,205608,2,0,P|15:224|20:248,1,50,2|0,0:2|0:0,0:0:0:0:
126,146,205758,1,8,3:2:0:0:
0,0,205908,5,8,0:2:0:0:
46,139,206058,1,0,3:0:0:0:
198,14,206208,1,2,3:2:0:0:
212,1,206358,1,2,0:2:0:0:
211,172,206508,6,0,L|208:229,1,50,2|0,0:1|0:0,0:0:0:0:
371,112,206658,2,0,P|396:63|349:98,1,150,0|0,3:0|0:0,0:0:0:0:
382,144,206958,1,2,0:1:0:0:
251,106,207108,2,0,L|247:68,1,25,2|0,0:1|0:0,0:0:0:0:
263,286,207258,38,0,P|216:303|168:295,1,100,8|0,0:2|0:0,0:0:0:0:
323,346,207708,5,8,0:1:0:0:
415,233,207858,2,0,P|437:224|462:226,1,50,2|0,0:1|0:0,0:0:0:0:
426,219,208008,2,0,P|448:209|473:211,1,50,2|0,0:1|0:0,0:0:0:0:
362,141,208158,1,0,3:0:0:0:
437,359,208308,5,8,0:2:0:0:
370,290,208458,1,0,3:0:0:0:
495,83,208608,1,2,0:1:0:0:
476,177,208758,1,0,3:0:0:0:
386,47,208908,5,2,3:2:0:0:
389,36,209058,1,2,3:2:0:0:
302,232,209208,2,0,L|291:127,1,100,8|0,0:2|3:0,0:0:0:0:
169,321,209508,1,2,0:3:0:0:
170,308,209583,1,2,0:3:0:0:
171,296,209658,1,2,0:3:0:0:
172,283,209733,1,2,0:3:0:0:
201,255,209808,37,2,0:3:0:0:
167,232,209883,1,2,0:3:0:0:
127,228,209958,2,0,P|100:233|77:245,1,50,8|0,0:2|0:0,0:0:0:0:
160,153,210108,6,0,L|182:-1,1,150,8|0,0:1|0:0,0:0:0:0:
169,148,210408,2,0,L|191:-6,1,150,8|0,0:1|0:0,0:0:0:0:
281,54,210708,1,8,0:2:0:0:
182,104,210858,1,0,3:0:0:0:
290,31,211008,2,0,L|281:89,1,50,2|0,3:2|0:0,0:0:0:0:
270,153,211158,2,0,L|261:95,1,50,2|0,0:2|0:0,0:0:0:0:
357,81,211308,5,2,0:3:0:0:
382,88,211383,1,2,0:3:0:0:
420,64,211458,1,8,0:2:0:0:
457,221,211608,1,2,0:2:0:0:
388,173,211758,1,8,3:2:0:0:
436,384,211908,6,0,L|440:360,1,25,2|0,0:1|0:0,0:0:0:0:
322,275,212058,2,0,P|297:278|279:294,1,50,8|0,0:2|0:0,0:0:0:0:
405,285,212208,1,8,0:2:0:0:
356,147,212358,1,2,3:2:0:0:
347,359,212508,37,8,0:1:0:0:
260,216,212658,1,2,0:3:0:0:
246,208,212733,1,2,0:3:0:0:
227,201,212808,1,2,0:3:0:0:
202,198,212883,1,2,0:3:0:0:
171,203,212958,2,0,P|149:215|131:232,1,50,8|0,3:2|0:0,0:0:0:0:
67,384,213108,5,8,0:2:0:0:
31,295,213258,1,0,3:0:0:0:
203,288,213408,1,2,0:1:0:0:
192,193,213558,1,0,3:0:0:0:
337,285,213708,5,2,3:3:0:0:
384,294,213783,1,2,0:3:0:0:
426,269,213858,1,2,0:3:0:0:
440,222,213933,1,2,0:3:0:0:
417,179,214008,5,2,0:3:0:0:
404,194,214083,1,2,0:3:0:0:
400,213,214158,1,2,0:3:0:0:
409,230,214233,1,2,0:3:0:0:
424,242,214308,2,0,L|448:244,14,25
478,138,214908,38,0,L|253:151,1,225.000008583069,8|0,0:1|0:0,0:0:0:0:
230,119,215208,2,0,L|254:121,6,25,2|2|2|2|2|2|2,0:2|0:2|0:2|0:2|0:2|0:2|0:2,0:0:0:0:
131,172,215508,1,2,0:3:0:0:
129,142,215583,1,2,0:3:0:0:
128,112,215658,6,0,L|124:44,1,60,8|0,0:1|0:0,0:0:0:0:
33,155,215958,1,2,0:3:0:0:
35,185,216033,1,2,0:3:0:0:
36,215,216108,6,0,L|40:271,1,50,2|0,0:1|0:0,0:0:0:0:
89,336,216258,2,0,P|108:321|118:298,1,50,4|0,0:3|0:0,0:0:0:0:
89,349,216408,2,0,P|108:334|118:311,1,50,2|0,0:3|0:0,0:0:0:0:
288,341,216558,6,0,L|238:335,1,50,2|0,0:1|0:0,0:0:0:0:
319,203,216708,2,0,L|368:197,1,50,2|0,0:1|0:0,0:0:0:0:
439,355,216858,1,8,0:2:0:0:
362,295,217008,1,0,3:0:0:0:
357,307,217158,1,2,0:2:0:0:
512,148,217308,37,8,0:1:0:0:
307,120,217458,2,0,L|258:114,1,50,2|0,0:1|0:0,0:0:0:0:
298,105,217608,2,0,L|249:99,1,50,2|0,0:1|0:0,0:0:0:0:
395,40,217758,1,0,3:0:0:0:
319,203,217908,2,0,L|270:209,1,50,2|0,0:1|0:0,0:0:0:0:
172,260,218058,5,0,3:0:0:0:
172,257,218133,1,0,3:0:0:0:
172,254,218208,1,0,3:0:0:0:
185,164,218358,1,0,3:0:0:0:
143,62,218508,5,8,3:2:0:0:
289,120,218658,2,0,L|313:119,1,25,2|0,0:2|0:0,0:0:0:0:
100,198,218808,1,8,0:2:0:0:
257,221,218958,2,0,L|317:227,1,50,2|0,3:2|0:0,0:0:0:0:
332,354,219108,6,0,L|338:326,1,25,8|0,0:2|0:0,0:0:0:0:
207,309,219258,2,0,L|207:281,1,25,8|0,0:2|0:0,0:0:0:0:
58,379,219408,2,0,L|47:349,1,25,8|0,0:2|0:0,0:0:0:0:
101,265,219558,2,0,L|97:232,1,25,8|0,0:2|0:0,0:0:0:0:
146,378,219708,38,0,L|214:385,1,60,8|0,0:1|0:0,0:0:0:0:
220,342,220008,6,0,L|124:347,1,89.9999972534181,0|0,3:0|0:0,0:0:0:0:
66,235,220308,5,2,0:3:0:0:
97,240,220383,1,2,0:3:0:0:
162,203,220458,5,2,3:3:0:0:
208,196,220533,1,2,3:3:0:0:
276,233,220608,6,0,L|295:235,5,19.9999993896485
336,114,220908,22,0,P|347:88|349:56,1,50,8|0,0:2|0:0,0:0:0:0:
336,114,221058,6,0,P|357:88|371:44,1,59.9999981689454,8|0,0:2|0:0,0:0:0:0:
336,114,221208,6,0,P|365:96|387:69,1,69.9999978637696,8|0,0:2|0:0,0:0:0:0:
336,114,221358,6,0,P|376:107|422:57,1,80,8|0,0:2|0:0,0:0:0:0:
336,114,221508,38,0,P|321:177|333:221,1,104.999996795654,2|0,0:2|0:0,0:0:0:0:
401,356,222108,5,8,0:1:0:0:
223,333,222258,2,0,L|167:326,1,50,2|0,0:1|0:0,0:0:0:0:
212,348,222408,2,0,L|156:341,1,50,2|0,0:1|0:0,0:0:0:0:
252,240,222558,1,0,3:0:0:0:
327,384,222708,5,8,0:2:0:0:
372,192,222858,1,4,0:2:0:0:
344,107,223008,1,4,0:2:0:0:
256,88,223158,1,4,0:2:0:0:
196,155,223308,6,0,L|212:1,1,150,8|0,0:1|0:0,0:0:0:0:
181,21,223608,2,0,L|177:54,5,33.3333333333333,8|8|8|8|8|8,3:2|3:2|3:2|3:2|3:2|3:2,0:0:0:0:
89,31,223908,38,0,L|117:283,1,225.000008583069,8|0,0:2|0:0,0:0:0:0:
105,282,224358,6,0,L|99:232,1,50,8|0,0:2|0:0,0:0:0:0:
194,277,224508,6,0,P|168:344|97:371,1,150,8|0,0:1|0:0,0:0:0:0:
282,191,224808,2,0,P|352:179|411:228,1,150,8|0,0:1|0:0,0:0:0:0:
164,158,225108,6,0,L|156:95,1,50,2|0,3:2|0:0,0:0:0:0:
307,44,225258,1,8,3:2:0:0:
331,266,225408,2,0,L|337:315,1,50,8|0,3:2|0:0,0:0:0:0:
317,285,225558,2,0,L|323:334,1,50,8|0,0:2|0:0,0:0:0:0:
445,48,225708,37,2,0:1:0:0:
418,212,225858,1,2,0:3:0:0:
496,183,226008,1,2,0:3:0:0:
432,130,226158,1,2,0:1:0:0:
276,188,226308,6,0,L|271:235,1,25,2|0,0:1|0:0,0:0:0:0:
323,334,226458,6,0,P|275:321|225:328,1,100,8|0,0:2|0:0,0:0:0:0:
122,121,226908,5,8,0:1:0:0:
128,310,227058,2,0,L|129:364,1,50,2|0,0:1|0:0,0:0:0:0:
111,324,227208,2,0,L|112:378,1,50,2|0,0:1|0:0,0:0:0:0:
209,247,227358,1,0,3:0:0:0:
0,192,227508,37,0,3:0:0:0:
39,104,227658,1,0,3:0:0:0:
222,263,227808,1,2,0:1:0:0:
214,167,227958,1,0,3:0:0:0:
39,280,228108,6,0,L|7:286,1,25,2|0,0:1|0:0,0:0:0:0:
127,136,228258,1,2,0:2:0:0:
161,309,228408,2,0,L|167:341,1,25,8|0,0:2|0:0,0:0:0:0:
117,217,228558,2,0,L|111:249,1,25,2|0,0:1|0:0,0:0:0:0:
261,197,228708,37,2,0:1:0:0:
278,132,228808,1,2,0:1:0:0:
268,65,228908,1,2,0:1:0:0:
325,42,229008,5,2,0:1:0:0:
338,133,229108,1,2,0:1:0:0:
316,222,229208,1,2,0:1:0:0:
184,129,229308,6,0,P|133:76|136:3,1,150,8|0,0:1|0:0,0:0:0:0:
86,69,229608,1,8,0:2:0:0:
112,241,229758,1,2,3:2:0:0:
232,111,229908,6,0,L|207:112,1,25,8|0,0:2|0:0,0:0:0:0:
276,241,230058,2,0,L|300:242,1,25,0|0,3:0|0:0,0:0:0:0:
191,204,230208,2,0,L|185:265,1,50,2|0,3:2|0:0,0:0:0:0:
323,149,230358,2,0,L|329:88,1,50,8|0,0:2|0:0,0:0:0:0:
415,363,230508,6,0,L|409:302,1,50,8|0,0:2|0:0,0:0:0:0:
397,177,230658,1,2,3:2:0:0:
267,335,230808,1,2,0:2:0:0:
279,324,230958,1,0,3:0:0:0:
451,240,231108,6,0,L|481:237,1,25,2|0,0:1|0:0,0:0:0:0:
269,222,231258,1,2,0:3:0:0:
239,203,231333,1,2,0:3:0:0:
212,225,231408,1,2,0:3:0:0:
182,206,231483,1,2,0:3:0:0:
155,228,231558,2,0,L|148:161,1,50,8|0,0:2|0:0,0:0:0:0:
223,31,231708,38,0,L|217:80,1,50,2|0,0:2|0:0,0:0:0:0:
51,107,231858,2,0,P|66:88|90:81,1,50,2|0,0:1|0:0,0:0:0:0:
49,92,232008,2,0,P|64:72|88:65,1,50,2|0,0:1|0:0,0:0:0:0:
125,209,232158,1,0,3:0:0:0:
328,77,232308,5,8,0:2:0:0:
279,159,232458,1,0,3:0:0:0:
470,308,232608,1,2,0:1:0:0:
375,297,232758,1,2,3:2:0:0:
425,184,232908,6,0,P|464:155|512:164,1,100,2|2,0:2|0:3,0:0:0:0:
498,126,233133,1,2,0:3:0:0:
471,97,233208,1,2,0:3:0:0:
434,82,233283,1,2,0:3:0:0:
394,79,233358,2,0,P|370:87|348:99,1,50,8|0,3:2|0:0,0:0:0:0:
218,183,233508,6,0,B|87:251|77:144|9:228|-38:40|177:28|124:197|124:197|76:260|115:346,1,525.000020027161,8|0,0:2|0:0,0:0:0:0:
53,382,234108,38,0,P|115:341|189:342,1,150,8|0,0:1|0:0,0:0:0:0:
302,384,234408,1,8,0:2:0:0:
293,146,234558,1,0,3:0:0:0:
186,310,234708,5,10,0:2:0:0:
201,215,234858,1,0,3:0:0:0:
0,339,235008,1,2,3:2:0:0:
44,254,235158,1,2,0:3:0:0:
0,155,235308,38,0,P|42:130|92:129,1,100,2|0,0:1|0:0,0:0:0:0:
131,174,235508,2,0,P|124:101|70:50,1,146.666671142578,2|0,0:1|0:0,0:0:0:0:
32,50,235758,2,0,L|151:56,1,119.999996337891,2|0,0:1|0:0,0:0:0:0:
203,114,235958,6,0,P|247:56|359:54,1,150.000005722046,2|0,0:1|0:0,0:0:0:0:
349,11,236158,2,0,L|338:184,1,173.333325398763,2|0,0:1|0:0,0:0:0:0:
373,216,236408,2,0,P|338:187|287:185,1,93.3333304850261,2|0,0:1|0:0,0:0:0:0:
161,223,236508,5,8,0:1:0:0:
279,342,236658,2,0,P|336:313|251:304,1,200,8|0,0:2|3:0,0:0:0:0:
383,191,237108,1,10,0:2:0:0:
435,300,237258,1,0,3:0:0:0:
463,138,237408,1,2,0:3:0:0:
471,98,237483,1,2,0:3:0:0:
479,58,237558,1,0,3:0:0:0:
333,79,237708,5,2,0:2:0:0:
262,181,237858,1,2,0:3:0:0:
254,175,237933,1,2,0:3:0:0:
235,208,238008,1,8,0:2:0:0:
228,83,238158,1,2,3:2:0:0:
61,233,238308,6,0,L|66:304,1,60,8|0,0:2|0:0,0:0:0:0:
112,332,238608,1,8,0:2:0:0:
145,161,238758,1,8,0:2:0:0:
73,3,238908,5,8,0:1:0:0:
62,175,239058,2,0,L|66:115,1,60,8|0,0:2|0:0,0:0:0:0:
164,181,239358,1,0,3:0:0:0:
206,56,239508,6,0,L|214:21,2,33.3333333333333,2|2|2,0:2|0:2|0:2,0:0:0:0:
188,78,239658,2,0,L|185:39,2,33.3333333333333,0|0|0,3:0|3:0|3:0,0:0:0:0:
270,126,239808,6,0,L|288:95,2,33.3333333333333,2|2|2,0:2|0:2|0:2,0:0:0:0:
247,137,239958,2,0,L|254:99,2,33.3333333333333,0|0|0,3:0|3:0|3:0,0:0:0:0:
327,24,240108,6,0,B|362:50|362:50|474:36,1,150.000005722046,2|2,0:1|0:3,0:0:0:0:
450,62,240333,1,2,0:3:0:0:
443,91,240408,1,2,0:3:0:0:
444,120,240483,1,2,0:3:0:0:
458,146,240558,2,0,L|500:197,1,50,8|0,3:2|0:0,0:0:0:0:
390,239,240708,2,0,L|396:288,1,50,8|0,3:2|0:0,0:0:0:0:
374,90,240858,5,2,0:1:0:0:
291,256,241008,2,0,L|284:305,1,50,8|0,0:2|0:0,0:0:0:0:
278,268,241158,2,0,L|271:317,1,50,8|0,0:2|0:0,0:0:0:0:
161,132,241308,5,8,0:1:0:0:
321,182,241458,2,0,L|384:167,1,50,2|0,0:1|0:0,0:0:0:0:
336,192,241608,2,0,L|399:177,1,50,2|0,0:1|0:0,0:0:0:0:
265,279,241758,1,8,3:2:0:0:
234,50,241908,5,10,0:2:0:0:
203,141,242058,1,0,3:0:0:0:
32,26,242208,1,2,0:1:0:0:
51,120,242358,1,0,3:0:0:0:
254,38,242508,37,2,3:2:0:0:
274,251,242658,1,2,0:3:0:0:
271,241,242733,1,2,0:3:0:0:
264,233,242808,1,2,0:3:0:0:
255,228,242883,1,2,0:3:0:0:
244,225,242958,2,0,P|219:224|196:235,1,50,8|0,3:2|0:0,0:0:0:0:
188,128,243108,1,8,0:2:0:0:
188,128,243408,6,0,P|208:68|172:119,1,150.000005722046,8|2,0:2|0:3,0:0:0:0:
145,123,243633,1,2,0:3:0:0:
122,143,243708,6,0,P|49:138|6:80,1,150,8|0,0:1|0:0,0:0:0:0:
11,146,244008,1,2,0:2:0:0:
150,152,244158,1,8,3:2:0:0:
26,348,244308,1,10,0:2:0:0:
157,303,244458,1,0,3:0:0:0:
294,326,244608,6,0,L|358:341,1,50,2|0,3:2|0:0,0:0:0:0:
412,341,244758,2,0,L|348:356,1,50,2|0,0:3|0:0,0:0:0:0:
451,200,244908,38,0,L|457:257,1,50,2|0,0:1|0:0,0:0:0:0:
291,137,245058,2,0,P|246:107|305:121,1,150,0|0,3:0|0:0,0:0:0:0:
305,158,245358,1,2,0:1:0:0:
402,18,245508,6,0,L|399:56,1,25,2|0,0:1|0:0,0:0:0:0:
296,296,245658,6,0,L|304:191,1,100,8|0,0:2|0:0,0:0:0:0:
416,233,246108,5,8,0:1:0:0:
353,340,246258,2,0,P|338:359|315:369,1,50,2|0,0:1|0:0,0:0:0:0:
353,355,246408,2,0,P|338:374|315:384,1,50,2|0,0:1|0:0,0:0:0:0:
172,309,246558,1,0,3:0:0:0:
322,186,246708,37,10,0:2:0:0:
43,240,246858,1,8,0:2:0:0:
139,153,247008,54,0,P|155:155|171:153,1,33.3333333333333,2|0,0:3|0:0,0:0:0:0:
153,118,247108,2,0,P|173:117|193:110,1,41.6666666666667,2|0,0:3|0:0,0:0:0:0:
148,84,247208,2,0,P|172:81|193:68,1,50.0000019073487,2|0,0:3|0:0,0:0:0:0:
114,33,247308,21,8,0:1:0:0:
67,169,247458,1,8,0:1:0:0:
266,110,247608,2,0,P|292:68|287:19,1,100,8|8,0:2|0:1,0:0:0:0:
211,226,247908,1,2,0:3:0:0:
209,244,247983,1,2,0:3:0:0:
207,263,248058,1,2,0:3:0:0:
205,281,248133,1,2,0:3:0:0:
242,315,248208,5,2,0:3:0:0:
196,335,248283,1,2,0:3:0:0:
146,329,248358,2,0,P|123:319|110:298,1,50,8|0,0:2|0:0,0:0:0:0:
332,137,248508,6,0,L|350:346,1,179.999994506836,8|0,0:1|0:0,0:0:0:0:
424,230,248808,2,0,L|439:50,1,179.999994506836,8|0,0:1|0:0,0:0:0:0:
315,17,249108,1,8,0:2:0:0:
332,137,249258,1,0,3:0:0:0:
87,119,249408,6,0,L|16:114,1,59.9999981689454,8|0,0:2|0:0,0:0:0:0:
76,132,249558,2,0,L|5:127,1,59.9999981689454,8|0,0:2|0:0,0:0:0:0:
231,64,249708,38,0,L|302:56,1,59.9999981689454,8|0,0:2|0:0,0:0:0:0:
242,75,249858,2,0,L|313:67,1,59.9999981689454,8|0,0:2|0:0,0:0:0:0:
253,86,250008,2,0,L|324:78,1,59.9999981689454,8|0,0:2|0:0,0:0:0:0:
149,301,250158,6,0,L|78:293,1,59.9999981689454,8|0,0:2|0:0,0:0:0:0:
138,312,250308,2,0,L|67:304,1,59.9999981689454,8|0,0:2|0:0,0:0:0:0:
127,323,250458,2,0,L|56:315,1,59.9999981689454,8|0,0:2|0:0,0:0:0:0:
283,238,250608,6,0,L|285:162,1,59.9999981689454,8|0,0:1|0:0,0:0:0:0:
294,253,250758,2,0,L|296:177,1,59.9999981689454,0|0,3:0|0:0,0:0:0:0:
434,78,250908,6,0,L|427:156,1,59.9999981689454,2|0,0:1|0:0,0:0:0:0:
411,300,251058,1,2,0:3:0:0:
409,314,251133,1,2,0:3:0:0:
407,329,251208,1,2,0:3:0:0:
406,344,251283,1,2,0:3:0:0:
404,359,251358,1,2,3:2:0:0:
216,352,251508,37,10,0:2:0:0:
309,305,251658,1,0,3:0:0:0:
158,140,251808,2,0,L|191:142,1,29.9999990844727,2|0,0:1|0:0,0:0:0:0:
281,147,251958,1,0,3:0:0:0:
167,243,252108,5,0,3:0:0:0:
68,155,252258,1,0,3:0:0:0:
128,37,252408,2,0,L|157:35,1,29.9999990844727,2|0,0:1|0:0,0:0:0:0:
187,141,252558,5,8,3:2:0:0:
174,154,252633,1,8,3:2:0:0:
158,162,252708,2,0,P|130:173|100:172,1,59.9999981689454,8|0,0:2|0:0,0:0:0:0:
279,51,252858,6,0,L|390:58,1,100,8|0,0:1|0:0,0:0:0:0:
407,23,253308,38,0,L|425:176,1,100,8|0,0:1|0:0,0:0:0:0:
121,349,253608,5,8,3:2:0:0:
124,304,253683,1,8,3:2:0:0:
127,259,253758,1,8,3:2:0:0:
131,214,253833,1,8,3:2:0:0:
134,169,253908,2,0,L|140:93,1,59.9999981689454,10|0,0:2|0:0,0:0:0:0:
34,32,254058,6,0,L|44:147,1,100,8|0,0:1|0:0,0:0:0:0:
121,293,254508,5,10,0:3:0:0:
126,270,254583,1,2,0:3:0:0:
85,231,254658,37,10,3:3:0:0:
82,203,254733,1,2,0:3:0:0:
131,157,254808,5,2,0:1:0:0:
163,140,254883,1,2,0:1:0:0:
234,169,254958,5,2,0:1:0:0:
271,179,255033,1,2,0:1:0:0:
334,138,255108,5,10,0:3:0:0:
364,126,255183,1,2,0:3:0:0:
372,92,255258,1,10,0:3:0:0:
342,102,255333,1,2,0:3:0:0:
301,42,255408,37,2,0:1:0:0:
272,34,255483,1,2,0:1:0:0:
235,55,255558,1,2,0:1:0:0:
177,90,255633,1,2,0:1:0:0:
113,66,255708,5,8,0:1:0:0:
199,239,255858,2,0,L|208:171,1,59.9999981689454,2|0,0:1|0:0,0:0:0:0:
215,219,256008,2,0,L|224:151,1,59.9999981689454,2|0,0:1|0:0,0:0:0:0:
236,32,256158,1,0,3:0:0:0:
28,135,256308,5,10,0:2:0:0:
132,154,256458,1,0,3:0:0:0:
45,337,256608,1,2,0:1:0:0:
61,328,256683,1,2,0:1:0:0:
71,313,256758,2,0,P|80:284|70:256,1,59.9999981689454,0|0,3:0|0:0,0:0:0:0:
183,284,256908,21,8,3:2:0:0:
287,240,257008,1,8,3:2:0:0:
196,171,257108,1,8,3:2:0:0:
209,286,257208,5,8,3:2:0:0:
277,214,257308,1,8,3:2:0:0:
180,190,257408,1,8,3:2:0:0:
305,309,257508,1,10,3:2:0:0:
435,90,257808,5,2,0:3:0:0:
417,92,257883,1,2,0:3:0:0:
401,101,257958,2,0,P|380:122|373:151,1,59.9999981689454,8|0,0:2|0:0,0:0:0:0:
439,244,258108,6,0,L|216:221,1,179.999994506836,8|0,0:1|0:0,0:0:0:0:
59,113,258408,2,0,L|282:90,1,179.999994506836,8|0,0:1|0:0,0:0:0:0:
294,320,258708,2,0,P|208:311|160:238,1,179.999994506836,8|0,0:1|0:0,0:0:0:0:
211,110,259008,37,8,0:1:0:0:
322,47,259108,1,8,0:1:0:0:
444,83,259208,1,8,0:1:0:0:
496,199,259308,21,8,0:1:0:0:
489,207,259458,5,8,0:1:0:0:
482,215,259608,5,8,0:1:0:0:
475,223,259758,5,8,0:1:0:0:
468,231,259908,38,0,P|393:265|305:213,1,179.999994506836,8|0,0:1|0:0,0:0:0:0:
105,268,260208,2,0,P|188:246|276:335,1,179.999994506836,8|0,0:1|0:0,0:0:0:0:
302,353,260508,6,0,P|360:381|363:267,1,209.999993591309,8|0,0:1|0:0,0:0:0:0:
328,229,261108,6,0,P|298:170|342:122,1,140,2|0,0:3|0:0,0:0:0:0:
384,98,261708,6,0,B|361:92|361:92|341:98|341:98|322:89|322:89|310:86|306:94|306:94|293:89|293:89|281:94|281:94|268:90|254:93|254:93|247:86|247:86|240:88,1,150,2|0,0:3|0:0,0:0:0:0:
220,116,262908,38,0,L|190:118,1,30,2|0,0:3|0:0,0:0:0:0:
153,86,263208,6,2,B|146:83|146:83|138:86|138:86|130:82|130:82|120:84,9,30,2|2|2|2|2|2|2|2|2|2,0:2|0:2|0:2|0:2|0:2|0:2|0:2|0:2|0:2|0:2,0:2:0:0:
7,161,265308,6,0,L|210:149,1,200,8|0,0:1|0:0,0:0:0:0:
0,333,265908,2,0,P|68:290|89:323,1,140,2|0,0:3|0:0,0:0:0:0:
115,368,266508,6,0,B|106:344|106:344|115:341|115:341|105:317|114:310|114:310|115:283|115:283|101:271|101:271|108:255|100:243|100:243|105:230,1,150,2|0,0:3|0:0,0:0:0:0:
39,201,267708,38,0,B|53:206|53:206|62:200|79:198|79:198|81:207|98:204|98:204|108:198|118:202|118:202|130:202|137:195|137:195|147:199|154:194|154:194|160:187|160:187|172:190|172:190|165:197|165:197|181:197|188:193|188:193|196:195,1,186.000004541016,2|0,0:3|0:0,0:0:0:0:
423,193,270108,5,8,0:1:0:0:
256,192,270183,12,0,274758,0:0:0:0:
256,192,274908,5,8,0:1:0:0:
256,192,275508,5,8,0:1:0:0:
256,192,276174,37,8,0:1:0:0:
256,192,277308,5,8,0:1:0:0:
256,193,278583,6,0,L|256:143,1,50,2|0,0:3|0:0,0:0:0:0:
126,85,281508,6,0,L|134:258,1,157.499995193482,8|0,0:2|0:0,0:0:0:0:
136,264,282108,38,0,L|146:195,1,60,12|0,0:1|0:0,0:0:0:0:
172,48,282408,5,8,0:2:0:0:
232,22,282483,1,0,0:0:0:0:
298,33,282558,1,0,0:0:0:0:
348,78,282633,1,0,0:0:0:0:
364,141,282708,2,0,P|368:174|359:207,1,59.9999981689454
179,305,282858,5,8,0:2:0:0:
183,299,282933,1,0,0:0:0:0:
189,294,283008,1,0,0:0:0:0:
195,290,283083,1,0,0:0:0:0:
203,288,283158,1,0,0:0:0:0:
210,288,283233,1,0,0:0:0:0:
218,289,283308,6,0,P|245:304|257:345,1,59.9999981689454,8|0,0:2|0:0,0:0:0:0:
94,275,283458,1,0,0:0:0:0:
92,231,283533,1,0,0:0:0:0:
91,188,283608,2,0,L|87:90,1,59.9999981689454
291,37,283758,2,0,L|277:152,1,59.9999981689454,8|0,0:2|0:0,0:0:0:0:
164,267,283908,2,0,L|92:273,1,59.9999981689454
299,109,284057,2,0,L|369:115,1,59.9999981689454
288,324,284208,2,0,L|278:394,1,59.9999981689454,8|0,0:2|0:0,0:0:0:0:
191,148,284358,2,0,L|180:59,1,59.9999981689454
353,194,284508,38,0,P|423:175|435:83,1,150,12|0,0:1|0:0,0:0:0:0:
454,180,284808,2,0,P|495:224|467:323,1,150,8|0,0:2|0:0,0:0:0:0:
427,359,285108,1,0,0:0:0:0:
248,335,285258,1,8,0:2:0:0:
303,112,285408,1,0,0:0:0:0:
369,258,285558,1,0,0:0:0:0:
117,240,285708,5,8,0:2:0:0:
202,58,285858,1,0,3:0:0:0:
202,58,285933,1,0,3:0:0:0:
202,58,286008,2,0,L|208:119,1,50,0|0,3:0|0:0,0:0:0:0:
225,223,286158,1,8,0:2:0:0:
133,120,286308,5,2,0:3:0:0:
278,56,286458,1,2,0:3:0:0:
342,202,286608,1,8,0:2:0:0:
196,265,286758,1,2,0:3:0:0:
310,128,286908,6,0,P|349:123|374:130,1,60,12|0,0:1|0:0,0:0:0:0:
512,92,287208,37,8,0:2:0:0:
478,130,287283,1,0,0:0:0:0:
462,177,287358,1,0,0:0:0:0:
467,227,287433,1,0,0:0:0:0:
489,270,287508,2,0,P|505:300|505:333,1,59.9999981689454
285,338,287658,5,8,0:2:0:0:
268,296,287733,1,0,0:0:0:0:
269,252,287808,1,0,0:0:0:0:
285,210,287883,1,0,0:0:0:0:
316,178,287958,1,0,0:0:0:0:
356,159,288033,1,0,0:0:0:0:
401,155,288108,6,0,P|433:158|461:176,1,59.9999981689454,8|0,0:2|0:0,0:0:0:0:
285,210,288258,1,0,0:0:0:0:
237,197,288333,1,0,0:0:0:0:
204,159,288408,1,0,0:0:0:0:
200,109,288483,1,0,0:0:0:0:
224,65,288558,5,8,0:2:0:0:
178,37,288633,1,0,0:0:0:0:
125,29,288708,1,0,0:0:0:0:
73,42,288783,1,0,0:0:0:0:
30,75,288858,1,0,0:0:0:0:
5,122,288933,1,0,0:0:0:0:
1,176,289008,1,8,0:2:0:0:
15,226,289083,1,0,0:0:0:0:
48,268,289158,1,0,0:0:0:0:
97,291,289233,1,0,0:0:0:0:
149,295,289308,38,0,L|326:282,1,150,12|0,0:1|0:0,0:0:0:0:
348,216,289608,2,0,L|285:207,1,50,8|0,0:2|0:0,0:0:0:0:
359,135,289758,2,0,P|419:177|421:250,1,150,12|0,0:1|0:0,0:0:0:0:
463,165,290058,2,0,L|526:156,1,50,8|0,0:2|0:0,0:0:0:0:
463,352,290208,2,0,L|299:341,1,150,12|0,0:1|0:0,0:0:0:0:
226,190,290508,5,8,0:2:0:0:
277,347,290658,1,0,3:0:0:0:
245,164,290808,1,0,3:0:0:0:
249,366,290958,1,8,0:2:0:0:
365,97,291108,6,0,L|372:24,1,70,4|0,0:2|0:0,0:0:0:0:
401,62,291708,6,0,P|424:79|454:82,1,60,12|0,0:1|0:0,0:0:0:0:
494,67,292008,37,8,0:2:0:0:
362,133,292158,1,0,0:0:0:0:
502,218,292308,5,8,0:2:0:0:
213,240,292458,1,8,0:2:0:0:
197,248,292533,2,0,L|120:256,1,59.9999981689454,2|0,0:2|0:0,0:0:0:0:
454,125,292758,5,8,0:2:0:0:
165,95,292908,1,8,0:2:0:0:
149,87,292983,2,0,L|72:79,1,59.9999981689454,2|0,0:2|0:0,0:0:0:0:
489,234,293208,5,8,0:2:0:0:
200,256,293358,1,8,0:2:0:0:
184,264,293433,2,0,L|107:272,1,59.9999981689454,2|0,0:2|0:0,0:0:0:0:
441,110,293658,37,8,0:2:0:0:
152,80,293808,1,8,0:2:0:0:
136,72,293883,2,0,L|59:64,1,59.9999981689454,2|0,0:2|0:0,0:0:0:0:
297,94,294108,5,0,3:0:0:0:
161,301,294258,1,0,3:0:0:0:
118,89,294408,1,8,0:2:0:0:
357,243,294558,5,0,3:0:0:0:
64,199,294708,1,0,3:0:0:0:
312,75,294858,1,8,0:2:0:0:
185,322,295008,5,0,3:0:0:0:
133,62,295158,1,0,3:0:0:0:
380,232,295308,37,8,0:2:0:0:
82,174,295458,1,0,3:0:0:0:
311,383,295608,1,0,3:0:0:0:
231,153,295758,1,8,0:2:0:0:
133,342,295908,5,0,3:0:0:0:
130,325,295983,1,0,3:0:0:0:
128,308,296058,1,0,3:0:0:0:
126,291,296133,1,0,3:0:0:0:
123,274,296208,2,0,L|112:187,1,75,8|0,0:2|0:0,0:0:0:0:
68,159,296508,6,0,P|121:183|176:165,1,119.999996337891,8|0,0:1|0:0,0:0:0:0:
332,81,296808,1,8,0:2:0:0:
128,102,296958,1,0,3:0:0:0:
325,351,297108,5,8,0:2:0:0:
332,81,297258,1,8,0:2:0:0:
346,63,297333,2,0,L|349:-7,1,59.9999981689454,2|0,0:2|0:0,0:0:0:0:
179,347,297558,37,8,0:2:0:0:
170,90,297708,1,8,0:2:0:0:
157,72,297783,2,0,L|154:1,1,59.9999981689454,2|0,0:2|0:0,0:0:0:0:
311,369,298008,5,8,0:2:0:0:
318,99,298158,1,8,0:2:0:0:
332,81,298233,2,0,L|335:11,1,59.9999981689454,2|0,0:2|0:0,0:0:0:0:
163,360,298458,5,8,0:2:0:0:
154,103,298608,1,8,0:2:0:0:
141,85,298683,2,0,L|138:14,1,59.9999981689454,2|0,0:2|0:0,0:0:0:0:
256,192,298908,5,0,3:0:0:0:
256,192,299058,1,0,3:0:0:0:
141,85,299208,1,8,0:2:0:0:
256,192,299358,1,0,3:0:0:0:
256,192,299508,38,0,L|262:123,1,59.9999981689454,0|0,3:0|0:0,0:0:0:0:
315,29,299658,1,8,0:2:0:0:
289,45,299733,1,2,0:3:0:0:
259,52,299808,2,0,P|224:52|199:37,1,59.9999981689454,0|0,3:0|0:0,0:0:0:0:
109,7,299958,1,0,3:0:0:0:
65,207,300108,6,0,L|74:129,1,59.9999981689454,8|0,0:2|0:0,0:0:0:0:
78,192,300258,2,0,L|87:114,1,59.9999981689454,0|0,3:0|0:0,0:0:0:0:
213,132,300408,1,0,3:0:0:0:
253,175,300483,1,0,3:0:0:0:
258,233,300558,1,0,3:0:0:0:
227,283,300633,1,0,3:0:0:0:
172,304,300708,6,0,P|242:257|323:282,1,175,8|0,0:2|0:0,0:0:0:0:
372,334,301308,6,0,P|339:273|389:160,1,179.999994506836,12|0,0:1|0:0,0:0:0:0:
477,96,301608,2,0,L|378:101,1,59.9999981689454,8|0,0:2|0:0,0:0:0:0:
232,106,301758,1,0,0:0:0:0:
216,101,301833,1,0,0:0:0:0:
204,90,301908,1,0,0:0:0:0:
200,75,301983,1,0,0:0:0:0:
206,60,302058,37,8,0:2:0:0:
256,92,302133,1,0,0:0:0:0:
277,146,302208,1,0,0:0:0:0:
263,204,302283,1,0,0:0:0:0:
220,244,302358,1,0,0:0:0:0:
161,250,302433,1,0,0:0:0:0:
108,222,302508,5,8,0:2:0:0:
157,198,302583,1,0,0:0:0:0:
210,200,302658,1,0,0:0:0:0:
257,226,302733,1,0,0:0:0:0:
288,270,302808,1,0,0:0:0:0:
318,313,302883,1,0,0:0:0:0:
365,340,302958,1,8,0:2:0:0:
418,341,303033,1,0,0:0:0:0:
467,317,303108,6,0,L|479:211,1,59.9999981689454
296,150,303258,2,0,L|303:220,1,59.9999981689454
488,116,303408,2,0,L|375:106,1,59.9999981689454,8|0,0:2|0:0,0:0:0:0:
246,322,303558,2,0,L|338:310,1,59.9999981689454
208,102,303708,6,0,P|128:93|66:142,1,134.999995880127,12|0,0:1|0:0,0:0:0:0:
79,235,304008,2,0,L|72:166,1,44.999998626709,8|0,0:2|0:0,0:0:0:0:
167,186,304158,2,0,L|156:334,1,134.999995880127,0|0,3:0|0:0,0:0:0:0:
44,343,304458,2,0,P|68:326|107:332,1,44.999998626709
282,346,304608,1,8,0:2:0:0:
291,350,304683,1,0,3:0:0:0:
299,357,304758,1,0,3:0:0:0:
306,367,304833,1,0,3:0:0:0:
309,378,304908,37,8,0:2:0:0:
157,321,305058,1,0,0:0:0:0:
214,167,305208,1,0,0:0:0:0:
367,225,305358,1,8,0:2:0:0:
197,306,305508,5,0,0:0:0:0:
263,43,305658,1,8,0:2:0:0:
334,215,305808,1,0,0:0:0:0:
129,67,305958,1,8,0:2:0:0:
124,265,306108,6,0,L|115:354,1,75,12|0,0:1|0:0,0:0:0:0:
249,271,306408,1,8,0:2:0:0:
291,238,306483,1,0,0:0:0:0:
310,189,306558,1,0,0:0:0:0:
298,136,306633,1,0,0:0:0:0:
261,99,306708,2,0,P|230:78|193:73,1,59.9999981689454
291,238,306858,5,8,0:2:0:0:
318,217,306933,1,0,0:0:0:0:
353,207,307008,1,0,0:0:0:0:
389,213,307083,1,0,0:0:0:0:
419,232,307158,1,0,0:0:0:0:
439,261,307233,1,0,0:0:0:0:
447,296,307308,2,0,P|453:332|435:361,1,59.9999981689454,8|0,0:2|0:0,0:0:0:0:
187,326,307458,37,0,0:0:0:0:
184,272,307533,1,0,0:0:0:0:
180,218,307608,1,0,0:0:0:0:
177,164,307683,1,0,0:0:0:0:
173,110,307758,2,0,L|168:28,1,59.9999981689454,8|0,0:2|0:0,0:0:0:0:
10,171,307908,5,0,0:0:0:0:
55,214,307983,1,0,0:0:0:0:
118,232,308058,1,0,0:0:0:0:
180,218,308133,1,0,0:0:0:0:
229,176,308208,1,8,0:2:0:0:
282,138,308283,1,0,0:0:0:0:
343,118,308358,2,0,P|381:113|428:137,1,59.9999981689454,0|0,3:0|0:0,0:0:0:0:
445,287,308508,6,0,P|380:276|352:218,1,134.999995880127,12|0,0:1|0:0,0:0:0:0:
282,138,308808,2,0,L|275:214,1,44.999998626709,8|0,0:2|0:0,0:0:0:0:
228,345,308958,2,0,L|220:229,1,89.9999972534181,12|0,0:1|3:0,0:0:0:0:
210,64,309258,1,0,0:0:0:0:
214,187,309408,21,0,3:0:0:0:
164,208,309508,1,0,3:0:0:0:
110,202,309608,1,0,3:0:0:0:
76,159,309708,5,8,3:2:0:0:
132,105,309808,1,0,3:0:0:0:
208,92,309908,1,0,3:0:0:0:
123,94,310008,69,0,3:0:0:0:
281,117,310108,1,0,3:0:0:0:
205,78,310208,5,0,3:0:0:0:
354,142,310308,1,8,0:2:0:0:
300,131,310408,69,8,0:2:0:0:
389,142,310508,1,8,0:2:0:0:
430,129,310608,5,8,0:2:0:0:
459,99,310708,1,8,0:2:0:0:
471,58,310808,1,8,0:2:0:0:
384,64,310908,5,12,0:1:0:0:
334,249,311058,1,0,3:0:0:0:
493,136,311208,1,8,0:2:0:0:
59,332,311508,5,8,0:2:0:0:
120,137,311658,1,8,0:2:0:0:
130,117,311733,2,0,L|130:52,1,44.999998626709,2|0,0:2|0:0,0:0:0:0:
74,355,311958,5,8,0:2:0:0:
295,348,312108,1,8,0:2:0:0:
307,362,312183,2,0,L|361:382,1,44.999998626709,2|0,0:2|0:0,0:0:0:0:
49,328,312408,5,8,0:2:0:0:
148,132,312558,1,8,0:2:0:0:
157,111,312633,2,0,L|157:46,1,44.999998626709,2|0,0:2|0:0,0:0:0:0:
79,364,312858,37,8,0:2:0:0:
324,350,313008,1,8,0:2:0:0:
336,368,313083,2,0,L|390:388,1,44.999998626709,2|0,0:2|0:0,0:0:0:0:
330,181,313308,5,0,3:0:0:0:
178,261,313458,1,0,3:0:0:0:
407,273,313608,1,8,0:2:0:0:
239,69,313758,5,0,3:0:0:0:
290,307,313908,1,0,3:0:0:0:
367,74,314058,1,8,0:2:0:0:
139,150,314208,5,0,3:0:0:0:
424,168,314358,1,0,3:0:0:0:
164,272,314508,37,8,0:2:0:0:
247,61,314658,1,0,3:0:0:0:
287,321,314808,1,0,3:0:0:0:
366,89,314958,1,8,0:2:0:0:
415,289,315108,5,0,3:0:0:0:
131,144,315258,1,0,3:0:0:0:
379,73,315408,1,8,0:2:0:0:
156,294,315558,1,2,0:3:0:0:
409,288,315708,5,0,3:0:0:0:
297,311,315858,1,0,0:0:0:0:
333,202,316008,1,8,0:2:0:0:
80,46,316308,5,8,0:2:0:0:
90,246,316458,1,8,0:2:0:0:
91,269,316533,2,0,L|94:340,1,44.999998626709,2|0,0:2|0:0,0:0:0:0:
261,357,316758,37,8,0:2:0:0:
271,152,316908,1,8,0:2:0:0:
272,134,316983,2,0,L|275:63,1,44.999998626709,2|0,0:2|0:0,0:0:0:0:
67,57,317208,5,8,0:2:0:0:
77,258,317358,1,8,0:2:0:0:
78,280,317433,2,0,L|81:351,1,44.999998626709,2|0,0:2|0:0,0:0:0:0:
249,346,317658,5,8,0:2:0:0:
259,142,317808,1,8,0:2:0:0:
260,123,317883,2,0,L|263:52,1,44.999998626709,2|0,0:2|0:0,0:0:0:0:
136,218,318108,5,0,3:0:0:0:
148,226,318183,1,0,0:0:0:0:
162,230,318258,1,0,0:0:0:0:
177,231,318333,1,0,0:0:0:0:
192,228,318408,37,8,0:2:0:0:
178,201,318483,1,0,0:0:0:0:
154,184,318558,1,0,0:0:0:0:
124,182,318633,1,0,0:0:0:0:
97,194,318708,5,0,0:0:0:0:
120,231,318783,1,0,0:0:0:0:
159,253,318858,1,8,0:2:0:0:
203,251,318933,1,8,0:3:0:0:
241,227,319008,5,0,3:0:0:0:
206,179,319083,1,0,3:0:0:0:
151,155,319158,1,0,3:0:0:0:
92,162,319233,1,0,3:0:0:0:
45,197,319308,5,8,0:2:0:0:
53,184,319383,1,0,0:0:0:0:
57,170,319458,1,0,0:0:0:0:
58,155,319533,1,0,0:0:0:0:
55,140,319608,2,0,P|45:111|23:91,1,59.9999981689454,0|0,3:0|0:0,0:0:0:0:
170,59,319758,2,0,P|199:54|227:65,1,59.9999981689454,0|0,3:0|0:0,0:0:0:0:
195,274,319908,38,0,L|187:123,1,140,8|0,0:1|0:0,0:0:0:0:
105,103,320508,6,4,P|168:135|256:80,1,179.999994506836,12|0,0:1|0:0,0:1:0:0:
323,35,320808,1,8,0:2:0:0:
409,192,320958,1,0,3:0:0:0:
312,343,321108,5,0,3:0:0:0:
307,360,321258,1,0,3:0:0:0:
311,177,321408,5,2,0:1:0:0:
315,159,321558,1,0,3:0:0:0:
401,296,321708,37,0,3:0:0:0:
249,278,321858,1,0,3:0:0:0:
446,104,322008,1,8,0:2:0:0:
379,311,322158,53,0,3:0:0:0:
376,307,322208,1,0,3:0:0:0:
374,303,322258,1,0,3:0:0:0:
372,299,322308,1,8,0:2:0:0:
268,98,322458,2,0,L|263:164,3,39.9999987792969,0|0|0|8,3:0|3:0|3:0|0:2,0:0:0:0:
247,319,322758,1,0,3:0:0:0:
250,315,322808,1,0,3:0:0:0:
252,311,322858,1,0,3:0:0:0:
255,307,322908,21,8,0:1:0:0:
82,314,323058,1,0,3:0:0:0:
254,149,323208,1,8,0:2:0:0:
71,179,323358,70,0,L|16:172,3,39.9999987792969,0|0|0|8,3:0|3:0|3:0|0:2,0:0:0:0:
124,57,323658,21,0,3:0:0:0:
268,121,323808,1,2,0:2:0:0:
406,45,323958,1,2,0:3:0:0:
408,77,324033,1,2,0:2:0:0:
412,109,324108,6,0,L|419:181,1,59.9999981689454,2|2,0:3|0:3,0:0:0:0:
203,269,324258,2,0,L|209:208,1,59.9999981689454,8|0,0:2|0:0,0:0:0:0:
393,241,324408,2,0,P|421:247|450:239,1,59.9999981689454,2|0,3:3|0:0,0:0:0:0:
233,140,324558,2,0,P|204:133|175:141,1,59.9999981689454,8|0,0:2|0:0,0:0:0:0:
332,99,324708,6,0,L|336:25,1,59.9999981689454,8|0,0:2|0:0,0:0:0:0:
345,92,324858,2,0,L|349:18,1,59.9999981689454,2|0,0:3|0:0,0:0:0:0:
297,288,325008,38,0,L|301:362,1,59.9999981689454,2|0,0:3|0:0,0:0:0:0:
310,295,325158,2,0,L|314:369,1,59.9999981689454,0|0,3:0|0:0,0:0:0:0:
130,359,325308,6,0,L|133:299,1,59.9999981689454,8|0,0:1|0:0,0:0:0:0:
158,155,325458,1,2,0:1:0:0:
137,115,325533,1,2,0:1:0:0:
98,95,325608,1,2,0:1:0:0:
54,101,325683,1,2,0:1:0:0:
21,130,325758,2,0,P|7:157|6:187,1,59.9999981689454,0|0,3:0|0:0,0:0:0:0:
242,50,325908,5,8,0:2:0:0:
269,166,326058,1,0,3:0:0:0:
512,66,326208,1,2,0:1:0:0:
449,149,326358,1,8,0:2:0:0:
205,218,326508,6,0,P|317:99|286:246,1,419.999987182618,8|0,0:1|0:0,0:0:0:0:
165,121,327108,38,0,L|161:51,1,59.9999981689454,0|0,3:0|0:0,0:0:0:0:
151,108,327258,2,0,L|147:38,1,59.9999981689454,0|0,3:0|0:0,0:0:0:0:
271,236,327408,6,0,L|275:166,1,59.9999981689454,2|0,0:1|0:0,0:0:0:0:
285,223,327558,2,0,L|289:153,1,59.9999981689454,0|0,3:0|0:0,0:0:0:0:
50,313,327708,6,0,P|134:291|203:343,1,179.999994506836,8|0,0:1|0:0,0:0:0:0:
318,301,328008,2,0,P|387:353|471:331,1,179.999994506836,8|0,0:2|0:0,0:0:0:0:
445,210,328308,1,2,0:3:0:0:
437,194,328383,1,2,0:3:0:0:
486,138,328458,6,0,P|492:57|412:41,1,179.999994506836,8|0,0:1|0:0,0:0:0:0:
316,144,328758,2,0,L|257:138,1,59.9999981689454,8|0,0:2|0:0,0:0:0:0:
52,80,328908,37,8,0:2:0:0:
133,293,329058,1,0,0:0:0:0:
246,51,329208,1,2,0:3:0:0:
236,69,329283,1,2,0:3:0:0:
229,87,329358,6,0,L|238:182,1,59.9999981689454,8|0,0:2|0:0,0:0:0:0:
254,334,329508,5,8,0:2:0:0:
361,87,329658,1,2,3:1:0:0:
150,274,329808,1,2,3:1:0:0:
253,214,329958,2,0,P|263:202|264:187,1,29.9999990844727,2|0,0:1|0:0,0:0:0:0:
216,19,330108,5,12,0:1:0:0:
465,134,330258,1,0,0:0:0:0:
272,314,330408,2,0,P|213:335|150:334,1,119.999996337891,8|0,0:2|3:0,0:0:0:0:
109,129,330708,37,0,3:0:0:0:
220,67,330858,1,0,3:0:0:0:
281,178,331008,1,8,0:2:0:0:
171,240,331158,1,0,3:0:0:0:
298,96,331308,5,0,3:0:0:0:
252,255,331458,1,0,3:0:0:0:
96,0,331608,1,8,0:2:0:0:
94,211,331758,37,0,3:0:0:0:
89,213,331808,1,0,3:0:0:0:
84,214,331858,1,0,3:0:0:0:
79,216,331908,1,8,0:2:0:0:
223,110,332058,2,0,L|232:45,3,39.9999987792969,0|0|0|8,3:0|3:0|3:0|0:2,0:0:0:0:
245,272,332358,1,0,3:0:0:0:
249,275,332408,1,0,3:0:0:0:
253,278,332458,1,0,3:0:0:0:
257,281,332508,53,0,3:0:0:0:
344,205,332658,1,0,3:0:0:0:
128,128,332808,1,8,0:2:0:0:
368,105,332958,38,0,L|418:100,3,39.9999987792969,0|0|0|0,3:0|3:0|3:0|3:0,0:0:0:0:
196,64,333258,53,8,0:2:0:0:
252,238,333408,1,0,3:0:0:0:
268,137,333558,1,2,0:3:0:0:
80,258,333708,37,8,0:2:0:0:
203,323,333858,1,8,0:1:0:0:
288,255,334008,1,0,3:0:0:0:
210,231,334158,1,8,0:2:0:0:
384,384,334308,5,2,3:1:0:0:
469,233,334458,1,8,0:2:0:0:
410,156,334608,1,0,3:0:0:0:
478,117,334758,1,0,3:0:0:0:
288,0,334908,5,12,0:1:0:0:
316,210,335058,1,2,0:1:0:0:
324,238,335133,1,2,0:1:0:0:
343,261,335208,1,2,0:1:0:0:
370,274,335283,1,2,0:1:0:0:
400,274,335358,2,0,P|429:268|450:248,1,59.9999981689454,0|0,3:0|0:0,0:0:0:0:
407,64,335508,5,8,0:2:0:0:
392,196,335658,1,0,3:0:0:0:
139,67,335808,1,2,0:1:0:0:
192,213,335958,1,0,3:0:0:0:
288,79,336108,37,0,3:0:0:0:
279,56,336258,1,0,3:0:0:0:
256,46,336408,1,0,3:0:0:0:
104,165,336558,6,0,L|111:359,1,179.999994506836,8|0,0:2|0:0,0:0:0:0:
143,364,336858,6,0,L|157:262,1,100,2|0,0:3|0:0,0:0:0:0:
201,167,337308,21,8,0:2:0:0:
201,167,337358,1,2,0:2:0:0:
201,167,337408,1,2,0:2:0:0:
201,167,337458,2,0,L|195:107,2,39.9999987792969,2|2|2,0:2|0:2|0:2,0:0:0:0:
290,193,337608,5,8,0:2:0:0:
290,193,337658,1,2,0:2:0:0:
290,193,337708,1,2,0:2:0:0:
290,193,337758,2,0,L|294:135,2,39.9999987792969,2|2|2,0:2|0:2|0:2,0:0:0:0:
368,288,337908,69,8,0:2:0:0:
368,288,337958,1,2,0:2:0:0:
368,288,338008,1,2,0:2:0:0:
368,288,338058,2,0,L|365:350,2,39.9999987792969,2|2|2,0:2|0:2|0:2,0:0:0:0:
457,262,338208,5,8,0:2:0:0:
457,262,338258,1,2,0:2:0:0:
457,262,338308,1,2,0:2:0:0:
457,262,338358,2,0,L|465:329,2,39.9999987792969,2|2|2,0:2|0:2|0:2,0:0:0:0:
391,156,338508,70,0,L|383:96,5,39.9999987792969,8|2|2|2|2|2,0:2|0:2|0:2|0:2|0:2|0:2,0:0:0:0:
475,79,338808,2,0,L|480:21,5,39.9999987792969,8|2|2|2|2|2,0:2|0:2|0:2|0:2|0:2|0:2,0:0:0:0:
322,49,339108,54,0,P|264:85|199:65,1,140,8|0,0:1|0:0,0:0:0:0:
83,69,339708,5,12,0:1:0:0:
108,278,339858,1,2,0:1:0:0:
206,40,340008,1,8,0:2:0:0:
219,215,340158,37,0,3:0:0:0:
309,247,340308,1,0,3:0:0:0:
397,209,340458,1,0,3:0:0:0:
288,32,340608,5,2,0:1:0:0:
248,324,340758,1,0,3:0:0:0:
407,189,340908,5,0,3:0:0:0:
383,72,341058,1,0,3:0:0:0:
301,261,341208,1,8,0:2:0:0:
428,335,341358,22,0,L|476:329,3,39.9999987792969,0|0|0|8,3:0|3:0|3:0|0:2,0:0:0:0:
301,261,341658,2,0,L|250:255,3,39.9999987792969,0|0|0|8,3:0|3:0|3:0|0:2,0:0:0:0:
408,185,341958,1,0,3:0:0:0:
417,182,342008,1,0,3:0:0:0:
427,180,342058,1,0,3:0:0:0:
436,177,342108,69,8,0:1:0:0:
294,121,342258,1,0,3:0:0:0:
105,189,342408,1,8,0:2:0:0:
152,71,342558,22,0,L|150:21,3,39.9999987792969,0|0|0|8,3:0|3:0|3:0|0:2,0:0:0:0:
201,222,342858,5,0,3:0:0:0:
291,86,343008,5,8,0:2:0:0:
288,46,343158,1,2,0:2:0:0:
399,174,343308,6,0,L|389:238,1,59.9999981689454,0|0,3:0|0:0,0:0:0:0:
369,367,343458,1,8,0:2:0:0:
238,283,343608,1,2,0:3:0:0:
136,315,343758,1,2,0:2:0:0:
41,128,343908,5,8,0:2:0:0:
206,165,344058,1,2,0:3:0:0:
307,96,344208,1,8,0:2:0:0:
229,43,344358,1,2,0:2:0:0:
319,249,344508,37,8,0:1:0:0:
417,118,344658,2,0,L|425:52,1,59.9999981689454,8|0,0:2|0:0,0:0:0:0:
431,104,344808,2,0,L|439:38,1,59.9999981689454,8|0,0:2|0:0,0:0:0:0:
445,90,344958,2,0,L|453:24,1,59.9999981689454,8|0,0:2|0:0,0:0:0:0:
457,273,345108,5,2,0:3:0:0:
467,305,345183,1,2,0:3:0:0:
445,371,345258,1,0,3:0:0:0:
299,227,345558,6,0,P|274:209|245:207,1,59.9999981689454,8|0,0:2|0:0,0:0:0:0:
232,119,345708,6,0,B|185:152|185:152|54:125,1,179.999994506836,8|0,0:2|0:0,0:0:0:0:
53,252,346008,37,2,0:3:0:0:
43,284,346083,1,2,0:3:0:0:
65,350,346158,1,0,3:0:0:0:
236,285,346308,5,0,0:0:0:0:
175,167,346458,1,0,3:0:0:0:
209,358,346608,1,2,0:1:0:0:
290,173,346758,1,0,3:0:0:0:
387,341,346908,6,0,P|469:354|496:275,1,179.999994506836,8|0,0:1|0:0,0:0:0:0:
433,186,347208,6,0,P|408:112|464:55,1,160,8|0,0:2|0:0,0:0:0:0:
299,70,347508,37,2,0:3:0:0:
268,56,347583,1,2,0:3:0:0:
199,79,347658,1,0,3:0:0:0:
198,268,347808,5,0,3:0:0:0:
205,228,347958,1,8,0:2:0:0:
69,85,348108,38,0,L|74:182,1,79.9999975585938,8|0,0:2|3:0,0:0:0:0:
74,308,348308,2,0,P|111:274|157:273,1,79.9999975585938,8|0,0:2|3:0,0:0:0:0:
271,188,348508,2,0,P|228:182|199:151,1,79.9999975585938,8|0,0:2|3:0,0:0:0:0:
282,299,348708,6,0,P|320:289|349:262,1,79.9999975585938,8|0,0:2|3:0,0:0:0:0:
430,87,348908,2,0,L|418:191,1,79.9999975585938,8|0,0:2|3:0,0:0:0:0:
271,90,349108,2,0,L|264:2,1,79.9999975585938,8|0,0:2|3:0,0:0:0:0:
158,162,349258,1,0,3:0:0:0:
150,147,349308,70,0,L|157:59,1,79.9999975585938,8|0,0:2|3:0,0:0:0:0:
279,260,349458,1,0,3:0:0:0:
285,245,349508,2,0,L|278:157,1,79.9999975585938,8|0,0:2|3:0,0:0:0:0:
161,279,349658,1,0,3:0:0:0:
151,294,349708,2,0,P|112:299|79:277,1,79.9999975585938,8|0,0:2|3:0,0:0:0:0:
264,337,349858,1,0,3:0:0:0:
271,352,349908,6,0,P|307:365|344:352,1,79.9999975585938,8|0,0:2|3:0,0:0:0:0:
481,285,350058,1,0,3:0:0:0:
471,268,350108,2,0,P|435:251|397:259,1,79.9999975585938,8|0,0:2|3:0,0:0:0:0:
284,203,350258,1,0,3:0:0:0:
285,182,350308,2,0,P|312:154|351:146,1,79.9999975585938,8|0,0:2|3:0,0:0:0:0:
451,150,350458,1,0,3:0:0:0:
463,135,350508,6,0,L|473:7,1,119.999996337891,12|0,0:1|3:0,0:0:0:0:
275,62,350808,2,0,L|284:181,1,119.999996337891,8|0,0:2|3:0,0:0:0:0:
451,256,351108,5,0,3:0:0:0:
372,79,351258,1,0,3:0:0:0:
280,199,351408,1,8,0:2:0:0:
353,266,351558,1,0,3:0:0:0:
295,113,351708,5,0,3:0:0:0:
284,81,351858,1,0,3:0:0:0:
156,240,352008,1,8,0:2:0:0:
282,327,352158,38,0,L|329:316,3,39.9999987792969,0|0|0|8,3:0|3:0|3:0|0:2,3:0:0:0:
194,249,352458,2,0,L|147:238,3,39.9999987792969,0|0|0|8,3:0|3:0|3:0|0:2,3:0:0:0:
302,189,352758,69,0,3:0:0:0:
311,187,352808,1,0,3:0:0:0:
321,186,352858,1,0,3:0:0:0:
331,184,352908,21,8,0:1:0:0:
483,220,353058,1,0,3:0:0:0:
399,52,353208,1,8,0:2:0:0:
275,104,353358,5,0,3:0:0:0:
175,61,353508,1,0,3:0:0:0:
75,102,353658,1,8,0:2:0:0:
146,287,353808,5,0,3:0:0:0:
170,91,353958,1,2,0:1:0:0:
303,336,354108,6,0,L|294:268,1,59.9999981689454,8|0,0:2|0:0,0:0:0:0:
275,104,354258,1,0,3:0:0:0:
400,257,354408,1,0,3:0:0:0:
372,150,354558,1,8,0:2:0:0:
297,193,354708,37,8,0:1:0:0:
391,37,354858,1,8,0:2:0:0:
392,177,355008,1,8,0:1:0:0:
253,87,355158,1,8,0:2:0:0:
459,102,355308,5,12,0:1:0:0:
253,87,355458,1,2,0:1:0:0:
212,105,355533,1,2,0:1:0:0:
183,139,355608,1,2,0:1:0:0:
171,182,355683,1,2,0:1:0:0:
181,224,355758,2,0,P|196:251|221:267,1,59.9999981689454,8|0,0:1|0:0,0:0:0:0:
412,227,355908,5,8,0:2:0:0:
352,0,356058,1,0,3:0:0:0:
267,184,356208,1,2,0:1:0:0:
362,157,356358,1,0,3:0:0:0:
86,91,356508,5,0,3:0:0:0:
224,104,356658,1,0,3:0:0:0:
144,218,356808,1,0,3:0:0:0:
47,53,356958,38,0,B|38:113|38:113|67:165|67:165|55:232,1,180,8|0,0:2|0:0,0:0:0:0:
101,306,357708,53,0,3:0:0:0:
188,338,357808,1,0,3:0:0:0:
276,308,357908,1,0,3:0:0:0:
326,229,358008,6,0,P|330:188|305:144,1,66.6666666666667,10|0,0:1|3:0,0:0:0:0:
256,97,358208,1,0,3:0:0:0:
91,197,358308,70,0,P|124:220|175:221,1,66.6666666666667,10|0,0:1|3:0,0:0:0:0:
240,202,358508,1,0,3:0:0:0:
235,10,358608,6,0,P|197:27|171:70,1,66.6666666666667,10|0,0:1|3:0,0:0:0:0:
156,136,358808,1,0,3:0:0:0:
352,193,358908,70,0,L|356:120,1,66.6666666666667,10|0,0:1|3:0,0:0:0:0:
470,90,359108,1,0,3:0:0:0:
445,108,359208,21,10,0:1:0:0:
437,144,359283,1,8,0:2:0:0:
444,180,359358,1,0,3:0:0:0:
466,210,359433,1,0,3:0:0:0:
499,229,359508,5,10,0:1:0:0:
476,217,359583,1,8,0:2:0:0:
452,215,359658,1,0,3:0:0:0:
428,223,359733,1,0,3:0:0:0:
409,239,359808,5,10,0:1:0:0:
412,227,359883,1,8,0:2:0:0:
413,214,359958,1,0,3:0:0:0:
412,202,360033,1,0,3:0:0:0:
