osu file format v14

[General]
AudioFilename: BRUTAL DEATH METAL HEAVY PESADO FUNK.mp3
AudioLeadIn: 0
PreviewTime: 50298
Countdown: 1
SampleSet: Soft
StackLeniency: 0.7
Mode: 0
LetterboxInBreaks: 0
WidescreenStoryboard: 0

[Editor]
Bookmarks: 28136,35636,42905,50290,57732,65059,70597,72444,79828,87213,98271,110271,124388,125196,169734,181734,189118,196503,203887,218541,233418,248195
DistanceSpacing: 1.2
BeatDivisor: 4
GridSize: 4
TimelineZoom: 2.3

[Metadata]
Title:SE FUNK FOSSE METAL
TitleUnicode:SE FUNK FOSSE METAL
Artist:Bonde do Metaleiro
ArtistUnicode:Bonde do Metaleiro
Creator:Seto Kousuke
Version:Brutal Death Metal FUNK
Source:
Tags:Metaleiro66 short version
BeatmapID:1370320
BeatmapSetID:646792

[Difficulty]
HPDrainRate:7
CircleSize:5
OverallDifficulty:8.4
ApproachRate:9.5
SliderMultiplier:2.7
SliderTickRate:1

[Events]
//Background and Video events
0,0,"METALEIRO.jpg",0,0
//Break Periods
2,89060,91058
2,124480,127472
//Storyboard Layer 0 (Background)
//Storyboard Layer 1 (Fail)
//Storyboard Layer 2 (Pass)
//Storyboard Layer 3 (Foreground)
//Storyboard Sound Samples

[TimingPoints]
4605,461.538461538462,4,2,1,75,1,0
11529,461.538461538462,4,2,1,75,1,0
11529,-153.846153846153,4,2,1,75,0,0
28144,-153.846153846153,4,2,1,75,0,0
35990,-200,4,2,1,75,0,0
42221,-153.846153846153,4,2,1,75,0,0
42375,-153.846153846153,4,2,1,5,0,0
42452,-153.846153846153,4,2,1,75,0,0
42605,-153.846153846153,4,2,1,5,0,0
42682,-153.846153846153,4,2,1,75,0,0
42836,-153.846153846153,4,2,1,5,0,0
42913,-153.846153846153,4,2,1,75,0,0
49375,-100,4,2,1,75,0,0
49836,-153.846153846153,4,2,1,75,0,0
50298,-133.333333333333,4,2,1,75,0,0
60682,-153.846153846153,4,2,1,75,0,0
60836,-153.846153846153,4,2,1,5,0,0
60913,-153.846153846153,4,2,1,75,0,0
61067,-153.846153846153,4,2,1,5,0,0
61144,-153.846153846153,4,2,1,75,0,0
61298,-153.846153846153,4,2,1,5,0,0
61375,-153.846153846153,4,2,1,75,0,0
64490,-153.846153846153,4,2,1,5,0,0
64605,-153.846153846153,4,2,1,75,0,0
64721,-153.846153846153,4,2,1,5,0,0
64836,-153.846153846153,4,2,1,75,0,0
64952,-153.846153846153,4,2,1,5,0,0
65067,-133.333333333333,4,2,1,75,0,0
72451,-153.846153846153,4,2,1,75,0,0
79144,-117.647058823529,4,2,1,75,0,0
79202,-153.846153846153,4,2,1,5,0,0
79375,-117.647058823529,4,2,1,75,0,0
79432,-153.846153846153,4,2,1,5,0,0
79605,-117.647058823529,4,2,1,75,0,0
79663,-153.846153846153,4,2,1,5,0,0
79872,230.769230769231,4,2,1,75,1,0
79872,-181.818181818181,4,2,1,75,0,0
87198,-133.333333333333,4,2,1,75,0,0
91605,461.538461538462,4,2,1,75,1,0
91605,-133.333333333333,4,2,1,75,0,0
92741,461.538461538462,4,2,1,75,1,0
92741,-133.333333333333,4,2,1,75,0,0
92971,-133.333333333333,4,2,1,5,0,0
93087,-133.333333333333,4,2,1,75,0,0
93317,-133.333333333333,4,2,1,5,0,0
93433,-133.333333333333,4,2,1,75,0,0
94817,-133.333333333333,4,2,1,5,0,0
94933,-133.333333333333,4,2,1,75,0,0
95164,-133.333333333333,4,2,1,5,0,0
95279,-133.333333333333,4,2,1,75,0,0
98279,-200,4,2,1,75,0,0
100125,-133.333333333333,4,2,1,75,0,0
101279,-95.2380952380951,4,2,1,75,0,0
101510,-95.2380952380951,4,2,1,5,0,0
101625,-117.647058823529,4,2,1,75,0,0
101856,-117.647058823529,4,2,1,5,0,0
101971,-200,4,2,1,75,0,0
103817,-133.333333333333,4,2,1,75,0,0
105664,-200,4,2,1,75,0,0
107510,-200,4,2,1,40,0,0
107741,-133.333333333333,4,2,1,56,0,0
107971,-105.263157894737,4,2,1,67,0,0
108202,-86.9565217391303,4,2,1,75,0,0
108433,-74.0740740740741,4,2,1,83,0,0
108664,-64.5161290322581,4,2,1,91,0,0
108894,-57.1428571428571,4,2,1,100,0,0
109125,-51.2820512820513,4,2,1,100,0,0
109817,-100,4,2,1,75,0,0
113004,397.350993377483,4,2,1,75,1,0
113204,461.538461538462,4,2,1,75,1,0
113434,-100,4,2,1,5,0,0
113550,-100,4,2,1,75,0,0
113780,-100,4,2,1,5,0,0
113896,-133.333333333333,4,2,1,75,0,0
114127,-133.333333333333,4,2,1,5,0,0
114242,-133.333333333333,4,2,1,75,0,0
114934,-133.333333333333,4,2,1,5,0,0
115050,-100,4,2,1,75,0,0
115280,-100,4,2,1,5,0,0
115396,-100,4,2,1,75,0,0
115627,-100,4,2,1,5,0,0
115742,-133.333333333333,4,2,1,75,0,0
115857,-133.333333333333,4,2,1,5,0,0
115973,-100,4,2,1,75,0,0
116088,-100,4,2,1,5,0,0
116204,-100,4,2,1,75,0,0
116319,-100,4,2,1,5,0,0
116434,-100,4,2,1,75,0,0
116550,-100,4,2,1,5,0,0
116665,-100,4,2,1,75,0,0
117127,-100,4,2,1,5,0,0
117242,-100,4,2,1,75,0,0
117473,-100,4,2,1,5,0,0
117588,-100,4,2,1,75,0,0
118280,-200,4,2,1,75,0,0
118627,-200,4,2,1,5,0,0
118742,-100,4,2,1,75,0,0
118973,-100,4,2,1,5,0,0
119088,-100,4,2,1,75,0,0
119319,-100,4,2,1,5,0,0
119434,-100,4,2,1,75,0,0
119550,-100,4,2,1,5,0,0
119665,-100,4,2,1,75,0,0
119780,-100,4,2,1,5,0,0
119896,-100,4,2,1,75,0,0
120011,-100,4,2,1,5,0,0
120127,-100,4,2,1,75,0,0
120242,-100,4,2,1,5,0,0
120357,-100,4,2,1,75,0,0
120473,-100,4,2,1,5,0,0
120588,-100,4,2,1,75,0,0
120819,-100,4,2,1,5,0,0
120934,-100,4,2,1,75,0,0
121165,-100,4,2,1,5,0,0
121280,-100,4,2,1,75,0,0
121973,-200,4,2,1,75,0,0
122319,-200,4,2,1,5,0,0
122434,-100,4,2,1,75,0,0
122665,-100,4,2,1,5,0,0
122780,-100,4,2,1,75,0,0
123011,-100,4,2,1,5,0,0
123127,-100,4,2,1,75,0,0
123242,-100,4,2,1,5,0,0
123357,-100,4,2,1,75,0,0
127997,461.538461538462,4,2,1,75,1,0
127997,-133.333333333333,4,2,1,75,0,0
143148,375,4,2,1,75,1,0
148023,-153.846153846153,4,2,1,75,0,0
148866,-153.846153846153,4,2,1,5,0,0
148960,-153.846153846153,4,2,1,75,0,0
149054,-153.846153846153,4,2,1,5,0,0
149148,-153.846153846153,4,2,1,75,0,0
149241,-153.846153846153,4,2,1,5,0,0
149335,-153.846153846153,4,2,1,75,0,0
149429,-153.846153846153,4,2,1,5,0,0
149523,-153.846153846153,4,2,1,75,0,0
149616,-153.846153846153,4,2,1,5,0,0
149710,-153.846153846153,4,2,1,75,0,0
149804,-153.846153846153,4,2,1,5,0,0
149898,-153.846153846153,4,2,1,75,0,0
149991,-153.846153846153,4,2,1,5,0,0
150085,-153.846153846153,4,2,1,75,0,0
150179,-153.846153846153,4,2,1,5,0,0
150273,-153.846153846153,4,2,1,75,0,0
150366,-153.846153846153,4,2,1,5,0,0
150460,-153.846153846153,4,2,1,75,0,0
150554,-153.846153846153,4,2,1,5,0,0
150648,-153.846153846153,4,2,1,75,0,0
150741,-153.846153846153,4,2,1,5,0,0
150835,-153.846153846153,4,2,1,75,0,0
150929,-153.846153846153,4,2,1,5,0,0
151023,-153.846153846153,4,2,1,75,0,0
151116,-153.846153846153,4,2,1,5,0,0
151210,-153.846153846153,4,2,1,75,0,0
151304,-153.846153846153,4,2,1,5,0,0
151398,-153.846153846153,4,2,1,75,0,0
151491,-153.846153846153,4,2,1,5,0,0
151585,-153.846153846153,4,2,1,75,0,0
151679,-153.846153846153,4,2,1,5,0,0
151773,-153.846153846153,4,2,1,75,0,0
151866,-153.846153846153,4,2,1,5,0,0
151960,-153.846153846153,4,2,1,75,0,0
152054,-153.846153846153,4,2,1,5,0,0
152148,-153.846153846153,4,2,1,75,0,0
152241,-153.846153846153,4,2,1,5,0,0
152335,-153.846153846153,4,2,1,75,0,0
152429,-153.846153846153,4,2,1,5,0,0
152523,-153.846153846153,4,2,1,75,0,0
152616,-153.846153846153,4,2,1,5,0,0
152710,-153.846153846153,4,2,1,75,0,0
152804,-153.846153846153,4,2,1,5,0,0
152898,-153.846153846153,4,2,1,75,0,0
152991,-153.846153846153,4,2,1,5,0,0
153085,-153.846153846153,4,2,1,75,0,0
153179,-153.846153846153,4,2,1,5,0,0
153273,-153.846153846153,4,2,1,75,0,0
153366,-153.846153846153,4,2,1,5,0,0
153460,-153.846153846153,4,2,1,75,0,0
153554,-153.846153846153,4,2,1,5,0,0
153648,-153.846153846153,4,2,1,75,0,0
153741,-153.846153846153,4,2,1,5,0,0
153835,-153.846153846153,4,2,1,75,0,0
153929,-153.846153846153,4,2,1,5,0,0
154023,-153.846153846153,4,2,1,75,0,0
154116,-153.846153846153,4,2,1,5,0,0
154210,-153.846153846153,4,2,1,75,0,0
154304,-153.846153846153,4,2,1,5,0,0
154398,-153.846153846153,4,2,1,75,0,0
154491,-153.846153846153,4,2,1,5,0,0
154585,-153.846153846153,4,2,1,75,0,0
154679,-153.846153846153,4,2,1,5,0,0
154773,-153.846153846153,4,2,1,50,0,0
166773,-100,4,2,1,75,0,0
168273,-71.4285714285714,4,2,1,75,0,0
169023,-55.5555555555556,4,2,1,75,0,0
169773,-117.647058823529,4,2,1,75,0,0
180273,-153.846153846153,4,2,1,75,0,0
180366,-153.846153846153,4,2,1,5,0,0
180460,-153.846153846153,4,2,1,75,0,0
180554,-153.846153846153,4,2,1,5,0,0
180648,-153.846153846153,4,2,1,75,0,0
180741,-153.846153846153,4,2,1,5,0,0
180835,-153.846153846153,4,2,1,75,0,0
180929,-153.846153846153,4,2,1,5,0,0
181023,-153.846153846153,4,2,1,75,0,0
181116,-153.846153846153,4,2,1,5,0,0
181210,-153.846153846153,4,2,1,75,0,0
181304,-153.846153846153,4,2,1,5,0,0
181398,-153.846153846153,4,2,1,75,0,0
181491,-153.846153846153,4,2,1,5,0,0
181585,-153.846153846153,4,2,1,75,0,0
181679,-153.846153846153,4,2,1,5,0,0
181773,-153.846153846153,4,2,1,75,0,0

[Colours]
Combo1 : 193,62,74
Combo2 : 177,44,24
Combo3 : 147,0,0
Combo4 : 99,90,175

[HitObjects]
256,192,4605,12,0,10605,0:0:0:0:
368,88,10835,5,4,0:3:0:0:
104,264,11066,1,0,1:0:0:0:
104,264,11529,6,0,B|132:192|152:80|152:80|180:184|264:184|296:80|296:80|360:280,1,614.249971881868,4|0,0:0|0:0,0:0:0:0:
204,348,13375,6,0,B|224:288|204:228|204:228|232:236|268:220,1,175.499991966248,4|0,0:0|0:0,0:0:0:0:
128,252,14067,2,0,P|130:188|232:152,1,175.499991966248,4|0,0:0|0:0,0:0:0:0:
377,341,14759,5,0,1:0:0:0:
377,341,15221,6,0,B|455:231|343:143|431:71|431:71|327:27|291:95|307:187|307:187|275:143|223:147,1,614.249971881868,4|0,0:3|0:0,0:0:0:0:
192,360,17067,6,0,P|244:324|220:208,1,175.499991966248,4|0,0:0|0:0,0:0:0:0:
64,240,17759,1,4,0:3:0:0:
156,140,17990,1,0,1:0:0:0:
156,172,18105,1,0,0:0:0:0:
156,205,18221,1,0,1:0:0:0:
156,238,18336,1,0,0:0:0:0:
108,288,18452,2,0,P|84:304|60:308,1,43.874997991562,0|0,1:0|0:0,0:0:0:0:
104,88,18682,2,0,P|128:72|152:68,1,43.874997991562,0|0,1:0|0:0,0:0:0:0:
376,192,18913,6,0,B|387:228|366:257|360:256|360:256|347:175|286:139|240:164|240:164|284:200|300:320|212:336,1,438.74997991562,4|0,0:0|0:0,0:0:0:0:
76,312,20298,1,0,0:0:0:0:
168,168,20529,1,0,0:0:0:0:
312,280,20759,6,0,P|324:228|216:200,1,175.499991966248,4|0,0:0|0:0,0:0:0:0:
106,182,21452,2,0,P|134:227|230:170,1,175.499991966248,4|0,0:0|0:0,0:0:0:0:
40,16,22144,1,0,1:0:0:0:
374,145,22605,6,0,B|390:173|422:189|422:189|366:173|318:189|318:189|270:169|226:189,1,263.249987949372,4|0,0:3|0:0,0:0:0:0:
280,328,23529,2,0,P|304:280|228:308,1,175.499991966248,4|0,0:3|0:0,0:0:0:0:
384,264,24221,1,0,0:0:0:0:
216,356,24452,6,0,L|112:356,1,87.749995983124,4|0,0:3|0:0,0:0:0:0:
32,244,24913,1,0,0:0:0:0:
36,340,25144,1,0,0:0:0:0:
276,232,25375,5,0,1:0:0:0:
210,232,25490,1,0,1:0:0:0:
144,232,25605,1,0,1:0:0:0:
384,164,25836,2,0,L|400:184,1,21.937498995781,2|0,0:0|0:0,0:0:0:0:
392,280,26067,2,0,L|408:300,1,21.937498995781,2|0,0:0|0:0,0:0:0:0:
144,232,26298,5,0,1:0:0:0:
210,232,26413,1,0,1:0:0:0:
276,232,26529,1,0,1:0:0:0:
36,164,26759,2,0,L|20:184,1,21.937498995781,2|0,0:0|0:0,0:0:0:0:
28,280,26990,2,0,L|12:300,1,21.937498995781,2|0,0:0|0:0,0:0:0:0:
276,232,27221,5,0,1:0:0:0:
210,232,27336,1,0,1:0:0:0:
144,232,27452,1,0,1:0:0:0:
208,160,27567,1,2,0:0:0:0:
212,300,27682,2,0,P|212:316|208:336,2,21.937498995781,0|0|0,1:0|1:0|1:0,1:0:0:0:
208,144,27913,1,2,0:0:0:0:
276,232,28029,1,2,0:0:0:0:
140,300,28144,6,0,P|112:301|84:289,1,43.874997991562,4|0,1:3|0:0,0:0:0:0:
24,188,28375,1,0,0:0:0:0:
24,272,28490,1,8,1:2:0:0:
112,176,28605,2,0,P|114:155|112:120,1,43.874997991562,2|0,0:0|0:0,0:0:0:0:
28,44,28836,2,0,P|25:64|28:100,1,43.874997991562,8|0,1:2|0:0,0:0:0:0:
136,152,29067,2,0,P|138:131|136:96,1,43.874997991562,2|0,0:0|0:0,0:0:0:0:
52,16,29298,2,0,P|49:36|52:72,1,43.874997991562,2|0,0:0|0:0,0:0:0:0:
160,124,29529,2,0,P|162:103|160:68,1,43.874997991562,8|0,1:2|0:0,0:0:0:0:
80,172,29759,1,2,0:0:0:0:
160,224,29875,1,2,0:0:0:0:
280,172,29990,6,0,B|256:168|256:168|220:172,1,43.874997991562,6|0,0:3|0:0,0:0:0:0:
284,284,30221,1,2,0:0:0:0:
332,224,30336,1,8,1:2:0:0:
376,288,30452,2,0,B|380:312|380:312|376:348,1,43.874997991562,2|0,0:0|0:0,0:0:0:0:
388,176,30682,1,8,1:2:0:0:
332,224,30798,1,2,0:0:0:0:
280,172,30913,6,0,B|276:148|276:148|280:112,1,43.874997991562,6|0,0:3|0:0,0:0:0:0:
392,20,31144,1,2,0:0:0:0:
440,100,31259,1,2,0:0:0:0:
288,64,31375,2,0,P|272:64|252:68,2,21.937498995781,8|0|0,1:2|1:0|1:0,1:0:0:0:
464,32,31605,1,2,0:0:0:0:
400,168,31721,1,2,0:0:0:0:
288,64,31836,6,0,L|288:20,1,43.874997991562,6|0,1:2|0:0,0:0:0:0:
176,128,32067,1,2,0:0:0:0:
169,192,32182,1,8,1:2:0:0:
198,251,32298,2,0,P|219:253|254:251,1,43.874997991562,2|0,0:0|0:0,0:0:0:0:
330,167,32529,2,0,P|310:164|274:167,1,43.874997991562,8|0,1:2|0:0,0:0:0:0:
222,275,32759,2,0,P|243:277|278:275,1,43.874997991562,6|0,0:3|0:0,0:0:0:0:
358,191,32990,2,0,P|338:188|302:191,1,43.874997991562,2|0,0:0|0:0,0:0:0:0:
396,332,33221,1,8,1:2:0:0:
424,248,33336,1,2,0:0:0:0:
340,264,33452,1,2,0:0:0:0:
472,312,33567,1,2,0:0:0:0:
432,172,33682,6,0,L|432:108,1,43.874997991562,6|0,0:3|0:0,0:0:0:0:
312,28,33913,2,0,L|312:92,1,43.874997991562,2|8,0:0|1:2,0:0:0:0:
452,40,34144,2,0,L|388:40,1,43.874997991562,2|0,0:0|0:0,0:0:0:0:
300,160,34375,2,0,L|364:160,1,43.874997991562,8|0,1:2|0:0,0:0:0:0:
184,56,34605,2,0,L|140:56,1,43.874997991562,6|0,0:3|0:0,0:0:0:0:
44,172,34836,1,2,0:0:0:0:
48,64,34952,1,2,0:0:0:0:
148,180,35067,2,0,P|164:180|184:176,2,21.937498995781,8|0|0,1:2|1:0|1:0,1:0:0:0:
0,116,35298,1,2,0:2:0:0:
200,120,35413,1,2,0:3:0:0:
92,232,35529,1,2,1:2:0:0:
92,232,35990,6,0,P|72:280|116:360,5,135
304,44,38529,22,0,L|312:16,1,16.875,2|0,0:0|0:3,0:3:0:0:
336,240,38759,2,0,L|344:268,1,16.875,2|0,0:0|0:3,0:3:0:0:
436,116,38990,2,0,L|444:88,1,16.875,2|0,0:0|0:3,0:3:0:0:
88,140,39221,5,4,0:0:0:0:
88,140,39682,6,0,P|68:188|112:268,2,135
424,140,41067,6,0,P|444:188|400:268,2,135,2|0|0,0:0|0:0|0:0,0:0:0:0:
216,92,42221,6,0,P|244:80|296:88,1,58.4999973220826,2|0,0:0|0:0,0:0:0:0:
184,216,42452,2,0,P|174:188|176:159,1,58.4999973220826,2|0,0:0|0:0,0:0:0:0:
284,284,42682,2,0,P|254:283|228:271,1,58.4999973220826,2|0,0:0|0:0,0:0:0:0:
380,224,42913,5,2,0:3:0:0:
360,248,43375,1,2,0:3:0:0:
336,268,43836,1,2,0:3:0:0:
304,280,44298,1,2,0:3:0:0:
272,284,44759,1,2,0:3:0:0:
240,280,45221,1,2,0:3:0:0:
212,264,45682,1,2,0:3:0:0:
105,60,45913,22,0,L|83:41,1,21.937498995781,2|0,0:0|0:0,0:0:0:0:
296,113,46144,2,0,L|325:118,1,21.937498995781,2|0,0:0|0:0,0:0:0:0:
108,232,46375,2,0,L|86:251,1,21.937498995781,2|0,0:0|0:0,0:0:0:0:
240,37,46605,5,2,0:3:0:0:
264,57,47067,1,2,0:3:0:0:
284,81,47529,1,2,0:3:0:0:
296,113,47990,1,2,0:3:0:0:
464,272,48452,5,2,1:3:0:0:
460,304,48913,1,2,0:3:0:0:
208,264,49375,6,0,L|128:264,2,67.5,2|2|10,0:0|0:0|0:0,0:3:0:0:
394,84,49836,6,0,L|400:108,1,21.937498995781,0|0,3:0|3:0,3:0:0:0:
460,304,50067,2,0,L|440:288,1,21.937498995781,0|0,3:0|3:0,3:0:0:0:
284,64,50298,6,0,P|259:65|220:84,1,50.6250019311906,8|0,0:0|0:0,0:0:0:0:
176,172,50529,1,0,0:0:0:0:
185,123,50644,1,0,1:0:0:0:
163,78,50759,1,0,0:0:0:0:
118,56,50875,1,0,0:0:0:0:
69,66,50990,1,0,1:0:0:0:
36,103,51105,1,0,0:0:0:0:
108,128,51221,5,4,0:3:0:0:
158,128,51336,1,0,0:0:0:0:
209,128,51452,1,4,0:3:0:0:
259,128,51567,1,0,0:0:0:0:
340,132,51682,1,0,1:0:0:0:
316,152,51798,1,0,0:0:0:0:
292,172,51913,1,0,0:0:0:0:
274,193,52029,1,0,0:0:0:0:
356,212,52144,5,4,0:3:0:0:
394,180,52259,1,0,0:0:0:0:
404,131,52375,1,0,0:0:0:0:
381,87,52490,1,0,1:0:0:0:
336,67,52605,1,0,0:0:0:0:
286,75,52721,1,0,0:0:0:0:
333,19,52836,5,0,1:0:0:0:
336,67,52952,1,0,0:0:0:0:
312,111,53067,1,4,0:3:0:0:
267,132,53182,1,0,0:0:0:0:
217,124,53298,2,0,L|192:112,1,25.3125009655953,4|0,0:3|0:0,0:0:0:0:
408,56,53529,2,0,L|433:44,1,25.3125009655953,4|0,0:3|0:0,0:0:0:0:
368,256,53759,2,0,L|368:281,1,25.3125009655953,4|0,0:3|0:0,0:0:0:0:
120,188,53990,5,4,0:3:0:0:
166,168,54105,1,0,0:0:0:0:
215,175,54221,1,0,0:0:0:0:
253,207,54336,1,0,1:0:0:0:
269,255,54452,1,0,0:0:0:0:
258,304,54567,1,0,0:0:0:0:
223,339,54682,1,0,1:0:0:0:
173,339,54798,1,0,0:0:0:0:
184,260,54913,5,4,0:3:0:0:
232,247,55029,1,0,0:0:0:0:
281,258,55144,1,4,0:3:0:0:
320,290,55259,1,0,0:0:0:0:
384,340,55375,1,0,1:0:0:0:
384,289,55490,1,0,0:0:0:0:
384,238,55605,1,4,0:3:0:0:
384,188,55721,1,0,0:0:0:0:
348,124,55836,5,4,0:3:0:0:
336,98,55952,1,0,0:0:0:0:
432,96,56067,1,0,0:0:0:0:
420,122,56182,1,0,1:0:0:0:
384,44,56298,1,0,0:0:0:0:
384,15,56413,1,0,0:0:0:0:
336,98,56529,5,0,1:0:0:0:
348,124,56644,1,0,0:0:0:0:
420,122,56759,1,4,0:3:0:0:
432,96,56875,1,0,0:0:0:0:
460,28,56990,2,0,L|487:23,1,25.3125009655953,4|0,0:3|0:0,0:0:0:0:
232,40,57221,2,0,L|204:35,1,25.3125009655953,4|0,0:3|0:0,0:0:0:0:
348,256,57452,5,4,0:3:0:0:
348,190,57567,1,4,0:3:0:0:
348,124,57682,5,2,1:3:0:0:
334,95,58144,1,2,0:3:0:0:
316,70,58605,1,2,0:3:0:0:
289,50,59067,1,2,0:3:0:0:
156,232,59529,2,0,L|129:241,1,25.3125009655953,4|0,0:3|0:3,0:3:0:0:
96,24,59759,2,0,L|71:12,1,25.3125009655953,4|0,0:3|0:3,0:3:0:0:
72,256,59990,1,0,0:0:0:0:
356,232,60452,6,0,L|382:241,1,25.3125009655953,4|0,0:3|0:0,0:0:0:0:
204,64,60682,2,0,P|173:64|129:94,1,58.4999973220826,4|0,0:3|0:0,0:0:0:0:
124,192,60913,2,0,P|114:164|116:135,1,58.4999973220826,4|0,0:3|0:0,0:0:0:0:
260,112,61144,2,0,P|271:138|272:167,1,58.4999973220826,4|0,0:3|0:0,0:0:0:0:
216,284,61375,5,8,0:0:0:0:
246,294,61836,1,2,0:3:0:0:
276,299,62298,1,2,0:3:0:0:
310,294,62759,1,2,0:3:0:0:
262,59,63221,6,0,L|240:48,1,21.937498995781,4|0,0:3|0:0,0:0:0:0:
132,236,63452,2,0,L|140:264,1,21.937498995781,4|0,0:3|0:0,0:0:0:0:
176,20,63682,1,0,0:0:0:0:
320,248,64144,2,0,L|328:224,1,21.937498995781,4|0,0:3|0:0,0:0:0:0:
131,235,64375,2,0,P|119:209|119:180,1,58.4999973220826,4|0,0:3|0:0,0:0:0:0:
190,267,64605,2,0,P|219:269|247:260,1,58.4999973220826,4|0,0:3|0:0,0:0:0:0:
222,111,64836,2,0,P|193:112|167:124,1,58.4999973220826,4|0,0:3|0:0,0:0:0:0:
308,156,65067,6,0,P|333:155|372:136,1,50.6250019311906,8|0,0:0|0:0,0:0:0:0:
260,79,65298,1,0,0:0:0:0:
222,111,65413,1,0,1:0:0:0:
209,159,65529,1,0,0:0:0:0:
228,205,65644,1,0,0:0:0:0:
269,233,65759,1,0,1:0:0:0:
319,231,65875,1,0,0:0:0:0:
308,156,65990,5,4,0:3:0:0:
272,184,66105,1,0,0:0:0:0:
269,233,66221,1,4,0:3:0:0:
284,280,66336,1,0,0:0:0:0:
356,312,66452,1,0,1:0:0:0:
357,261,66567,1,0,0:0:0:0:
358,210,66682,1,4,0:3:0:0:
359,160,66798,1,0,0:0:0:0:
424,192,66913,5,4,0:3:0:0:
433,218,67029,1,0,0:0:0:0:
479,142,67144,1,0,0:0:0:0:
438,114,67259,1,0,1:0:0:0:
389,121,67375,1,0,0:0:0:0:
359,160,67490,1,0,0:0:0:0:
433,218,67605,5,0,1:0:0:0:
424,192,67721,1,0,0:0:0:0:
384,272,67836,2,0,L|384:332,1,50.6250019311906,4|0,0:3|0:0,0:0:0:0:
264,164,68067,2,0,L|259:137,1,25.3125009655953,4|0,0:3|0:3,0:3:0:0:
132,320,68298,2,0,L|127:347,1,25.3125009655953,4|0,0:3|0:3,0:3:0:0:
8,156,68529,2,0,L|13:129,1,25.3125009655953,4|0,0:3|0:3,0:3:0:0:
248,40,68759,5,2,0:0:0:0:
297,43,68875,1,0,0:0:0:0:
338,72,68990,1,0,0:0:0:0:
357,118,69105,1,0,1:0:0:0:
350,167,69221,1,0,0:0:0:0:
318,203,69336,1,0,0:0:0:0:
270,197,69452,1,0,1:0:0:0:
250,153,69567,1,0,0:0:0:0:
276,112,69682,5,4,0:3:0:0:
320,128,69798,1,0,0:0:0:0:
350,167,69913,1,4,0:3:0:0:
338,215,70029,1,0,0:0:0:0:
304,252,70144,1,0,1:0:0:0:
256,268,70259,1,0,0:0:0:0:
207,260,70375,1,0,0:0:0:0:
168,229,70490,1,0,0:0:0:0:
256,268,70605,5,4,1:0:0:0:
272,315,70721,1,0,0:0:0:0:
247,357,70836,1,0,0:0:0:0:
199,367,70952,1,0,0:0:0:0:
207,260,71067,5,4,1:0:0:0:
253,244,71182,1,0,0:0:0:0:
296,268,71298,1,0,0:0:0:0:
305,317,71413,1,0,0:0:0:0:
399,284,71529,2,0,P|403:248|383:196,1,67.5000025749207,4|0,1:0|0:0,0:0:0:0:
292,201,71759,2,0,P|288:237|308:289,1,67.5000025749207,0|0,1:1|0:0,0:0:0:0:
359,148,71990,2,0,P|359:124|343:88,1,50.6250019311906,0|0,1:0|0:0,0:0:0:0:
163,44,72221,5,0,1:0:0:0:
264,36,72336,1,0,1:0:0:0:
268,132,72452,6,0,L|268:184,1,43.874997991562,4|0,0:0|0:0,0:0:0:0:
192,200,72682,2,0,L|192:252,1,43.874997991562
112,296,72913,1,0,0:0:0:0:
120,224,73029,1,0,0:0:0:0:
184,316,73144,2,0,L|280:316,1,87.749995983124,4|0,0:0|0:0,0:0:0:0:
340,240,73490,1,0,0:0:0:0:
344,312,73605,1,0,0:0:0:0:
272,240,73721,1,0,0:0:0:0:
184,316,73836,2,0,L|120:316,1,43.874997991562,4|0,0:0|0:0,0:0:0:0:
72,256,74067,1,0,0:0:0:0:
140,224,74182,1,0,0:0:0:0:
56,160,74298,6,0,L|28:164,1,21.937498995781,4|0,0:3|0:0,0:0:0:0:
284,48,74529,1,4,0:3:0:0:
140,224,74759,1,0,1:0:0:0:
108,161,74875,1,0,1:0:0:0:
157,111,74990,1,0,1:0:0:0:
220,143,75105,1,0,1:0:0:0:
209,213,75221,6,0,L|181:217,1,21.937498995781,4|0,0:3|0:0,0:0:0:0:
284,48,75452,1,4,0:3:0:0:
372,224,75682,1,0,1:0:0:0:
404,161,75798,1,0,1:0:0:0:
355,111,75913,1,0,1:0:0:0:
292,143,76029,1,0,1:0:0:0:
303,213,76144,6,0,L|304:272,1,43.874997991562
209,256,76375,2,0,L|208:212,1,43.874997991562
256,308,76605,2,0,L|255:367,1,43.874997991562
152,308,76836,2,0,B|140:284|140:284|140:220,1,87.749995983124,4|0,0:0|0:0,0:0:0:0:
188,368,77182,1,0,0:0:0:0:
116,372,77298,2,0,L|56:372,1,43.874997991562
96,223,77529,2,0,L|156:223,1,43.874997991562,4|0,0:0|0:0,0:0:0:0:
256,308,77759,5,2,0:0:0:0:
304,252,77875,1,2,0:0:0:0:
396,348,77990,1,0,1:0:0:0:
380,278,78105,1,0,1:0:0:0:
360,208,78221,1,2,0:0:0:0:
432,228,78336,1,2,0:0:0:0:
304,252,78452,6,0,L|282:251,2,21.937498995781,0|0|0,1:0|1:0|1:0,1:0:0:0:
448,300,78682,1,2,0:0:0:0:
412,160,78798,1,2,0:0:0:0:
324,324,78913,1,4,0:0:0:0:
148,172,79144,6,0,L|119:172,1,28.6875005471707
188,100,79375,2,0,L|160:100,1,28.6875005471707
232,32,79605,2,0,L|204:32,1,28.6875005471707
428,228,79872,6,0,B|400:256|400:256|312:256,1,111.375003398895,2|0,0:0|0:0,0:0:0:0:
216,184,80160,2,0,B|184:156|184:156|292:156,1,148.50000453186,10|0,0:0|0:0,0:0:0:0:
244,280,80506,2,0,L|160:280,1,74.2500022659302,10|0,0:0|0:0,0:0:0:0:
380,156,80737,2,0,B|472:156|472:156|516:224,2,148.50000453186,2|2|10,0:0|0:0|0:0,0:0:0:0:
300,272,81314,1,0,0:0:0:0:
368,336,81429,2,0,L|444:336,1,74.2500022659302,2|0,0:0|0:0,0:0:0:0:
380,156,81660,6,0,B|352:128|352:128|220:128,1,148.50000453186,2|0,0:0|0:0,0:0:0:0:
152,212,82006,2,0,B|120:240|120:240|228:240,1,148.50000453186,10|0,0:0|0:0,0:0:0:0:
164,120,82352,2,0,L|64:120,1,74.2500022659302,10|0,0:0|0:0,0:0:0:0:
68,284,82583,2,0,B|92:308|92:308|180:308,1,111.375003398895,2|0,0:0|0:0,0:0:0:0:
212,320,82814,2,0,L|212:240,1,74.2500022659302,4|0,0:2|0:0,0:0:0:0:
36,176,83045,2,0,L|36:200,1,18.5625005664826
292,288,83275,2,0,L|292:264,1,18.5625005664826,4|0,0:2|0:0,0:0:0:0:
256,68,83506,6,0,B|148:68|148:68|120:96,1,148.50000453186,2|0,0:0|0:0,0:0:0:0:
294,184,83852,2,0,B|400:184|400:184|368:156,1,148.50000453186,10|0,0:0|0:0,0:0:0:0:
324,16,84198,2,0,P|340:48|324:88,1,74.2500022659302,10|0,0:0|0:0,0:0:0:0:
156,168,84429,2,0,B|64:168|64:168|20:100,2,148.50000453186,2|2|10,0:0|0:0|0:0,0:0:0:0:
236,48,85006,1,0,0:0:0:0:
156,16,85122,2,0,L|80:16,1,74.2500022659302,2|0,0:0|0:0,0:0:0:0:
4,208,85352,6,0,B|32:236|32:236|164:236,1,148.50000453186,2|0,0:0|0:0,0:0:0:0:
281,144,85698,2,0,B|313:116|313:116|205:116,1,148.50000453186,10|0,0:0|0:0,0:0:0:0:
252,304,86045,2,0,L|352:304,1,74.2500022659302,10|0,0:0|0:0,0:0:0:0:
425,112,86275,2,0,B|401:88|401:88|361:76|313:88,1,111.375003398895,2|0,0:0|0:0,0:0:0:0:
281,69,86506,2,0,L|280:153,1,74.2500022659302,4|0,0:2|0:0,0:0:0:0:
457,220,86737,2,0,L|456:192,1,18.5625005664826
201,108,86968,2,0,L|200:140,1,18.5625005664826,4|0,0:2|0:0,0:0:0:0:
332,352,87198,1,0,0:0:0:0:
200,192,91583,5,2,0:0:0:0:
200,208,91720,1,2,0:0:0:0:
252,248,91835,5,0,1:0:0:0:
252,92,92066,1,4,0:3:0:0:
104,292,92297,2,0,L|76:296,9,16.8750006437302
160,344,92741,6,0,B|196:336|224:364|224:364|240:324|288:324,1,135.000005149841,2|0,0:0|0:0,0:0:0:0:
328,260,93087,2,0,P|266:236|208:266,1,135.000005149841,2|0,0:0|0:0,0:0:0:0:
348,340,93433,2,2,L|380:340,1,25.3125009655953
364,184,93664,1,0,0:0:0:0:
448,268,93894,2,0,L|473:268,1,25.3125009655953,2|0,0:0|0:0,0:0:0:0:
316,128,94125,2,0,B|288:124|268:136|268:136|244:116|244:116|208:140|160:120,1,151.875005793572,4|0,0:3|0:0,0:0:0:0:
357,67,94587,6,0,P|389:127|356:189,1,135.000005149841,2|0,0:0|0:0,0:0:0:0:
240,224,94933,2,0,B|283:226|298:193|298:193|299:229|330:247,1,135.000005149841,2|0,0:0|0:0,0:0:0:0:
172,192,95279,2,0,L|124:192,1,25.3125009655953,2|0,0:0|0:0,0:0:0:0:
252,76,95510,1,0,0:0:0:0:
104,52,95741,2,0,L|78:52,1,25.3125009655953,2|0,0:0|0:0,0:0:0:0:
260,148,95971,5,0,1:0:0:0:
252,76,96087,1,0,1:0:0:0:
196,120,96202,1,0,1:0:0:0:
260,148,96317,1,0,1:0:0:0:
312,32,96433,6,0,P|248:4|184:48,1,151.875005793572,2|0,0:0|0:0,0:0:0:0:
252,76,96894,2,0,P|188:48|124:92,1,151.875005793572,2|0,0:0|0:0,0:0:0:0:
192,116,97356,2,0,P|128:88|64:132,1,151.875005793572,2|0,0:0|0:0,0:0:0:0:
132,218,97817,2,0,L|132:168,1,50.6250019311906,4|0,0:3|0:0,0:0:0:0:
48,256,98048,1,0,1:0:0:0:
76,336,98164,1,0,1:0:0:0:
180,340,98279,6,0,B|216:352|248:332|248:332|288:348|288:348|328:328|380:352,1,202.5,4|0,0:0|0:0,0:0:0:0:
424,288,99202,2,0,P|360:260|292:264,1,135
180,200,99894,1,0,0:0:0:0:
288,80,100125,6,0,B|312:124|312:124|308:232,1,151.875005793572,2|0,0:0|0:0,0:0:0:0:
296,262,100587,1,4,0:2:0:0:
444,192,100817,1,2,0:0:0:0:
444,192,101279,6,0,B|460:160|448:128|448:128|432:100|444:68|444:68|452:104|492:116,1,188.999994232178,2|0,0:0|0:0,0:0:0:0:
380,160,101625,6,0,P|324:172|264:124,1,114.750002188683,2|0,0:0|0:0,0:0:0:0:
336,8,101971,6,0,B|349:27|352:68|336:100|336:100|353:86|396:92,1,135,2|0,0:0|0:0,0:0:0:0:
260,56,102664,1,0,0:0:0:0:
260,56,102894,2,0,P|196:48|144:84,1,101.25
136,88,103356,1,0,0:0:0:0:
312,172,103587,1,0,0:0:0:0:
96,308,103817,6,0,L|56:308,1,25.3125009655953,2|0,0:0|0:0,0:0:0:0:
96,308,104279,5,0,1:0:0:0:
148,256,104394,1,0,1:0:0:0:
228,356,104510,1,2,0:0:0:0:
220,276,104625,1,0,1:0:0:0:
220,276,104856,5,2,0:0:0:0:
164,324,104971,1,0,1:0:0:0:
200,204,105087,1,0,1:0:0:0:
288,312,105202,1,0,1:0:0:0:
148,256,105317,1,2,0:0:0:0:
272,224,105433,1,0,1:0:0:0:
132,188,105548,1,2,0:0:0:0:
336,260,105664,6,0,P|404:204|328:156,1,202.5,0|0,1:0|0:0,0:0:0:0:
208,156,106587,1,0,0:0:0:0:
208,156,106817,2,0,L|272:156,1,33.75,2|0,0:0|0:0,0:0:0:0:
284,96,107048,1,0,1:0:0:0:
156,96,107164,1,0,1:0:0:0:
224,224,107279,1,0,1:0:0:0:
220,52,107394,1,2,0:0:0:0:
142,180,107510,6,0,L|142:220,1,33.75,2|0,0:0|0:0,0:0:0:0:
171,163,107741,6,0,L|171:213,1,50.6250019311906,2|0,0:0|0:0,0:0:0:0:
199,146,107971,6,0,L|198:210,1,64.1249982876778,2|0,0:0|0:0,0:0:0:0:
228,130,108202,6,0,L|228:207,1,77.6250014805794,2|0,0:0|0:0,0:0:0:0:
256,113,108433,6,0,L|256:228,1,91.1250003476143,2|0,0:0|0:0,0:0:0:0:
284,96,108664,6,0,L|284:200,1,104.625000798225,2|0,0:0|0:0,0:0:0:0:
313,80,108894,6,0,L|312:208,1,118.125001126528,2|0,0:0|0:0,0:0:0:0:
341,63,109125,6,0,L|341:194,1,131.62500050211,2|0,0:0|0:0,0:0:0:0:
340,348,109356,1,0,1:0:0:0:
352,120,113004,5,0,1:0:0:0:
352,120,113204,2,0,B|296:108|256:152|256:152|245:126|216:104|172:100,1,180,2|0,0:0|0:0,0:0:0:0:
184,172,113550,2,0,P|211:230|120:276,1,180,2|0,0:0|0:0,0:0:0:0:
144,220,113896,6,0,P|216:228|304:236,1,135.000005149841,2|0,0:0|0:0,0:0:0:0:
332,276,114242,2,0,P|364:280|388:272,1,50.6250019311906,2|2,0:0|0:0,0:0:0:0:
436,236,114473,1,2,0:0:0:0:
440,168,114588,2,0,B|428:144|432:116|432:116|404:148|356:148|320:112,1,168.750006437302,2|0,0:0|0:0,0:0:0:0:
380,68,115050,6,0,B|380:172|380:172|364:212|296:200,1,180,2|0,0:0|0:0,0:0:0:0:
268,152,115396,2,0,B|236:176|236:248|284:268|284:268|284:320,1,180,2|0,0:0|0:0,0:0:0:0:
236,368,115742,6,0,L|136:368,1,67.5000025749207,2|0,0:0|0:0,0:0:0:0:
128,312,115973,6,0,P|68:300|32:320,1,90,2|0,0:0|0:0,0:0:0:0:
108,232,116204,2,0,P|150:244|192:230,1,90,2|0,0:0|0:0,0:0:0:0:
148,172,116434,2,0,P|136:130|150:88,1,90,2|0,0:0|0:0,0:0:0:0:
204,40,116665,1,2,0:0:0:0:
276,40,116780,1,2,0:0:0:0:
328,84,116896,6,0,B|344:116|340:144|340:144|312:192|312:192|304:228|324:276,1,180,2|0,0:0|0:0,0:0:0:0:
360,316,117242,2,0,B|404:280|384:220|384:220|396:264|460:268,1,180,2|0,0:0|0:0,0:0:0:0:
508,256,117588,2,0,B|519:230|511:194|511:194|483:146|483:146|468:96|508:64,1,202.5,2|0,0:0|0:0,0:0:0:0:
440,32,118050,2,0,P|424:60|412:112,1,67.5,2|0,0:0|0:0,0:0:0:0:
437,264,118280,6,0,P|432:197|387:158,1,112.5,2|0,0:0|0:0,0:0:0:0:
372,232,118742,6,0,B|332:228|312:240|312:240|280:220|280:220|244:252|188:224,1,180,2|0,0:0|0:0,0:0:0:0:
192,80,119088,2,0,B|228:84|260:72|260:72|224:92|208:148|236:172,1,180,2|0,0:0|0:0,0:0:0:0:
378,146,119434,2,0,P|339:126|296:136,1,90,2|0,0:0|0:0,0:0:0:0:
324,284,119665,6,0,B|338:253|338:253|328:184,1,90,2|0,0:0|0:0,0:0:0:0:
180,216,119896,2,0,B|207:235|207:235|277:238,1,90,2|0,0:0|0:0,0:0:0:0:
296,352,120127,2,0,B|248:352|248:352|268:324|252:288,1,90,2|0,0:0|0:0,0:0:0:0:
405,288,120357,2,0,B|373:268|373:268|309:288,1,90,2|0,0:0|0:0,0:0:0:0:
432,356,120588,6,0,P|472:320|416:216,1,180,2|0,0:0|0:0,0:0:0:0:
360,208,120934,2,0,B|320:196|296:208|296:208|244:240|180:200,1,180,2|0,0:0|0:0,0:0:0:0:
224,80,121280,2,0,P|244:112|240:148,1,67.5,2|0,0:0|0:0,0:0:0:0:
120,176,121511,1,2,0:0:0:0:
62,138,121627,1,2,0:0:0:0:
80,73,121742,1,2,0:0:0:0:
148,69,121857,1,2,0:0:0:0:
168,132,121973,6,0,B|180:160|168:188|168:188|160:212|168:244,1,112.5,2|0,0:0|0:0,0:0:0:0:
200,304,122434,6,0,B|224:332|248:336|248:336|304:304|372:344,1,180,2|0,0:0|0:0,0:0:0:0:
424,300,122780,2,0,P|336:256|240:264,1,180,2|0,0:0|0:0,0:0:0:0:
200,304,123127,2,0,P|154:315|116:288,1,90,2|0,0:0|0:0,0:0:0:0:
52,176,123357,5,2,0:0:0:0:
100,224,123473,1,2,0:0:0:0:
52,272,123588,1,2,0:0:0:0:
5,224,123704,1,2,0:0:0:0:
64,176,123819,5,2,0:0:0:0:
112,224,123934,1,2,0:0:0:0:
64,272,124050,1,2,0:0:0:0:
17,224,124165,1,2,0:0:0:0:
128,156,124280,1,4,0:0:0:0:
432,120,127997,6,0,P|376:140|328:120,1,101.250003862381,2|0,0:0|0:0,0:0:0:0:
380,64,128343,1,8,0:0:0:0:
380,64,128458,1,0,0:0:0:0:
512,156,128689,1,8,0:0:0:0:
338,228,128920,2,0,L|338:92,1,101.250003862381,2|2,0:0|0:0,0:0:0:0:
380,296,129381,2,0,L|380:356,3,50.6250019311906,0|0|0|0,1:0|0:0|0:0|0:0,0:0:0:0:
284,360,129843,6,0,B|256:372|256:372|184:360,1,101.250003862381,2|0,0:0|0:0,0:0:0:0:
120,328,130189,1,8,0:0:0:0:
120,328,130304,1,0,0:0:0:0:
148,168,130535,1,8,0:0:0:0:
284,258,130766,2,0,L|284:366,1,101.250003862381,2|2,0:0|0:0,0:0:0:0:
88,240,131227,1,0,1:0:0:0:
276,120,131458,1,2,0:0:0:0:
176,277,131689,6,0,L|176:161,1,101.250003862381,2|0,0:0|0:0,0:0:0:0:
176,109,132035,1,8,0:0:0:0:
176,109,132150,1,0,0:0:0:0:
324,48,132381,1,8,0:0:0:0:
348,244,132612,2,0,B|284:248|284:248|236:224,1,101.250003862381,2|2,0:0|0:0,0:0:0:0:
392,112,133073,2,0,L|464:112,3,50.6250019311906,0|0|0|0,1:0|0:0|0:0|0:0,0:0:0:0:
488,208,133535,6,0,P|504:256|472:312,1,101.250003862381,2|0,0:0|0:0,0:0:0:0:
432,348,133881,1,8,0:0:0:0:
432,348,133997,1,0,0:0:0:0:
348,208,134227,1,8,0:0:0:0:
260,344,134458,1,2,0:0:0:0:
212,104,134689,1,2,0:0:0:0:
304,272,134920,1,4,0:0:0:0:
432,164,135150,1,0,1:0:0:0:
366,164,135266,1,0,1:0:0:0:
300,164,135381,5,4,0:0:0:0:
512,100,135727,1,8,0:0:0:0:
512,100,135843,1,0,0:0:0:0:
400,40,136073,1,8,0:0:0:0:
464,220,136304,1,2,0:0:0:0:
480,24,136535,1,2,0:0:0:0:
280,116,136766,1,0,1:0:0:0:
257,160,136881,1,0,0:0:0:0:
261,210,136997,1,0,0:0:0:0:
289,251,137112,1,0,1:0:0:0:
335,272,137227,5,2,0:0:0:0:
336,44,137573,1,8,0:0:0:0:
336,44,137689,1,0,0:0:0:0:
212,200,137920,1,8,0:0:0:0:
408,224,138150,1,2,0:0:0:0:
336,44,138381,1,2,0:0:0:0:
300,296,138612,1,0,1:0:0:0:
216,80,138843,1,2,0:0:0:0:
448,100,139073,6,0,B|464:132|464:132|464:200,1,101.250003862381,6|0,0:0|0:0,0:0:0:0:
464,268,139420,1,8,0:0:0:0:
464,268,139535,1,0,0:0:0:0:
272,248,139766,1,8,0:0:0:0:
364,332,139997,1,2,0:0:0:0:
380,136,140227,1,2,0:0:0:0:
272,336,140458,2,0,B|240:348|240:348|180:344,3,50.6250019311906,0|0|0|0,1:0|0:0|0:0|0:0,0:0:0:0:
124,308,140920,6,0,P|104:264|120:192,1,101.250003862381,2|0,0:0|0:0,0:0:0:0:
144,152,141266,1,8,0:0:0:0:
144,152,141381,1,0,0:0:0:0:
340,144,141612,1,8,0:0:0:0:
344,184,141727,1,0,0:0:0:0:
340,224,141843,2,0,P|331:255|306:280,1,50.6250019311906,2|0,0:0|0:0,0:0:0:0:
264,316,142073,2,0,P|233:326|198:319,2,50.6250019311906,0|0|0,1:0|1:0|1:0,0:0:0:0:
264,240,142420,5,0,1:0:0:0:
328,344,142535,1,0,1:0:0:0:
340,224,142650,1,0,1:0:0:0:
384,288,142766,1,0,1:0:0:0:
384,288,143148,6,0,P|444:284|428:348,2,135
96,216,143898,1,0,0:0:0:0:
104,248,144273,1,0,0:0:0:0:
384,288,144648,1,0,0:0:0:0:
384,288,144835,6,0,P|444:284|428:348,1,135
96,216,145398,1,0,0:0:0:0:
104,248,145773,1,0,0:0:0:0:
384,288,146148,1,0,0:0:0:0:
384,288,146335,6,0,P|444:284|428:348,1,135
104,248,146898,1,0,0:0:0:0:
264,112,147273,6,0,L|432:112,3,135
512,164,148023,5,2,0:0:0:0:
332,24,148210,2,0,L|332:72,1,43.874997991562,2|2,0:0|0:0,0:0:0:0:
332,168,148398,1,0,1:0:0:0:
332,168,148773,6,0,P|324:220|336:248,1,58.4999973220826,2|0,0:0|0:0,0:0:0:0:
256,248,148960,2,0,P|287:290|315:301,1,58.4999973220826
248,352,149148,2,0,P|300:360|327:348,1,58.4999973220826
420,288,149335,2,0,P|368:280|340:292,1,58.4999973220826,8|0,0:3|0:0,0:0:0:0:
377,202,149523,2,0,P|327:221|309:245,1,58.4999973220826,2|0,0:0|0:0,0:0:0:0:
312,144,149710,2,0,P|274:181|266:210,1,58.4999973220826
156,224,149898,2,0,L|236:224,1,58.4999973220826,8|0,0:3|0:0,0:0:0:0:
212,148,150085,2,0,L|132:148,1,58.4999973220826
272,185,150273,6,0,P|293:136|288:106,1,58.4999973220826,2|0,0:0|0:0,0:0:0:0:
364,129,150460,2,0,P|344:79|320:61,1,58.4999973220826
399,29,150648,2,0,P|350:7|320:12,1,58.4999973220826
216,46,150835,2,0,P|264:67|294:62,1,58.4999973220826,8|0,0:3|0:0,0:0:0:0:
234,141,151023,2,0,P|286:135|310:116,1,58.4999973220826,2|0,0:0|0:0,0:0:0:0:
282,211,151210,2,0,P|328:186|343:159,1,58.4999973220826
454,175,151398,2,0,L|376:154,1,58.4999973220826,8|0,0:3|0:0,0:0:0:0:
177,125,151585,2,0,L|254:145,1,58.4999973220826
336,312,151773,6,0,B|340:292|340:292|336:228,1,58.4999973220826,2|0,0:0|0:0,0:0:0:0:
256,300,151960,2,0,B|252:320|252:320|256:384,1,58.4999973220826
404,320,152148,2,0,B|408:300|408:300|404:236,1,58.4999973220826
188,292,152335,2,0,B|184:312|184:312|188:376,1,58.4999973220826,8|0,0:3|0:0,0:0:0:0:
336,312,152523,2,0,B|340:292|340:292|336:228,1,58.4999973220826,2|0,0:0|0:0,0:0:0:0:
256,300,152710,2,0,B|252:320|252:320|256:384,1,58.4999973220826
404,320,152898,2,0,B|408:300|408:300|404:236,1,58.4999973220826,8|0,0:3|0:0,0:0:0:0:
188,292,153085,2,0,B|184:312|184:312|188:376,1,58.4999973220826
380,196,153273,6,0,P|405:192|456:212,1,58.4999973220826,2|0,0:0|0:0,0:0:0:0:
292,104,153460,2,0,P|266:100|216:120,1,58.4999973220826
272,224,153648,2,0,P|275:198|256:148,1,58.4999973220826
84,108,153835,2,0,P|109:104|160:124,1,58.4999973220826,8|0,0:3|0:0,0:0:0:0:
104,228,154023,2,0,P|100:202|120:152,1,58.4999973220826,2|0,0:0|0:0,0:0:0:0:
238,50,154210,2,0,P|241:75|222:126,1,58.4999973220826
56,40,154398,2,0,P|81:36|132:56,1,58.4999973220826,8|0,0:3|0:0,0:0:0:0:
184,216,154585,2,0,P|183:245|172:272,1,58.4999973220826
104,348,154773,5,2,0:0:0:0:
128,348,154960,1,0,0:0:0:0:
152,348,155148,1,0,0:0:0:0:
177,348,155335,1,8,0:3:0:0:
201,348,155523,1,0,0:0:0:0:
225,348,155710,1,0,0:0:0:0:
252,188,155898,1,8,0:3:0:0:
274,348,156085,1,0,0:0:0:0:
300,188,156273,5,2,0:0:0:0:
324,188,156460,1,0,0:0:0:0:
348,188,156648,1,0,0:0:0:0:
373,188,156835,1,8,0:3:0:0:
397,188,157023,1,0,0:0:0:0:
421,188,157210,1,0,0:0:0:0:
448,28,157398,1,8,0:3:0:0:
470,188,157585,1,0,0:0:0:0:
496,28,157773,5,2,0:0:0:0:
471,28,157960,1,0,0:0:0:0:
447,28,158148,1,0,0:0:0:0:
422,28,158335,1,8,0:3:0:0:
398,28,158523,1,0,0:0:0:0:
374,28,158710,1,0,0:0:0:0:
348,184,158898,1,8,0:3:0:0:
325,28,159085,1,0,0:0:0:0:
300,184,159273,5,2,0:0:0:0:
275,184,159460,1,0,0:0:0:0:
251,184,159648,1,0,0:0:0:0:
226,184,159835,1,8,0:3:0:0:
202,184,160023,1,0,0:0:0:0:
178,184,160210,1,0,0:0:0:0:
152,32,160398,1,8,0:3:0:0:
129,184,160585,1,0,0:0:0:0:
104,32,160773,5,2,0:0:0:0:
77,47,160960,1,0,0:0:0:0:
58,72,161148,1,0,0:0:0:0:
51,103,161335,1,8,0:3:0:0:
56,133,161523,1,0,0:0:0:0:
73,160,161710,1,0,0:0:0:0:
98,177,161898,1,8,0:3:0:0:
129,183,162085,1,0,0:0:0:0:
288,72,162273,5,2,0:0:0:0:
272,45,162460,1,0,0:0:0:0:
247,26,162648,1,0,0:0:0:0:
216,20,162835,1,8,0:3:0:0:
186,24,163023,1,0,0:0:0:0:
159,41,163210,1,0,0:0:0:0:
142,66,163398,1,8,0:3:0:0:
136,97,163585,1,0,0:0:0:0:
260,240,163773,5,2,0:0:0:0:
286,224,163960,1,0,0:0:0:0:
306,199,164148,1,0,0:0:0:0:
312,168,164335,1,8,0:3:0:0:
308,138,164523,1,0,0:0:0:0:
291,111,164710,1,0,0:0:0:0:
266,94,164898,1,8,0:3:0:0:
235,88,165085,1,0,0:0:0:0:
104,212,165273,5,2,0:0:0:0:
128,212,165460,1,0,0:0:0:0:
152,212,165648,1,0,0:0:0:0:
177,212,165835,1,8,0:3:0:0:
201,212,166023,1,0,0:0:0:0:
225,212,166210,1,0,0:0:0:0:
256,64,166398,1,8,0:3:0:0:
328,240,166585,1,2,0:0:0:0:
192,104,166773,6,0,B|164:88|120:84|88:116|88:116|104:80|104:80|64:120|16:120|-16:60,1,270
144,172,167335,1,0,0:0:0:0:
320,104,167523,2,0,B|348:88|392:84|424:116|424:116|408:80|408:80|448:120|496:120|528:60,1,270
368,172,168085,1,0,0:0:0:0:
260,56,168273,6,0,B|220:68|204:32|204:32|204:80|204:80|172:52|172:52|100:28|60:60|76:132|76:132|92:88|196:84,1,377.999988464356
336,28,168835,1,2,0:0:0:0:
416,248,169023,1,0,1:0:0:0:
200,204,169210,1,0,1:0:0:0:
336,28,169398,1,0,1:0:0:0:
416,248,169585,1,0,1:0:0:0:
200,332,169773,6,0,L|128:332,1,57.3750010943413,2|0,0:0|0:0,0:0:0:0:
64,332,169960,1,2,0:0:0:0:
144,188,170148,1,0,0:0:0:0:
284,336,170335,1,8,0:3:0:0:
240,176,170523,1,0,0:0:0:0:
224,200,170616,1,0,0:0:0:0:
223,228,170710,1,0,0:0:0:0:
235,253,170804,1,0,0:0:0:0:
258,270,170898,1,8,0:3:0:0:
324,120,171085,1,0,0:0:0:0:
368,272,171273,6,0,L|444:272,1,57.3750010943413,2|0,0:0|0:0,0:0:0:0:
504,268,171460,1,2,0:0:0:0:
420,120,171648,1,0,0:0:0:0:
258,270,171835,1,8,0:3:0:0:
324,120,172023,1,0,0:0:0:0:
342,141,172116,1,0,0:0:0:0:
348,170,172210,1,0,0:0:0:0:
339,196,172304,1,0,0:0:0:0:
319,216,172398,1,8,0:3:0:0:
164,172,172585,1,0,0:0:0:0:
244,304,172773,6,0,L|244:236,1,57.3750010943413,2|0,0:0|0:0,0:0:0:0:
244,168,172960,1,2,0:0:0:0:
96,240,173148,1,0,0:0:0:0:
284,372,173335,1,8,0:3:0:0:
388,256,173523,1,0,0:0:0:0:
388,227,173616,1,0,0:0:0:0:
388,198,173710,1,0,0:0:0:0:
388,169,173804,1,0,0:0:0:0:
388,141,173898,1,8,0:3:0:0:
284,28,174085,1,0,0:0:0:0:
200,200,174273,6,0,L|200:272,1,57.3750010943413,2|0,0:0|0:0,0:0:0:0:
200,128,174460,1,2,0:0:0:0:
296,264,174648,1,0,0:0:0:0:
104,264,174835,1,8,0:3:0:0:
260,164,175023,1,2,0:0:0:0:
160,308,175210,1,2,0:0:0:0:
96,96,175398,1,8,0:3:0:0:
96,96,175773,6,0,L|156:96,1,57.3750010943413,2|0,0:0|0:0,0:0:0:0:
228,96,175960,1,2,0:0:0:0:
44,32,176148,1,0,0:0:0:0:
52,184,176335,1,8,0:3:0:0:
192,32,176523,1,0,0:0:0:0:
218,21,176616,1,0,0:0:0:0:
246,21,176710,1,0,0:0:0:0:
273,31,176804,1,0,0:0:0:0:
294,50,176898,1,8,0:3:0:0:
144,168,177085,1,0,0:0:0:0:
424,236,177273,6,0,L|424:176,1,57.3750010943413,2|0,0:0|0:0,0:0:0:0:
424,104,177460,1,2,0:0:0:0:
360,288,177648,1,0,0:0:0:0:
512,280,177835,1,8,0:3:0:0:
300,204,178023,1,0,0:0:0:0:
278,223,178116,1,0,0:0:0:0:
266,249,178210,1,0,0:0:0:0:
264,277,178304,1,0,0:0:0:0:
272,304,178398,1,8,0:3:0:0:
424,178,178585,1,0,0:0:0:0:
148,96,178773,6,0,L|124:160,1,57.3750010943413,2|0,0:0|0:0,0:0:0:0:
96,220,178960,1,2,0:0:0:0:
16,44,179148,1,0,0:0:0:0:
204,36,179335,1,8,0:3:0:0:
280,216,179523,1,0,0:0:0:0:
280,244,179616,1,0,0:0:0:0:
280,273,179710,1,0,0:0:0:0:
280,302,179804,1,0,0:0:0:0:
280,330,179898,1,8,0:3:0:0:
376,192,180085,1,0,0:0:0:0:
204,288,180273,6,0,P|161:256|150:228,1,58.4999973220826,0|0,1:0|0:0,0:0:0:0:
93,285,180460,2,0,P|85:233|97:205,1,58.4999973220826,0|0,1:0|0:0,0:0:0:0:
14,217,180648,2,0,P|45:174|72:163,1,58.4999973220826,0|0,1:0|0:0,0:0:0:0:
181,140,180835,2,0,P|149:182|121:193,1,58.4999973220826,8|0,1:3|0:0,0:0:0:0:
16,112,181023,2,0,P|68:104|96:116,1,58.4999973220826,2|0,1:2|0:0,0:0:0:0:
215,245,181210,2,0,P|163:253|135:241,1,58.4999973220826,0|0,1:0|0:0,0:0:0:0:
88,36,181398,2,0,P|130:67|141:95,1,58.4999973220826,8|0,1:3|0:0,0:0:0:0:
112,312,181585,2,0,P|86:265|88:235,1,58.4999973220826,0|0,1:0|0:0,0:0:0:0:
256,104,181773,5,8,0:0:0:0:
256,192,181866,12,0,187398,0:0:0:0:
