osu file format v14

[General]
AudioFilename: audio.mp3
AudioLeadIn: 0
PreviewTime: 105904
Countdown: 0
SampleSet: Normal
StackLeniency: 0.7
Mode: 0
LetterboxInBreaks: 0
WidescreenStoryboard: 1

[Editor]
Bookmarks: 137662,184534
DistanceSpacing: 0.8
BeatDivisor: 8
GridSize: 4
TimelineZoom: 3.099999

[Metadata]
Title:Freestyler (Cut Ver.)
TitleUnicode:Freestyler (Cut Ver.)
Artist:Bomfunk MC's
ArtistUnicode:Bomfunk MC's
Creator:Beomsan
Version:reMASTER
Source:
Tags:Hoto Cocoa Down Lude hongilkim95 breakbeat drum and bass dnb english hiphop stereo
BeatmapID:2959550
BeatmapSetID:1438301

[Difficulty]
HPDrainRate:5
CircleSize:3
OverallDifficulty:8.5
ApproachRate:8.5
SliderMultiplier:1.8
SliderTickRate:1

[Events]
//Background and Video events
0,0,"Background.png",0,0
//Break Periods
2,202762,204816
2,208621,210675
//Storyboard Layer 0 (Background)
//Storyboard Layer 1 (Fail)
//Storyboard Layer 2 (Pass)
//Storyboard Layer 3 (Foreground)
//Storyboard Layer 4 (Overlay)
//Storyboard Sound Samples

[TimingPoints]
59017,366.188587122368,4,1,0,50,1,0
69270,-100,4,1,1,50,0,0
70186,-100,4,1,0,50,0,0
79523,-200,4,1,0,50,0,0
79889,-55.5555555555556,4,1,0,75,0,0
80256,-200,4,1,0,75,0,0
80439,-55.5555555555556,4,1,0,75,0,0
80805,-200,4,1,0,75,0,0
80988,-55.5555555555556,4,1,0,75,0,0
81354,-200,4,1,0,75,0,0
81537,-55.5555555555556,4,1,0,75,0,0
82086,-71.4285714285714,4,1,0,75,0,0
82453,-100,4,1,0,65,0,0
86847,-100,4,1,1,65,0,0
87946,-100,4,1,0,65,0,0
88312,-100,4,1,0,65,0,0
92706,-100,4,1,1,65,0,0
93988,-100,4,1,0,65,0,0
98565,-100,4,1,1,65,0,0
99032,-100,4,1,1,65,0,0
100030,-100,4,1,0,65,0,0
104424,-100,4,1,1,65,0,0
105523,-100,4,1,0,65,0,0
105889,-83.3333333333333,4,1,0,75,0,0
110283,-83.3333333333333,4,1,1,75,0,0
111748,-83.3333333333333,4,1,0,75,0,0
116142,-83.3333333333333,4,1,1,75,0,0
117057,-200,4,1,0,75,0,0
117607,-83.3333333333333,4,1,0,75,0,0
122001,-83.3333333333333,4,1,1,75,0,0
123100,-83.3333333333333,4,1,0,75,0,0
127860,-83.3333333333333,4,1,1,75,0,0
129325,-83.3333333333333,4,1,0,75,0,0
129691,-100,4,1,0,75,0,0
133719,-100,4,1,1,75,0,0
134818,-100,4,1,0,75,0,0
138113,-200,4,1,0,75,0,0
138479,-55.5555555555556,4,1,0,75,0,0
138846,-200,4,1,0,75,0,0
139028,-55.5555555555556,4,1,0,75,0,0
139395,-200,4,1,0,75,0,0
139578,-55.5555555555556,4,1,0,75,0,0
139945,-200,4,1,0,75,0,0
140127,-55.5555555555556,4,1,0,75,0,0
140494,-200,4,1,0,75,0,0
140676,-55.5555555555556,4,1,0,75,0,0
141043,-200,4,1,0,75,0,0
141225,-55.5555555555556,4,1,0,75,0,0
141592,-200,4,1,0,75,0,0
141775,-55.5555555555556,4,1,0,75,0,0
142142,-200,4,1,0,75,0,0
142324,-55.5555555555556,4,1,0,75,0,0
142691,-200,4,1,0,75,0,0
142873,-55.5555555555556,4,1,0,75,0,0
143240,-200,4,1,0,75,0,0
143423,-55.5555555555556,4,1,0,75,0,0
143606,-83.3333333333333,4,1,0,75,0,0
143972,-100,4,1,0,65,0,0
148367,-100,4,1,1,65,0,0
149465,-100,4,1,0,65,0,0
154226,-100,4,1,1,65,0,0
155325,-100,4,1,0,65,0,0
155691,-100,4,1,0,65,0,0
160085,-100,4,1,1,65,0,0
161184,-100,4,1,0,65,0,0
167408,-83.3333333333333,4,1,0,85,0,0
171803,-83.3333333333333,4,1,1,85,0,0
172902,-83.3333333333333,4,1,0,85,0,0
177662,-83.3333333333333,4,1,1,75,0,0
178577,-200,4,1,0,75,0,0
179126,-83.3333333333333,4,1,0,75,0,0
183521,-83.3333333333333,4,1,1,75,0,0
184620,-83.3333333333333,4,1,0,75,0,0
189380,-83.3333333333333,4,1,1,75,0,0
190296,-83.3333333333333,4,1,0,75,0,0
190845,-100,4,1,0,75,0,0
195239,-100,4,1,1,75,0,0
196338,-100,4,1,0,75,0,0
201098,-100,4,1,1,75,0,0
202014,-100,4,1,0,75,0,0
206957,-100,4,1,1,75,0,0
208056,-100,4,1,0,75,0,0
212816,-100,4,1,1,75,0,0
213732,-100,4,1,0,75,0,0
215013,-100,4,1,0,50,0,0
224534,-100,4,1,1,50,0,0
225816,-100,4,1,0,50,0,0
234787,-200,4,1,0,50,0,0
235153,-55.5555555555556,4,1,0,75,0,0

[Colours]
Combo1 : 242,182,0
Combo2 : 74,74,255
Combo3 : 40,255,255
Combo4 : 193,11,38

[HitObjects]
374,384,59016,5,2,0:0:0:0:
374,384,59749,5,0,0:0:0:0:
295,364,59932,1,0,0:0:0:0:
216,346,60115,1,0,0:0:0:0:
235,267,60298,1,0,0:0:0:0:
235,267,60390,1,0,0:0:0:0:
235,267,60481,1,0,0:0:0:0:
252,180,60664,1,0,0:0:0:0:
337,198,60847,37,0,0:0:0:0:
478,116,61213,1,0,0:0:0:0:
357,7,61579,1,0,0:0:0:0:
76,12,61945,21,6,0:0:0:0:
96,172,63410,5,0,0:0:0:0:
86,92,63593,1,0,0:0:0:0:
106,252,63776,1,2,0:3:0:0:
76,12,63959,1,0,0:0:0:0:
106,252,64143,1,2,0:3:0:0:
76,12,64326,1,0,0:0:0:0:
96,172,64509,38,0,L|284:148,1,180,6|6,0:0|0:0,0:0:0:0:
274,149,66340,21,0,0:0:0:0:
294,309,66706,1,0,0:0:0:0:
284,229,66889,1,0,0:0:0:0:
274,149,67072,1,0,0:0:0:0:
354,139,67255,1,0,0:0:0:0:
434,129,67438,1,0,0:0:0:0:
424,49,67621,1,0,0:0:0:0:
294,309,67804,5,6,0:0:0:0:
103,85,68171,1,0,0:0:0:0:
57,151,68354,1,0,0:0:0:0:
48,156,68445,1,0,0:0:0:0:
39,160,68537,1,0,0:0:0:0:
169,263,68720,1,0,0:0:0:0:
199,338,68903,1,0,0:0:0:0:
208,343,68994,1,0,0:0:0:0:
217,347,69086,1,0,0:0:0:0:
47,365,69269,5,4,2:1:0:0:
61,349,69361,1,4,2:1:0:0:
64,328,69452,1,4,2:1:0:0:
22,255,69635,1,4,2:1:0:0:
57,151,69818,1,4,2:1:0:0:
71,167,69910,1,4,2:1:0:0:
74,188,70001,1,4,2:1:0:0:
163,298,70185,6,0,L|176:256,4,22.5,4|0|0|0|0,1:2|1:0|1:0|1:0|1:0,1:0:0:0:
362,191,70551,2,0,L|292:169,1,45,4|0,0:2|0:0,0:0:0:0:
446,210,70734,1,6,0:0:0:0:
249,358,71466,5,0,0:0:0:0:
231,278,71833,1,0,0:0:0:0:
277,211,72016,1,0,0:0:0:0:
284,209,72107,1,0,0:0:0:0:
291,207,72199,1,0,0:0:0:0:
291,126,72382,1,0,0:0:0:0:
237,65,72565,1,0,0:0:0:0:
293,6,72931,2,0,L|259:186,1,180
294,0,73663,5,6,0:0:0:0:
241,266,75128,5,0,0:0:0:0:
315,235,75311,1,0,0:0:0:0:
167,297,75494,1,0,0:3:0:0:
389,204,75677,1,0,0:0:0:0:
167,297,75861,1,2,0:3:0:0:
389,204,76044,1,0,0:0:0:0:
241,266,76227,6,0,L|274:89,1,180,6|6,0:0|0:0,0:0:0:0:
39,90,76960,6,0,L|73:81,7,22.5
39,90,77325,1,0,0:0:0:0:
70,164,77508,1,0,0:0:0:0:
41,240,77692,1,0,0:0:0:0:
123,24,78058,5,0,0:0:0:0:
172,88,78241,1,0,0:0:0:0:
252,80,78424,1,0,0:0:0:0:
70,164,78790,2,0,P|160:203|160:292,1,180
96,330,79339,1,0,0:0:0:0:
18,288,79523,6,0,L|32:238,1,45,2|4,0:3|0:3,0:0:0:0:
227,341,79889,6,0,L|58:63,1,323.999990112305,6|0,0:0|0:0,0:0:0:0:
255,18,80439,38,0,L|228:340,1,323.999990112305,6|0,0:0|0:0,0:0:0:0:
43,265,80988,6,0,L|254:19,1,323.999990112305,6|0,0:0|0:0,0:0:0:0:
358,191,81537,38,0,L|42:265,1,323.999990112305,6|0,0:0|0:0,0:0:0:0:
58,64,82086,6,0,L|177:114,1,125.999996154785,6|0,0:0|0:0,0:0:0:0:
459,61,82453,5,6,0:0:0:0:
440,148,82636,1,0,0:0:0:0:
352,166,82819,1,8,0:0:0:0:
316,248,83002,1,0,0:0:0:0:
327,260,83094,1,0,0:0:0:0:
337,272,83185,1,0,0:0:0:0:
410,316,83368,1,0,0:0:0:0:
489,282,83551,2,0,L|511:181,1,90,8|0,0:0|0:0,0:0:0:0:
410,316,83917,5,0,0:0:0:0:
489,282,84100,2,0,L|511:181,1,90,0|8,0:0|0:0,0:0:0:0:
452,125,84467,1,0,0:0:0:0:
374,160,84650,1,0,0:0:0:0:
288,151,84833,1,0,0:0:0:0:
208,181,85016,1,8,0:0:0:0:
126,154,85199,1,0,0:0:0:0:
208,181,85382,5,0,0:0:0:0:
126,154,85565,2,0,L|109:59,1,90,0|8,0:0|0:0,0:0:0:0:
62,358,85931,1,0,0:0:0:0:
12,288,86114,1,0,0:0:0:0:
82,238,86298,1,0,0:0:0:0:
132,308,86481,1,8,0:0:0:0:
217,299,86664,1,0,0:0:0:0:
251,220,86847,5,4,2:1:0:0:
281,206,86938,1,4,2:1:0:0:
315,200,87030,1,4,2:1:0:0:
348,202,87121,1,4,2:1:0:0:
380,213,87213,1,4,2:1:0:0:
407,233,87304,1,4,2:1:0:0:
424,262,87396,1,4,2:1:0:0:
428,295,87487,1,4,2:1:0:0:
416,327,87579,1,4,2:1:0:0:
340,288,87762,37,4,2:1:0:0:
352,203,87945,2,0,P|392:219|420:266,1,90,4|0,0:2|0:0,0:0:0:0:
248,378,88312,21,6,0:0:0:0:
217,299,88495,1,0,0:0:0:0:
132,308,88678,1,8,0:0:0:0:
28,147,88861,1,0,0:0:0:0:
184,29,89226,1,0,0:0:0:0:
258,71,89410,2,0,P|248:110|241:168,1,90,8|0,0:0|0:0,0:0:0:0:
132,308,89776,6,0,P|126:263|115:219,1,90
157,145,90143,1,8,0:0:0:0:
241,159,90326,1,0,0:0:0:0:
256,167,90418,1,0,0:0:0:0:
272,171,90509,1,0,0:0:0:0:
115,219,90692,1,0,0:0:0:0:
34,190,90875,2,0,P|28:145|17:101,1,90,8|0,0:0|0:0,0:0:0:0:
140,40,91241,6,0,L|112:236,1,180,0|8,0:0|0:0,0:0:0:0:
176,276,91790,1,0,0:0:0:0:
258,252,91974,1,0,0:0:0:0:
278,168,92157,1,0,0:0:0:0:
360,143,92340,1,8,0:0:0:0:
422,201,92523,1,0,0:0:0:0:
402,284,92706,5,4,2:1:0:0:
418,292,92798,1,4,2:1:0:0:
432,303,92889,1,4,2:1:0:0:
502,167,93072,1,4,2:1:0:0:
373,42,93255,1,4,2:1:0:0:
359,53,93346,1,4,2:1:0:0:
343,61,93438,1,4,2:1:0:0:
219,212,93621,38,0,L|213:178,4,22.5,4|0|0|0|4,0:0|0:0|0:0|0:0|0:2,0:0:0:0:
502,167,93988,22,0,P|416:190|357:257,1,180,6|0,0:0|0:0,0:0:0:0:
341,341,94537,1,8,0:0:0:0:
275,286,94720,1,0,0:0:0:0:
258,290,94811,1,0,0:0:0:0:
247,304,94903,1,0,0:0:0:0:
178,354,95086,1,0,0:0:0:0:
96,326,95269,1,8,0:0:0:0:
163,192,95452,6,0,P|77:215|18:282,1,180
21,367,96002,1,8,0:0:0:0:
96,326,96185,1,0,0:0:0:0:
107,312,96276,1,0,0:0:0:0:
123,301,96368,1,0,0:0:0:0:
205,280,96551,1,0,0:0:0:0:
277,325,96734,2,0,P|316:346|360:351,1,90,8|0,0:0|0:0,0:0:0:0:
448,328,97100,6,0,L|347:354,1,90
470,242,97467,1,8,0:0:0:0:
402,189,97650,1,0,0:0:0:0:
501,82,97833,1,0,0:0:0:0:
433,29,98016,1,0,0:0:0:0:
444,22,98108,1,0,0:0:0:0:
454,14,98199,1,8,0:0:0:0:
512,166,98382,1,0,0:0:0:0:
269,251,98565,5,4,2:1:0:0:
251,222,98656,1,4,2:1:0:0:
248,189,98748,1,4,2:1:0:0:
260,158,98839,1,4,2:1:0:0:
285,135,98931,1,4,2:1:0:0:
317,126,99022,1,4,2:1:0:0:
350,133,99114,1,4,2:1:0:0:
376,153,99205,1,4,2:1:0:0:
390,183,99297,1,4,2:1:0:0:
454,239,99481,1,4,2:1:0:0:
510,175,99664,1,4,0:2:0:0:
446,119,99847,1,0,0:0:0:0:
296,293,100030,5,6,0:0:0:0:
360,349,100213,1,0,0:0:0:0:
416,285,100396,1,8,0:0:0:0:
352,229,100579,2,0,L|338:170,2,45
296,293,100944,1,0,0:0:0:0:
212,271,101128,1,8,0:0:0:0:
138,315,101311,2,0,L|110:197,1,90
296,293,101678,5,0,0:0:0:0:
212,271,101862,1,8,0:0:0:0:
138,315,102044,1,0,0:0:0:0:
53,304,102227,2,0,L|9:119,1,180,0|8,0:0|0:0,0:0:0:0:
56,310,102776,1,0,0:0:0:0:
11,128,103142,5,0,2:0:0:0:
95,142,103325,1,0,2:0:0:0:
179,156,103508,1,0,2:0:0:0:
151,324,103691,1,8,2:3:0:0:
319,352,103874,1,4,2:3:0:0:
347,184,104240,1,4,2:3:0:0:
401,249,104423,5,4,2:1:0:0:
414,252,104515,1,4,2:1:0:0:
427,257,104606,1,4,2:1:0:0:
264,187,104789,1,4,2:1:0:0:
318,350,104973,1,4,2:1:0:0:
306,358,105064,1,4,2:1:0:0:
295,365,105156,1,4,2:1:0:0:
417,354,105339,1,4,2:1:0:0:
504,141,105522,2,0,L|399:113,1,90,4|0,0:2|0:0,0:0:0:0:
67,295,105889,6,0,B|249:309|174:158|347:174,1,323.999990112305,4|0,0:2|0:0,0:0:0:0:
417,117,106621,5,0,0:0:0:0:
457,285,106988,1,8,0:0:0:0:
378,320,107171,1,0,0:0:0:0:
307,269,107354,1,0,0:0:0:0:
315,182,107537,1,0,0:0:0:0:
244,132,107720,1,8,0:0:0:0:
165,168,107903,2,0,P|69:144|45:40,1,215.999993408203
126,13,108452,1,8,0:0:0:0:
202,52,108635,1,0,0:0:0:0:
237,218,108818,5,2,0:0:0:0:
334,79,109184,1,8,0:0:0:0:
290,288,109551,1,0,0:0:0:0:
387,149,109734,1,0,0:0:0:0:
343,358,109917,1,8,0:0:0:0:
440,219,110100,1,0,0:0:0:0:
289,289,110283,5,4,2:1:0:0:
247,299,110374,1,4,2:1:0:0:
207,286,110466,1,4,2:1:0:0:
179,254,110558,1,4,2:1:0:0:
174,211,110649,1,4,2:1:0:0:
191,172,110741,1,4,2:1:0:0:
209,133,110832,1,4,2:1:0:0:
203,91,110924,1,4,2:1:0:0:
175,58,111015,1,4,2:1:0:0:
88,54,111198,1,4,2:1:0:0:
46,129,111381,1,6,0:0:0:0:
294,380,111748,6,0,B|286:291|191:265|191:265|112:211|136:111,1,323.999990112305,6|0,0:0|0:0,0:0:0:0:
177,54,112480,5,0,0:0:0:0:
347,82,112846,1,8,0:0:0:0:
263,102,113030,1,0,0:0:0:0:
238,185,113213,1,0,0:0:0:0:
153,205,113396,1,0,0:0:0:0:
128,288,113579,1,8,0:0:0:0:
43,308,113762,2,0,P|155:315|254:360,1,215.999993408203
331,383,114310,1,8,0:0:0:0:
397,327,114493,1,0,0:0:0:0:
300,188,114677,5,4,0:2:0:0:
203,49,115043,1,8,0:0:0:0:
247,258,115410,1,0,0:0:0:0:
150,119,115593,2,0,L|128:78,2,26.9999991760254
194,328,115776,1,8,0:0:0:0:
97,189,115959,1,0,0:0:0:0:
247,258,116141,5,4,0:0:0:0:
265,273,116233,1,4,0:0:0:0:
276,294,116324,1,4,0:0:0:0:
438,331,116508,1,4,0:0:0:0:
486,174,116691,1,4,0:0:0:0:
468,159,116783,1,4,0:0:0:0:
457,138,116874,1,4,0:0:0:0:
382,4,117057,38,0,L|377:23,4,11.25,6|0|0|0|0,0:0|0:0|0:0|0:0|0:0,0:0:0:0:
356,98,117424,1,6,0:0:0:0:
480,191,117607,22,0,B|316:210|352:60|192:79,1,323.999990112305,6|0,0:0|0:0,0:0:0:0:
116,37,118339,5,0,0:0:0:0:
191,192,118705,1,8,0:0:0:0:
267,232,118888,1,0,0:0:0:0:
270,318,119071,1,0,0:0:0:0:
346,358,119255,1,0,0:0:0:0:
418,312,119438,1,8,0:0:0:0:
494,351,119621,2,0,P|427:275|454:149,1,215.999993408203
502,107,120169,1,8,0:0:0:0:
465,28,120352,1,0,0:0:0:0:
351,144,120536,5,2,0:0:0:0:
510,218,120903,1,8,0:0:0:0:
287,201,121269,1,0,0:0:0:0:
446,275,121452,1,0,0:0:0:0:
223,258,121635,1,8,0:0:0:0:
382,332,121818,1,0,0:0:0:0:
159,315,122001,5,4,2:1:0:0:
172,274,122092,1,4,2:1:0:0:
162,232,122184,1,4,2:1:0:0:
133,201,122275,1,4,2:1:0:0:
92,190,122367,1,4,2:1:0:0:
51,201,122458,1,4,2:1:0:0:
80,229,122551,1,4,2:1:0:0:
121,242,122643,1,4,2:1:0:0:
162,232,122734,1,4,2:1:0:0:
206,158,122917,1,4,2:1:0:0:
172,78,123100,1,6,0:0:0:0:
333,0,123466,6,0,B|312:82|391:136|391:136|487:165|498:252,1,323.999990112305,6|0,0:0|0:0,0:0:0:0:
451,324,124198,5,0,0:0:0:0:
279,350,124565,1,8,0:0:0:0:
294,265,124748,1,0,0:0:0:0:
375,236,124931,1,0,0:0:0:0:
391,151,125114,1,0,0:0:0:0:
472,122,125297,1,8,0:0:0:0:
488,37,125480,2,0,P|489:132|515:250,1,215.999993408203
441,294,126028,1,8,0:0:0:0:
375,236,126212,1,0,0:0:0:0:
172,192,126395,5,2,0:0:0:0:
13,266,126761,1,8,0:0:0:0:
236,249,127128,1,0,0:0:0:0:
77,323,127311,2,0,L|46:335,2,26.9999991760254
300,306,127494,1,0,0:0:0:0:
141,380,127677,1,0,0:0:0:0:
236,249,127860,5,4,2:1:0:0:
253,237,127951,1,4,2:1:0:0:
264,219,128043,1,4,2:1:0:0:
220,343,128227,1,4,2:1:0:0:
142,379,128410,1,4,2:1:0:0:
120,384,128501,1,4,2:1:0:0:
97,383,128593,1,4,2:1:0:0:
308,311,128776,1,6,0:0:0:0:
156,286,128959,1,0,0:2:0:0:
370,380,129142,1,6,0:0:0:0:
512,160,129325,5,6,0:0:0:0:
512,160,129690,1,2,0:3:0:0:
424,139,129873,1,0,0:0:0:0:
354,196,130056,1,0,0:0:0:0:
266,175,130239,1,2,0:3:0:0:
196,232,130606,1,0,0:0:0:0:
512,160,130790,5,2,0:3:0:0:
424,139,130973,1,0,0:0:0:0:
354,196,131156,1,0,0:0:0:0:
126,175,131339,1,2,0:3:0:0:
284,253,131522,1,0,0:0:0:0:
56,232,131888,1,2,0:3:0:0:
303,13,132255,5,2,0:0:0:0:
303,13,132621,1,2,0:3:0:0:
266,95,132804,1,0,0:0:0:0:
306,175,132987,1,0,0:0:0:0:
269,257,133170,1,2,0:3:0:0:
276,263,133262,1,0,0:0:0:0:
284,268,133353,1,0,0:0:0:0:
259,354,133536,1,2,0:3:0:0:
142,210,133718,5,4,2:1:0:0:
175,207,133811,1,4,2:1:0:0:
209,203,133902,1,4,2:1:0:0:
242,196,133994,1,4,2:1:0:0:
274,187,134085,1,4,2:1:0:0:
306,175,134177,1,4,2:1:0:0:
338,163,134268,1,4,2:1:0:0:
370,154,134360,1,4,2:1:0:0:
403,147,134451,1,4,2:1:0:0:
492,158,134635,1,4,2:1:0:0:
142,210,134818,1,2,0:0:0:0:
497,163,135183,5,6,0:0:0:0:
497,163,135549,1,2,0:3:0:0:
409,184,135732,1,0,0:0:0:0:
339,127,135915,1,0,0:3:0:0:
251,148,136098,1,2,0:3:0:0:
181,91,136465,1,0,0:0:0:0:
497,163,136648,5,2,0:3:0:0:
409,184,136831,1,0,0:0:0:0:
339,127,137014,1,0,0:0:0:0:
111,148,137197,1,2,0:3:0:0:
269,70,137380,1,0,0:0:0:0:
41,91,137746,1,2,0:3:0:0:
245,340,138113,6,0,P|236:362|218:382,1,45,2|4,0:3|0:3,0:0:0:0:
245,340,138479,6,0,L|413:62,1,323.999990112305,6|0,0:0|0:0,0:0:0:0:
218,17,139029,38,0,L|244:339,1,323.999990112305,6|0,0:0|0:0,0:0:0:0:
429,262,139578,6,0,L|217:16,1,323.999990112305,6|0,0:0|0:0,0:0:0:0:
113,187,140127,38,0,L|428:261,1,323.999990112305,6|0,0:0|0:0,0:0:0:0:
411,61,140677,6,0,L|112:186,1,323.999990112305,6|0,0:0|0:0,0:0:0:0:
428,261,141226,38,0,L|216:15,1,323.999990112305,6|0,0:0|0:0,0:0:0:0:
242,338,141775,6,0,L|410:60,1,323.999990112305,6|0,0:0|0:0,0:0:0:0:
112,186,142324,38,0,L|427:260,1,323.999990112305,6|0,0:0|0:0,0:0:0:0:
215,15,142873,6,0,L|241:337,1,323.999990112305,6|0,0:0|0:0,0:0:0:0:
410,61,143423,37,6,0:0:0:0:
46,65,143606,22,0,L|53:93,1,26.9999991760254,0|0,3:0|3:0,3:0:0:0:
46,65,143698,6,0,L|22:81,1,26.9999991760254,0|0,3:0|3:0,3:0:0:0:
46,65,143789,6,0,L|24:47,1,26.9999991760254,0|0,3:0|3:0,3:0:0:0:
46,65,143881,6,0,L|57:39,1,26.9999991760254,0|0,3:0|3:0,3:0:0:0:
46,65,143972,6,0,P|102:75|113:196,1,180,6|8,0:0|0:0,0:0:0:0:
58,238,144522,1,0,0:0:0:0:
58,238,144613,1,0,0:0:0:0:
58,238,144705,1,0,0:0:0:0:
137,280,144888,1,0,0:0:0:0:
224,257,145071,2,0,L|241:153,1,90,8|0,0:0|0:0,0:0:0:0:
91,106,145436,6,0,P|116:171|137:293,1,180,0|8,0:0|0:0,0:0:0:0:
198,345,145986,1,0,0:0:0:0:
285,324,146169,1,0,0:0:0:0:
356,380,146352,2,0,P|412:370|423:249,1,180
501,125,146902,6,0,P|480:83|469:37,1,90
380,30,147268,1,8,0:0:0:0:
325,101,147451,1,0,0:0:0:0:
316,115,147543,1,0,0:0:0:0:
307,129,147634,2,0,P|263:119|112:91,1,180,0|8,0:0|0:0,0:0:0:0:
25,326,148367,5,4,0:0:0:0:
50,347,148458,1,4,0:0:0:0:
83,355,148550,1,4,0:0:0:0:
115,347,148641,1,4,0:0:0:0:
140,325,148733,1,4,0:0:0:0:
153,295,148824,1,4,0:0:0:0:
151,261,148916,1,4,0:0:0:0:
133,233,149007,1,4,0:0:0:0:
105,215,149099,1,4,0:0:0:0:
108,125,149282,37,4,0:0:0:0:
194,99,149465,1,4,0:2:0:0:
240,21,149649,1,0,0:0:0:0:
240,21,149740,1,0,0:0:0:0:
240,21,149831,22,0,L|349:35,1,90,6|0,0:0|0:0,0:0:0:0:
418,43,150197,1,8,0:0:0:0:
329,32,150564,1,0,0:0:0:0:
418,43,150747,2,0,L|527:57,2,90,0|8|0,0:0|0:0|0:0,0:0:0:0:
363,114,151295,6,0,B|354:156|354:156|377:196,1,90
467,209,151662,1,8,0:0:0:0:
303,320,151845,2,0,P|301:235|377:196,1,180
467,209,152395,2,0,B|458:251|458:251|481:291,1,90,8|0,0:0|0:0,0:0:0:0:
465,382,152760,5,0,0:0:0:0:
396,323,152943,1,0,0:0:0:0:
307,319,153126,1,8,0:0:0:0:
440,214,153493,1,0,0:0:0:0:
423,303,153676,1,0,0:0:0:0:
465,382,153859,1,8,0:0:0:0:
307,319,154042,1,0,0:0:0:0:
440,214,154225,5,4,0:0:0:0:
456,218,154316,1,4,0:0:0:0:
472,220,154408,1,4,0:0:0:0:
372,384,154591,1,4,0:0:0:0:
357,176,154774,1,4,0:0:0:0:
345,164,154865,1,4,0:0:0:0:
335,151,154957,1,4,0:0:0:0:
221,280,155141,38,0,L|228:318,4,22.5,4|0|0|0|4,0:0|0:0|0:0|0:0|0:2,0:0:0:0:
189,96,155507,1,0,0:0:0:0:
12,127,155690,21,6,0:0:0:0:
27,215,155873,1,0,0:0:0:0:
115,200,156056,1,8,0:0:0:0:
100,112,156239,1,0,0:0:0:0:
12,127,156422,1,0,0:0:0:0:
42,303,156605,1,0,0:0:0:0:
245,91,157154,5,0,0:0:0:0:
260,179,157337,1,0,0:0:0:0:
348,164,157520,1,8,0:0:0:0:
436,149,157887,1,0,0:0:0:0:
451,237,158070,1,0,0:0:0:0:
421,61,158253,1,8,0:0:0:0:
436,149,158436,1,0,0:0:0:0:
451,237,158619,6,0,P|430:276|418:320,1,90
332,344,158985,2,0,P|292:323|248:311,1,90,8|0,0:0|0:0,0:0:0:0:
162,340,159352,1,0,0:0:0:0:
248,311,159535,2,0,P|211:240|206:132,1,180
308,4,160084,5,4,0:0:0:0:
330,29,160175,1,4,0:0:0:0:
341,60,160267,1,4,0:0:0:0:
339,94,160358,1,4,0:0:0:0:
325,124,160450,1,4,0:0:0:0:
300,146,160541,1,4,0:0:0:0:
268,158,160633,1,4,0:0:0:0:
235,156,160724,1,4,0:0:0:0:
204,141,160816,1,4,0:0:0:0:
255,72,160999,37,4,0:0:0:0:
341,60,161183,1,8,0:0:0:0:
407,113,161366,1,0,0:0:0:0:
485,82,161549,21,6,0:0:0:0:
419,29,161732,1,0,0:0:0:0:
341,60,161915,1,8,0:0:0:0:
256,240,162281,5,0,0:0:0:0:
256,328,162464,1,0,0:0:0:0:
27,82,163013,37,0,0:0:0:0:
93,29,163196,1,0,0:0:0:0:
171,60,163379,1,8,0:0:0:0:
183,143,163563,2,0,P|127:172|108:285,1,180
71,359,164112,2,0,P|79:315|105:278,1,90,8|0,0:0|0:0,0:0:0:0:
197,239,164478,5,2,0:3:0:0:
261,294,164661,1,4,0:3:0:0:
489,361,164844,5,6,0:0:0:0:
380,384,165027,1,0,0:0:0:0:
356,276,165210,1,4,0:3:0:0:
465,253,165393,5,6,0:0:0:0:
416,352,165577,1,0,0:0:0:0:
316,300,165760,1,4,0:3:0:0:
364,200,165943,37,6,0:0:0:0:
482,218,166126,1,0,0:0:0:0:
390,278,166310,1,4,0:3:0:0:
328,183,166493,5,6,0:0:0:0:
421,120,166676,1,0,0:0:0:0:
371,20,166858,1,4,0:3:0:0:
390,278,167042,37,6,0:0:0:0:
41,364,167408,22,0,P|113:305|221:79,1,323.999990112305,6|0,0:0|0:0,0:0:0:0:
211,16,168140,5,0,0:0:0:0:
27,73,168506,1,8,0:0:0:0:
65,150,168689,1,0,0:0:0:0:
151,156,168872,1,0,0:0:0:0:
189,234,169056,1,0,0:0:0:0:
140,306,169239,1,8,0:0:0:0:
200,368,169422,2,0,P|295:354|316:242,1,215.999993408203
404,236,169971,1,8,0:0:0:0:
456,308,170154,1,0,0:0:0:0:
319,249,170338,5,2,0:0:0:0:
473,177,170704,1,8,0:0:0:0:
309,160,171070,1,0,0:0:0:0:
461,89,171253,1,0,0:0:0:0:
297,74,171436,1,8,0:0:0:0:
450,3,171619,1,0,0:0:0:0:
309,160,171804,5,4,0:0:0:0:
266,155,171895,1,4,0:0:0:0:
230,131,171987,1,4,0:0:0:0:
211,93,172077,1,4,0:0:0:0:
212,50,172169,1,4,0:0:0:0:
234,13,172260,1,4,0:0:0:0:
196,34,172352,1,4,0:0:0:0:
152,35,172444,1,4,0:0:0:0:
110,24,172535,1,4,0:0:0:0:
105,109,172718,1,4,0:0:0:0:
33,158,172901,1,6,0:0:0:0:
471,364,173267,6,0,P|399:305|291:79,1,323.999990112305,6|0,0:0|0:0,0:0:0:0:
301,16,173999,5,0,0:0:0:0:
485,73,174365,1,8,0:0:0:0:
447,150,174548,1,0,0:0:0:0:
361,156,174731,1,0,0:0:0:0:
323,234,174915,1,0,0:0:0:0:
372,306,175098,1,8,0:0:0:0:
335,384,175281,2,0,L|114:349,1,215.999993408203
79,274,175830,1,8,0:0:0:0:
34,347,176013,1,0,0:0:0:0:
21,178,176196,5,6,0:0:0:0:
121,350,176562,1,8,0:0:0:0:
86,121,176929,1,0,0:0:0:0:
169,264,177112,2,0,L|184:288,2,26.9999991760254
151,64,177295,1,8,0:0:0:0:
234,207,177478,1,0,0:0:0:0:
86,121,177661,5,4,0:0:0:0:
68,109,177753,1,4,0:0:0:0:
64,88,177844,1,4,0:0:0:0:
216,7,178027,1,4,0:0:0:0:
170,173,178210,1,4,0:0:0:0:
174,194,178301,1,4,0:0:0:0:
192,206,178393,1,4,0:0:0:0:
335,257,178577,38,0,L|330:276,4,11.25,6|0|0|0|0,0:0|0:0|0:0|0:0|0:0,0:0:0:0:
309,352,178942,1,6,0:0:0:0:
225,149,179126,22,0,P|268:282|433:366,1,323.999990112305,6|0,0:0|0:0,0:0:0:0:
495,317,179858,5,0,0:0:0:0:
352,219,180224,1,8,0:0:0:0:
329,135,180407,1,0,0:0:0:0:
390,73,180591,1,0,0:0:0:0:
474,95,180774,1,0,0:0:0:0:
412,156,180957,1,8,0:0:0:0:
329,135,181140,2,0,P|233:159|209:263,1,215.999993408203
283,306,181689,1,8,0:0:0:0:
356,261,181872,1,0,0:0:0:0:
464,136,182055,5,2,0:0:0:0:
434,302,182421,1,8,0:0:0:0:
386,94,182787,1,0,0:0:0:0:
356,261,182970,1,0,0:0:0:0:
308,53,183153,1,8,0:0:0:0:
278,220,183338,1,0,0:0:0:0:
386,94,183521,5,4,0:0:0:0:
421,68,183612,1,4,0:0:0:0:
464,75,183704,1,4,0:0:0:0:
488,111,183795,1,4,0:0:0:0:
479,153,183887,1,4,0:0:0:0:
442,176,183978,1,4,0:0:0:0:
435,218,184070,1,4,0:0:0:0:
459,253,184161,1,4,0:0:0:0:
503,261,184253,1,4,0:0:0:0:
472,341,184436,1,4,0:0:0:0:
391,308,184619,1,6,0:0:0:0:
289,76,184985,6,0,P|246:209|81:293,1,323.999990112305,6|0,0:0|0:0,0:0:0:0:
19,244,185717,5,0,0:0:0:0:
162,146,186083,1,8,0:0:0:0:
185,62,186266,1,0,0:0:0:0:
124,0,186450,1,0,0:0:0:0:
40,22,186633,1,0,0:0:0:0:
102,83,186816,1,8,0:0:0:0:
185,61,186999,2,0,P|286:94|281:197,1,215.999993408203
241,263,187548,1,8,0:0:0:0:
289,334,187731,1,0,0:0:0:0:
456,146,187914,5,2,0:0:0:0:
384,3,188280,1,8,0:0:0:0:
390,203,188647,1,0,0:0:0:0:
318,60,188830,2,0,L|306:33,2,26.9999991760254
324,260,189013,1,0,0:0:0:0:
252,117,189196,1,0,0:0:0:0:
390,203,189379,5,4,2:1:0:0:
373,191,189470,1,4,2:1:0:0:
362,173,189562,1,4,2:1:0:0:
407,288,189746,1,4,2:1:0:0:
466,354,189929,1,4,2:1:0:0:
488,359,190020,1,4,2:1:0:0:
511,358,190112,1,4,2:1:0:0:
339,351,190295,1,6,0:0:0:0:
493,266,190478,1,0,0:2:0:0:
252,204,190661,1,6,0:0:0:0:
56,359,190844,5,6,0:0:0:0:
56,359,191210,1,2,0:3:0:0:
88,274,191393,1,0,0:0:0:0:
175,250,191576,1,0,0:0:0:0:
208,165,191759,1,2,0:3:0:0:
295,141,192126,1,0,0:0:0:0:
56,359,192309,5,2,0:3:0:0:
88,274,192492,1,0,0:0:0:0:
175,250,192675,1,0,0:0:0:0:
288,51,192858,1,2,0:3:0:0:
262,225,193041,1,0,0:0:0:0:
376,26,193407,1,2,0:3:0:0:
256,328,193773,5,2,0:1:0:0:
256,328,194139,1,2,0:3:0:0:
241,242,194323,1,0,0:0:0:0:
271,161,194506,1,0,0:0:0:0:
243,79,194689,1,2,0:3:0:0:
242,70,194780,1,0,0:0:0:0:
239,61,194872,1,0,0:0:0:0:
271,161,195055,1,2,0:3:0:0:
248,376,195238,5,4,2:1:0:0:
256,343,195329,1,4,2:1:0:0:
264,310,195421,1,4,2:1:0:0:
269,277,195512,1,4,2:1:0:0:
271,244,195604,1,4,2:1:0:0:
271,209,195695,1,4,2:1:0:0:
270,175,195788,1,4,2:1:0:0:
273,142,195880,1,4,2:1:0:0:
278,109,195971,1,4,2:1:0:0:
318,29,196154,1,4,2:1:0:0:
248,376,196337,1,6,0:0:0:0:
456,359,196703,5,6,0:0:0:0:
456,359,197069,1,2,0:3:0:0:
424,274,197252,1,0,0:0:0:0:
337,250,197435,1,0,0:0:0:0:
304,165,197618,1,2,0:3:0:0:
217,141,197985,1,0,0:0:0:0:
456,359,198168,5,2,0:3:0:0:
424,274,198351,1,0,0:0:0:0:
337,250,198534,1,0,0:0:0:0:
224,51,198717,1,2,0:3:0:0:
250,225,198900,1,0,0:0:0:0:
136,26,199266,1,2,0:3:0:0:
256,328,199632,5,2,0:0:0:0:
256,328,199998,1,2,0:3:0:0:
271,242,200182,1,0,0:0:0:0:
241,161,200365,1,0,0:0:0:0:
269,79,200548,1,4,3:0:0:0:
249,0,200914,1,8,3:0:0:0:
274,86,201097,5,4,0:0:0:0:
286,94,201189,1,4,0:0:0:0:
300,99,201280,1,4,0:0:0:0:
238,170,201463,1,4,0:0:0:0:
254,259,201646,1,4,0:0:0:0:
242,267,201738,1,4,0:0:0:0:
228,272,201829,1,4,0:0:0:0:
256,384,202013,37,6,0:0:0:0:
256,172,202196,1,4,0:2:0:0:
256,384,202379,1,2,0:0:0:0:
256,0,202562,1,6,0:0:0:0:
256,192,205491,5,6,0:0:0:0:
256,192,205583,12,2,206407,0:3:0:0:
256,300,206773,5,2,0:3:0:0:
209,228,206956,5,4,0:0:0:0:
197,194,207047,1,4,0:0:0:0:
201,159,207139,1,4,0:0:0:0:
223,131,207230,1,4,0:0:0:0:
256,120,207322,1,4,0:0:0:0:
289,131,207413,1,4,0:0:0:0:
310,160,207505,1,4,0:0:0:0:
313,195,207598,1,4,0:0:0:0:
300,229,207689,1,4,0:0:0:0:
256,300,207872,37,4,0:0:0:0:
256,16,208055,1,6,0:0:0:0:
256,384,208421,1,6,0:0:0:0:
256,192,211350,37,6,0:0:0:0:
256,192,211442,12,4,212266,0:3:0:0:
256,192,212632,5,4,0:3:0:0:
189,252,212815,6,4,P|162:265|131:269,2,45
256,104,213181,1,4,0:0:0:0:
323,252,213365,2,4,P|350:265|381:269,2,45
256,192,213731,37,6,0:0:0:0:
388,84,213914,1,0,0:0:0:0:
256,312,214097,1,6,0:0:0:0:
124,83,214280,1,6,0:0:0:0:
124,83,215012,21,0,0:0:0:0:
203,102,215195,1,0,0:0:0:0:
282,121,215378,1,0,0:0:0:0:
272,209,215562,1,0,0:0:0:0:
272,209,215653,1,0,0:0:0:0:
272,209,215745,1,0,0:0:0:0:
254,290,215928,1,0,0:0:0:0:
173,272,216111,5,0,0:0:0:0:
320,170,216477,1,0,0:0:0:0:
475,231,216843,1,0,0:0:0:0:
195,361,217209,5,6,0:0:0:0:
26,271,218674,5,0,0:0:0:0:
16,191,218857,1,0,0:0:0:0:
42,357,219040,1,2,0:3:0:0:
8,108,219223,1,0,0:0:0:0:
42,357,219407,1,2,0:3:0:0:
8,108,219590,1,0,0:0:0:0:
26,271,219773,38,0,L|214:247,1,180,6|6,0:0|0:0,0:0:0:0:
470,137,221604,21,0,0:0:0:0:
450,297,221970,1,0,0:0:0:0:
460,217,222153,1,0,0:0:0:0:
470,137,222336,1,0,0:0:0:0:
390,127,222519,1,0,0:0:0:0:
310,117,222702,1,0,0:0:0:0:
320,37,222885,1,0,0:0:0:0:
261,322,223068,5,6,0:0:0:0:
32,141,223435,1,0,0:0:0:0:
106,100,223618,1,0,0:0:0:0:
114,107,223709,1,0,0:0:0:0:
122,114,223801,1,0,0:0:0:0:
283,66,223984,1,0,0:0:0:0:
331,130,224167,1,0,0:0:0:0:
340,134,224259,1,0,0:0:0:0:
349,139,224350,1,0,0:0:0:0:
197,380,224533,5,4,2:1:0:0:
183,364,224625,1,4,2:1:0:0:
180,343,224716,1,4,2:1:0:0:
222,270,224899,1,4,2:1:0:0:
187,166,225082,1,4,2:1:0:0:
173,182,225174,1,4,2:1:0:0:
170,203,225265,1,4,2:1:0:0:
344,338,225449,6,0,L|357:296,4,22.5,4|0|0|0|0,1:2|1:0|1:0|1:0|1:0,1:0:0:0:
413,141,225815,2,0,L|426:197,1,45,6|0,0:0|0:0,0:0:0:0:
394,57,225998,1,6,0:0:0:0:
264,376,226730,5,0,0:0:0:0:
282,296,227097,1,0,0:0:0:0:
236,229,227280,1,0,0:0:0:0:
229,227,227371,1,0,0:0:0:0:
222,225,227463,1,0,0:0:0:0:
222,144,227646,1,0,0:0:0:0:
276,83,227829,1,0,0:0:0:0:
235,11,228195,2,0,L|269:191,1,180
234,5,228927,5,6,0:0:0:0:
279,272,230392,5,0,0:0:0:0:
205,241,230575,1,0,0:0:0:0:
353,303,230758,1,0,0:3:0:0:
131,210,230941,1,0,0:0:0:0:
353,303,231125,1,2,0:3:0:0:
131,210,231308,1,0,0:0:0:0:
279,272,231491,6,0,L|246:95,1,180,6|6,0:0|0:0,0:0:0:0:
481,96,232224,6,0,L|447:87,7,22.5
481,96,232589,1,0,0:0:0:0:
450,170,232772,1,0,0:0:0:0:
479,246,232956,1,0,0:0:0:0:
397,30,233322,5,0,0:0:0:0:
348,94,233505,1,0,0:0:0:0:
268,86,233688,1,0,0:0:0:0:
450,170,234054,2,0,P|360:209|360:298,1,180
424,336,234603,1,0,0:0:0:0:
502,294,234787,6,0,L|488:244,1,45,2|4,0:3|0:3,0:0:0:0:
293,347,235153,6,0,L|462:69,1,323.999990112305,6|0,0:0|0:0,0:0:0:0:
265,24,235702,38,0,L|292:346,1,323.999990112305,6|0,0:0|0:0,0:0:0:0:
477,271,236252,6,0,L|266:25,1,323.999990112305,6|0,0:0|0:0,0:0:0:0:
162,197,236801,38,0,L|478:271,1,323.999990112305,6|0,0:0|0:0,0:0:0:0:
460,71,237350,6,0,L|160:196,1,323.999990112305,6|6,0:0|0:0,0:0:0:0:
