osu file format v14

[General]
AudioFilename: audio.mp3
AudioLeadIn: 0
PreviewTime: 105904
Countdown: 0
SampleSet: Normal
StackLeniency: 0.7
Mode: 0
LetterboxInBreaks: 0
WidescreenStoryboard: 1

[Editor]
Bookmarks: 82468,105904,129340,143987,149114,167423,190859,214295
DistanceSpacing: 1.8
BeatDivisor: 4
GridSize: 4
TimelineZoom: 1.6

[Metadata]
Title:Freestyler (Cut Ver.)
TitleUnicode:Freestyler (Cut Ver.)
Artist:Bomfunk MC's
ArtistUnicode:Bomfunk MC's
Creator:Beomsan
Version:Down's Hard
Source:
Tags:Hoto Cocoa Down Lude hongilkim95 breakbeat drum and bass dnb english hiphop stereo
BeatmapID:3174613
BeatmapSetID:1438301

[Difficulty]
HPDrainRate:4
CircleSize:4
OverallDifficulty:6
ApproachRate:8
SliderMultiplier:1.6
SliderTickRate:1

[Events]
//Background and Video events
0,0,"Background.png",0,0
//Break Periods
//Storyboard Layer 0 (Background)
//Storyboard Layer 1 (Fail)
//Storyboard Layer 2 (Pass)
//Storyboard Layer 3 (Foreground)
//Storyboard Layer 4 (Overlay)
//Storyboard Sound Samples

[TimingPoints]
59017,366.188587122368,4,1,0,50,1,0
69270,-100,4,1,1,50,0,0
70185,-100,4,1,1,50,0,0
70186,-100,4,1,0,50,0,0
79889,-83.3333333333333,4,1,0,75,0,0
82453,-100,4,1,0,65,0,0
86847,-100,4,1,1,65,0,0
87946,-100,4,1,0,65,0,0
92706,-100,4,1,1,65,0,0
93988,-100,4,1,0,65,0,0
98565,-100,4,1,1,65,0,0
100030,-100,4,1,0,65,0,0
104424,-100,4,1,1,65,0,0
105523,-100,4,1,0,65,0,0
105889,-100,4,1,0,75,0,0
110283,-100,4,1,1,75,0,0
111748,-100,4,1,0,75,0,0
116142,-100,4,1,1,75,0,0
117057,-100,4,1,0,75,0,0
122001,-100,4,1,1,75,0,0
123100,-100,4,1,0,75,0,0
127860,-100,4,1,1,75,0,0
129325,-100,4,1,0,75,0,0
133719,-100,4,1,1,75,0,0
134818,-100,4,1,0,75,0,0
138479,-83.3333333333333,4,1,0,75,0,0
143972,-100,4,1,0,65,0,0
148367,-100,4,1,1,65,0,0
149465,-100,4,1,0,65,0,0
154226,-100,4,1,1,65,0,0
155325,-100,4,1,0,65,0,0
160085,-100,4,1,1,65,0,0
161184,-100,4,1,0,65,0,0
164845,-83.3333333333333,4,1,0,65,0,0
167408,-100,4,1,0,75,0,0
171803,-100,4,1,1,75,0,0
172902,-100,4,1,0,75,0,0
177662,-100,4,1,1,75,0,0
178577,-100,4,1,0,75,0,0
183521,-100,4,1,1,75,0,0
184620,-100,4,1,0,75,0,0
189380,-100,4,1,1,75,0,0
190296,-100,4,1,0,75,0,0
195239,-100,4,1,1,75,0,0
196338,-100,4,1,0,75,0,0
201098,-100,4,1,1,75,0,0
202014,-100,4,1,0,75,0,0
206957,-100,4,1,1,75,0,0
208056,-100,4,1,0,75,0,0
212816,-100,4,1,1,75,0,0
213732,-100,4,1,0,75,0,0
215013,-100,4,1,0,50,0,0
224534,-100,4,1,1,50,0,0
225816,-100,4,1,0,50,0,0
235153,-83.3333333333333,4,1,0,75,0,0
237717,-100,4,1,0,75,0,0

[Colours]
Combo1 : 242,182,0
Combo2 : 74,74,255
Combo3 : 40,255,255
Combo4 : 193,11,38

[HitObjects]
398,176,59016,5,2,0:0:0:0:
398,176,59749,2,0,P|367:182|309:194,1,80,0|0,0:0|0:0,0:0:0:0:
251,150,60115,2,0,P|254:121|260:62,1,80,0|0,0:0|0:0,0:0:0:0:
259,70,60390,1,0,0:0:0:0:
259,70,60481,5,0,0:0:0:0:
194,23,60664,1,0,0:0:0:0:
132,73,60847,2,0,P|102:55|48:28,1,80,0|0,0:0|0:0,0:0:0:0:
7,93,61214,2,0,P|62:161|71:256,1,160,0|0,0:0|0:0,0:0:0:0:
74,230,61946,5,6,0:0:0:0:
74,230,63411,5,0,0:0:0:0:
150,252,63594,1,0,0:0:0:0:
74,230,63777,2,0,P|35:245|-1:258,1,80,2|0,0:3|0:0,0:0:0:0:
106,156,64143,2,0,P|73:129|44:105,1,80,2|0,0:3|0:0,0:0:0:0:
187,154,64509,1,6,0:0:0:0:
187,154,64876,5,6,0:0:0:0:
187,154,66340,6,0,P|240:146|281:132,1,80,0|0,0:0|0:0,0:0:0:0:
314,75,66706,2,0,P|363:103|404:118,1,80,0|0,0:0|0:0,0:0:0:0:
455,72,67073,1,0,0:0:0:0:
489,144,67256,1,0,0:0:0:0:
420,184,67439,2,0,P|404:215|397:264,1,80,0|0,0:0|0:0,0:0:0:0:
470,358,67805,6,0,P|442:348|379:334,1,80,6|0,0:0|0:0,0:0:0:0:
325,293,68171,1,0,0:0:0:0:
266,347,68354,2,0,L|217:365,2,40,0|0|0,0:0|0:0|0:0,0:0:0:0:
225,277,68720,2,0,P|199:245|148:201,1,80,0|0,0:0|0:0,0:0:0:0:
170,218,68995,1,0,0:0:0:0:
170,218,69087,1,0,0:0:0:0:
203,146,69270,6,0,L|258:122,2,40,4|4|0,2:1|2:1|0:0,0:0:0:0:
130,111,69636,1,0,0:0:0:0:
174,49,69819,1,4,2:1:0:0:
174,49,69911,1,0,0:0:0:0:
174,49,70002,2,0,P|216:34|256:18,1,80,4|4,2:1|1:2,0:0:0:0:
97,16,70368,1,0,1:0:0:0:
97,16,70551,1,4,0:2:0:0:
33,65,70735,5,6,0:0:0:0:
33,65,71467,2,0,P|43:107|51:161,1,80,0|0,0:0|0:0,0:0:0:0:
111,193,71833,1,0,0:0:0:0:
168,137,72016,2,0,L|211:120,2,40,0|0|0,0:0|0:0|0:0,0:0:0:0:
212,203,72382,5,0,0:0:0:0:
180,276,72565,2,0,P|218:281|259:288,1,80,0|0,0:0|0:0,0:0:0:0:
288,363,72932,2,0,P|378:314|452:290,1,160,0|0,0:0|0:0,0:0:0:0:
432,295,73664,5,6,0:0:0:0:
432,295,75129,1,0,0:0:0:0:
443,215,75312,1,0,0:0:0:0:
432,295,75495,2,0,P|456:335|493:374,1,80,0|0,0:3|0:0,0:0:0:0:
357,263,75861,2,0,P|334:303|319:355,1,80,2|0,0:3|0:0,0:0:0:0:
351,187,76227,1,6,0:0:0:0:
351,187,76594,5,6,0:0:0:0:
237,73,76960,2,0,B|230:56|206:55|206:55|205:105|138:127,1,120,0|0,0:0|0:0,0:0:0:0:
143,123,77326,1,0,0:0:0:0:
72,85,77509,1,0,0:0:0:0:
30,153,77692,2,0,P|51:196|65:250,1,80,0|0,0:0|0:0,0:0:0:0:
85,302,78058,6,0,P|32:324|-3:342,1,80,0|0,0:0|0:0,0:0:0:0:
139,240,78424,2,0,P|179:253|241:272,1,80,0|0,0:0|0:0,0:0:0:0:
60,226,78791,2,0,B|66:193|66:193|22:139,1,80,0|0,0:0|0:0,0:0:0:0:
7,82,79157,1,0,0:0:0:0:
72,35,79340,1,0,0:0:0:0:
139,78,79523,6,0,P|181:67|226:53,1,80,2|4,0:3|0:3,0:0:0:0:
296,4,79889,6,0,P|268:64|260:203,1,191.999994140625,6|0,0:0|0:0,0:0:0:0:
180,246,80439,2,0,B|247:210|305:220|305:220|273:241|264:294,1,191.999994140625,6|0,0:0|0:0,0:0:0:0:
357,308,80988,2,0,B|357:260|302:191|302:191|334:180|350:140,1,191.999994140625,6|0,0:0|0:0,0:0:0:0:
271,89,81537,2,0,B|294:114|294:114|416:91|416:91|443:55,1,191.999994140625,6|0,0:0|0:0,0:0:0:0:
436,63,82086,1,6,0:0:0:0:
490,214,82453,6,0,P|484:246|471:321,1,80,6|0,0:0|0:0,0:0:0:0:
419,349,82819,1,8,0:0:0:0:
349,308,83002,2,0,P|333:313|297:333,2,40,0|0|0,0:0|0:0|0:0,0:0:0:0:
385,237,83368,1,0,0:0:0:0:
332,176,83551,2,0,P|296:171|229:156,1,80,8|0,0:0|0:0,0:0:0:0:
194,107,83917,6,0,P|163:123|104:148,1,80,0|0,0:0|0:0,0:0:0:0:
67,200,84284,1,8,0:0:0:0:
131,261,84467,1,0,0:0:0:0:
131,261,84558,1,0,0:0:0:0:
131,261,84650,1,0,0:0:0:0:
75,318,84833,1,0,0:0:0:0:
143,358,85016,2,0,P|193:364|222:371,1,80,8|0,0:0|0:0,0:0:0:0:
275,311,85382,6,0,P|296:269|324:231,1,80,0|0,0:0|0:0,0:0:0:0:
274,173,85748,1,8,0:0:0:0:
318,106,85931,1,0,0:0:0:0:
256,54,86114,2,0,P|228:51|169:37,1,80,0|0,0:0|0:0,0:0:0:0:
323,11,86481,1,8,0:0:0:0:
394,47,86664,1,0,0:0:0:0:
347,112,86847,6,0,P|376:123|401:125,2,40,4|4|4,2:1|2:1|2:1,0:0:0:0:
270,100,87213,2,0,P|274:130|285:153,2,40,4|4|4,2:1|2:1|2:1,0:0:0:0:
276,25,87579,2,0,P|231:32|161:37,1,80,4|4,2:1|2:1,0:0:0:0:
153,102,87945,1,4,0:2:0:0:
74,84,88128,1,0,0:0:0:0:
37,155,88312,6,0,P|63:241|85:322,1,160,6|8,0:0|0:0,0:0:0:0:
156,336,88861,2,0,P|151:356|144:382,2,40,0|0|0,0:0|0:0|0:0,0:0:0:0:
220,289,89227,1,0,0:0:0:0:
171,225,89410,1,8,0:0:0:0:
223,164,89593,1,0,0:0:0:0:
299,187,89776,6,0,P|352:176|403:169,1,80,0|0,0:0|0:0,0:0:0:0:
393,93,90143,1,8,0:0:0:0:
352,24,90326,1,0,0:0:0:0:
278,54,90509,2,0,P|234:84|204:97,1,80,0|0,0:0|0:0,0:0:0:0:
129,99,90875,2,0,P|141:140|153:205,1,80,8|0,0:0|0:0,0:0:0:0:
203,235,91241,5,0,0:0:0:0:
203,235,91424,1,0,0:0:0:0:
145,290,91607,2,0,P|109:276|70:264,1,80,8|0,0:0|0:0,0:0:0:0:
27,332,91973,1,0,0:0:0:0:
90,381,92157,2,0,P|137:371|188:367,1,80,0|8,0:0|0:0,0:0:0:0:
226,312,92523,1,0,0:0:0:0:
296,348,92706,6,0,P|287:365|278:386,2,40,4|4|4,2:1|2:1|2:1,0:0:0:0:
329,275,93072,2,0,P|314:232|293:176,1,80,4|4,2:1|2:1,0:0:0:0:
302,199,93347,1,4,2:1:0:0:
302,199,93438,1,4,2:1:0:0:
350,135,93621,1,4,0:0:0:0:
294,77,93804,2,0,P|257:68|192:49,1,80,0|6,0:0|0:0,0:0:0:0:
363,30,94171,6,0,P|412:19|458:6,1,80,0|0,0:0|0:0,0:0:0:0:
511,48,94537,1,8,0:0:0:0:
462,112,94720,1,0,0:0:0:0:
462,112,94811,1,0,0:0:0:0:
462,112,94903,1,0,0:0:0:0:
502,180,95086,1,0,0:0:0:0:
433,222,95269,2,0,P|392:200|345:185,1,80,8|0,0:0|0:0,0:0:0:0:
294,144,95635,5,0,0:0:0:0:
363,103,95818,2,0,P|391:80|428:46,1,80,0|8,0:0|0:0,0:0:0:0:
294,64,96185,2,0,P|277:60|248:50,2,40,0|0|0,0:0|0:0|0:0,0:0:0:0:
294,144,96551,1,0,0:0:0:0:
217,122,96734,2,0,P|182:136|136:154,1,80,8|0,0:0|0:0,0:0:0:0:
63,138,97100,6,0,B|59:179|59:179|115:240|115:240|95:301,1,160,0|8,0:0|0:0,0:0:0:0:
25,259,97649,1,0,0:0:0:0:
48,335,97832,2,0,P|85:348|132:363,1,80,0|0,0:0|0:0,0:0:0:0:
182,305,98199,1,8,0:0:0:0:
250,346,98382,1,0,0:0:0:0:
290,277,98565,6,0,L|350:259,2,40,4|4|4,2:1|2:1|2:1,0:0:0:0:
231,226,98931,2,0,L|171:208,2,40,4|4|0,2:1|2:1|0:0,0:0:0:0:
299,187,99297,2,0,L|317:102,1,80,4|4,2:1|2:1,0:0:0:0:
386,71,99663,1,4,0:2:0:0:
434,135,99847,1,0,0:0:0:0:
385,198,100030,6,0,P|317:214|206:249,1,160,6|8,0:0|0:0,0:0:0:0:
162,198,100579,1,0,0:0:0:0:
105,254,100762,2,0,P|90:226|59:171,1,80,0|0,0:0|0:0,0:0:0:0:
105,114,101128,1,8,0:0:0:0:
49,56,101311,1,0,0:0:0:0:
118,17,101494,5,0,0:0:0:0:
175,72,101677,2,0,P|227:78|270:80,1,80,0|8,0:0|0:0,0:0:0:0:
311,22,102044,1,0,0:0:0:0:
381,58,102227,2,0,P|409:80|440:153,1,80,0|0,0:0|0:0,0:0:0:0:
395,188,102593,1,8,0:0:0:0:
464,227,102776,2,0,P|414:289|370:366,1,160,0|0,0:0|2:0,0:0:0:0:
306,318,103325,2,0,P|275:339|219:392,1,80,0|0,2:0|2:0,0:0:0:0:
177,320,103692,1,8,2:3:0:0:
177,320,103875,2,0,P|150:267|128:238,1,80,4|0,2:3|0:0,0:0:0:0:
60,233,104241,1,4,2:3:0:0:
90,159,104424,6,0,P|115:139|129:121,2,40,4|4|0,2:1|2:1|0:0,0:0:0:0:
17,126,104790,2,0,P|34:80|37:40,1,80,4|4,2:1|2:1,0:0:0:0:
37,49,105065,1,4,2:1:0:0:
37,49,105156,1,4,2:1:0:0:
111,20,105339,1,4,2:1:0:0:
171,72,105522,2,0,P|215:83|276:97,1,80,4|0,0:2|0:0,0:0:0:0:
297,27,105889,6,0,B|283:55|283:55|299:148|299:148|352:176,2,160,4|8|0,0:2|0:0|0:0,0:0:0:0:
365,68,106804,1,0,0:0:0:0:
429,20,106987,2,0,P|455:47|496:86,1,80,8|0,0:0|0:0,0:0:0:0:
442,143,107353,5,0,0:0:0:0:
501,196,107536,1,0,0:0:0:0:
470,270,107720,1,8,0:0:0:0:
400,229,107903,2,0,P|361:216|294:201,1,80,0|0,0:0|0:0,0:0:0:0:
254,247,108269,1,0,0:0:0:0:
194,193,108452,2,0,P|202:160|209:92,1,80,8|0,0:0|0:0,0:0:0:0:
274,70,108818,6,0,P|200:75|97:89,1,160,2|8,0:0|0:0,0:0:0:0:
60,144,109367,1,0,0:0:0:0:
60,144,109459,1,0,0:0:0:0:
60,144,109551,1,0,0:0:0:0:
117,199,109734,1,0,0:0:0:0:
42,228,109917,2,0,P|24:265|11:313,1,80,8|0,0:0|0:0,0:0:0:0:
80,344,110283,6,0,P|102:367|114:379,2,40,4|4|4,2:1|2:1|2:1,0:0:0:0:
137,292,110649,2,0,P|167:284|184:280,2,40,4|4|4,2:1|2:1|2:1,0:0:0:0:
92,228,111015,2,0,P|69:186|85:130,1,80,4|4,2:1|2:1,0:0:0:0:
127,97,111381,2,0,P|150:139|134:195,1,80,6|0,0:0|0:0,0:0:0:0:
213,215,111748,6,0,P|279:232|395:270,2,160,6|8|0,0:0|0:0|0:0,0:0:0:0:
156,271,112663,1,0,0:0:0:0:
103,210,112846,1,8,0:0:0:0:
148,144,113029,1,0,0:0:0:0:
79,103,113212,6,0,P|43:86|0:69,1,80,0|0,0:0|0:0,0:0:0:0:
7,151,113579,1,8,0:0:0:0:
38,224,113762,2,0,P|20:227|-8:233,2,40,0|0|0,0:0|0:0|0:0,0:0:0:0:
105,180,114128,1,0,0:0:0:0:
79,103,114311,2,0,P|118:81|157:52,1,80,8|0,0:0|0:0,0:0:0:0:
220,91,114677,6,0,P|335:131|390:130,1,160,4|8,0:2|0:0,0:0:0:0:
438,87,115226,1,0,0:0:0:0:
438,87,115318,1,0,0:0:0:0:
438,87,115410,1,0,0:0:0:0:
500,136,115593,1,0,0:0:0:0:
437,185,115776,2,0,P|420:221|402:278,1,80,8|0,0:0|0:0,0:0:0:0:
421,337,116142,6,0,P|437:345|475:350,2,40,4|4|4,0:0|0:0|0:0,0:0:0:0:
345,309,116508,2,0,P|315:314|263:343,1,80,4|4,0:0|0:0,0:0:0:0:
271,336,116783,1,4,0:0:0:0:
271,336,116874,1,4,0:0:0:0:
202,294,117057,1,6,0:0:0:0:
246,227,117240,2,0,P|204:208|156:178,1,80,0|6,0:0|0:0,0:0:0:0:
157,112,117607,6,0,P|82:112|31:200,2,160,6|8|0,0:0|0:0|0:0,0:0:0:0:
229,78,118522,1,0,0:0:0:0:
285,134,118705,1,8,0:0:0:0:
356,98,118888,1,0,0:0:0:0:
406,159,119071,6,0,P|457:169|504:182,1,80,0|0,0:0|0:0,0:0:0:0:
350,214,119438,1,8,0:0:0:0:
280,252,119621,2,0,L|238:237,2,40,0|0|0,0:0|0:0|0:0,0:0:0:0:
332,312,119987,1,0,0:0:0:0:
403,277,120170,2,0,B|422:301|422:301|415:353,1,80,8|0,0:0|0:0,0:0:0:0:
494,364,120536,6,0,B|507:268|507:268|479:255|454:205,1,160,2|8,0:0|0:0,0:0:0:0:
411,162,121085,1,0,0:0:0:0:
411,162,121177,1,0,0:0:0:0:
411,162,121269,1,0,0:0:0:0:
454,95,121452,1,0,0:0:0:0:
395,41,121635,2,0,P|358:34|308:15,1,80,8|0,0:0|0:0,0:0:0:0:
252,65,122001,6,0,L|206:93,2,40,4|4|4,2:1|2:1|0:0,0:0:0:0:
322,105,122367,2,0,L|356:125,2,40,4|4|4,2:1|2:1|2:1,0:0:0:0:
258,151,122733,2,0,B|241:172|241:172|258:243,1,80,4|4,2:1|2:1,0:0:0:0:
323,271,123100,2,0,B|340:250|340:250|323:179,1,80,6|0,0:0|0:0,0:0:0:0:
397,159,123466,6,0,P|336:149|288:69,2,160,6|8|0,0:0|0:0|0:0,0:0:0:0:
470,191,124381,1,0,0:0:0:0:
416,250,124564,1,8,0:0:0:0:
478,299,124747,1,0,0:0:0:0:
408,338,124930,6,0,P|378:345|330:367,1,80,0|0,0:0|0:0,0:0:0:0:
263,325,125297,1,8,0:0:0:0:
306,258,125480,1,0,0:0:0:0:
306,258,125571,1,0,0:0:0:0:
306,258,125663,1,0,0:0:0:0:
385,255,125846,1,0,0:0:0:0:
377,175,126029,2,0,P|349:143|300:91,1,80,8|0,0:0|0:0,0:0:0:0:
351,40,126395,6,0,P|281:27|173:5,1,160,2|8,0:0|0:0,0:0:0:0:
184,94,126944,1,0,0:0:0:0:
184,94,127036,1,0,0:0:0:0:
184,94,127128,1,0,0:0:0:0:
113,132,127311,2,0,L|127:186,2,40,0|0|0,0:0|0:0|0:0,0:0:0:0:
41,96,127677,1,0,0:0:0:0:
14,171,127860,5,4,2:1:0:0:
14,171,127952,1,4,2:1:0:0:
14,171,128043,1,4,2:1:0:0:
66,231,128226,2,0,L|36:317,1,80,4|4,2:1|2:1,0:0:0:0:
39,306,128501,1,4,2:1:0:0:
39,306,128592,1,4,2:1:0:0:
125,335,128775,1,6,0:0:0:0:
166,265,128959,2,0,P|214:255|277:247,1,80,0|6,0:2|0:0,0:0:0:0:
278,323,129325,6,0,P|275:256|334:142,1,160,6|0,0:0|0:0,0:0:0:0:
374,124,129874,1,0,0:0:0:0:
406,50,130057,2,0,P|367:41|314:22,1,80,0|0,0:0|0:0,0:0:0:0:
268,80,130423,1,0,0:0:0:0:
204,31,130606,6,0,P|168:46|132:85,1,80,0|2,0:0|0:3,0:0:0:0:
72,120,130973,1,0,0:0:0:0:
135,168,131156,1,0,0:0:0:0:
72,120,131339,1,2,0:3:0:0:
6,165,131522,2,0,P|26:211|30:253,1,80,0|0,0:0|0:0,0:0:0:0:
85,297,131888,2,0,P|135:279|186:256,1,80,2|0,0:3|0:0,0:0:0:0:
214,326,132254,6,0,P|289:351|384:379,1,160,2|2,0:0|0:3,0:0:0:0:
436,334,132804,1,0,0:0:0:0:
387,270,132987,2,0,P|434:252|465:239,1,80,0|2,0:0|0:3,0:0:0:0:
489,165,133353,1,0,0:0:0:0:
425,116,133536,1,2,0:3:0:0:
430,36,133719,6,0,L|471:21,2,40,4|4|4,2:1|2:1|2:1,0:0:0:0:
352,17,134085,2,0,L|311:2,2,40,4|4|4,2:1|2:1|2:1,0:0:0:0:
337,93,134451,2,0,P|292:112|254:137,1,80,4|4,2:1|2:1,0:0:0:0:
188,105,134818,2,0,P|186:153|180:195,1,80,2|0,0:0|0:0,0:0:0:0:
259,205,135184,6,0,P|266:89|264:35,1,160,6|2,0:0|0:3,0:0:0:0:
343,33,135733,1,0,0:0:0:0:
394,93,135916,2,0,P|439:101|482:108,1,80,0|2,0:3|0:3,0:0:0:0:
488,185,136282,1,0,0:0:0:0:
428,238,136465,6,0,P|419:278|409:336,1,80,0|2,0:0|0:3,0:0:0:0:
331,316,136832,1,0,0:0:0:0:
255,342,137015,1,0,0:0:0:0:
331,316,137198,1,2,0:3:0:0:
343,236,137381,2,0,P|351:186|342:123,1,80,0|0,0:0|0:0,0:0:0:0:
286,107,137747,2,0,P|240:101|191:65,1,80,2|0,0:3|0:0,0:0:0:0:
138,113,138113,5,2,0:3:0:0:
138,113,138296,1,4,0:3:0:0:
70,45,138479,6,0,B|43:67|43:67|80:186|80:186|54:234,1,191.999994140625,6|0,0:0|0:0,0:0:0:0:
39,307,139029,2,0,B|66:234|66:234|146:231|146:231|129:270,1,191.999994140625,6|0,0:0|0:0,0:0:0:0:
228,268,139578,2,0,B|159:246|156:171|156:171|185:160|201:112,1,191.999994140625,6|0,0:0|0:0,0:0:0:0:
187,30,140127,2,0,B|168:44|145:51|145:51|220:103|304:96,1,191.999994140625,6|0,0:0|0:0,0:0:0:0:
280,96,140677,1,6,0:0:0:0:
472,95,141043,5,0,0:0:0:0:
401,29,141226,2,0,B|433:62|433:62|394:167|394:167|440:233,1,191.999994140625,6|0,0:0|0:0,0:0:0:0:
320,218,141775,2,0,B|364:255|339:310|339:310|375:258|440:281,1,191.999994140625,6|0,0:0|0:0,0:0:0:0:
427,179,142324,2,0,P|346:190|229:210,1,191.999994140625,6|0,0:0|0:0,0:0:0:0:
161,149,142874,2,0,B|191:172|226:178|226:178|196:257|257:305,1,191.999994140625,6|0,0:0|0:0,0:0:0:0:
289,373,143423,2,0,P|241:365|177:362,1,95.9999970703126,6|0,0:0|3:0,0:0:0:0:
193,361,143789,1,0,3:0:0:0:
127,316,143972,6,0,P|188:257|262:229,1,160,6|8,0:0|0:0,0:0:0:0:
327,267,144522,1,0,0:0:0:0:
359,194,144705,2,0,P|370:151|381:118,1,80,0|0,0:0|0:0,0:0:0:0:
352,42,145071,1,8,0:0:0:0:
288,90,145254,1,0,0:0:0:0:
219,48,145437,6,0,P|181:33|135:14,1,80,0|0,0:0|0:0,0:0:0:0:
76,60,145803,2,0,P|88:102|104:145,1,80,8|0,0:0|0:0,0:0:0:0:
100,136,146078,1,0,0:0:0:0:
100,136,146169,1,0,0:0:0:0:
48,197,146352,1,0,0:0:0:0:
109,249,146536,2,0,P|160:262|202:278,1,80,8|0,0:0|0:0,0:0:0:0:
242,327,146902,5,0,0:0:0:0:
310,285,147085,1,0,0:0:0:0:
251,230,147268,2,0,P|245:192|229:149,1,80,8|0,0:0|0:0,0:0:0:0:
287,96,147634,2,0,P|327:109|380:121,1,80,0|0,0:0|0:0,0:0:0:0:
430,73,148000,1,8,0:0:0:0:
490,125,148183,1,0,0:0:0:0:
443,190,148367,6,0,P|458:202|491:220,2,40,4|4|4,0:0|0:0|0:0,0:0:0:0:
370,162,148733,2,0,P|367:180|368:218,2,40,4|4|4,0:0|0:0|0:0,0:0:0:0:
341,90,149099,2,0,P|305:102|243:111,1,80,4|4,0:0|0:0,0:0:0:0:
193,70,149465,1,4,0:2:0:0:
124,111,149648,1,0,0:0:0:0:
47,87,149831,6,0,P|42:126|32:186,1,80,6|0,0:0|0:0,0:0:0:0:
95,219,150197,1,8,0:0:0:0:
46,282,150381,2,0,L|-3:268,2,40,0|0|0,0:0|0:0|0:0,0:0:0:0:
112,325,150747,1,0,0:0:0:0:
182,287,150930,2,0,P|224:304|271:337,1,80,8|0,0:0|0:0,0:0:0:0:
327,352,151296,5,0,0:0:0:0:
392,305,151479,2,0,P|374:279|334:252,1,80,0|8,0:0|0:0,0:0:0:0:
344,172,151845,1,0,0:0:0:0:
344,172,151937,1,0,0:0:0:0:
344,172,152028,1,0,0:0:0:0:
423,176,152211,1,0,0:0:0:0:
481,121,152395,2,0,P|466:86|446:32,1,80,8|0,0:0|0:0,0:0:0:0:
380,10,152761,5,0,0:0:0:0:
318,61,152944,1,0,0:0:0:0:
359,129,153127,2,0,P|329:159|299:193,1,80,8|0,0:0|0:0,0:0:0:0:
226,167,153493,2,0,P|181:139|132:111,1,80,0|0,0:0|0:0,0:0:0:0:
145,46,153859,1,8,0:0:0:0:
70,17,154042,1,0,0:0:0:0:
39,91,154226,6,0,L|-20:103,2,40,4|0|0,0:0|0:0|0:0,0:0:0:0:
102,139,154592,2,0,P|84:188|52:243,1,80,4|4,0:0|0:0,0:0:0:0:
71,212,154866,1,0,0:0:0:0:
71,212,154958,1,4,0:0:0:0:
127,269,155141,1,4,0:0:0:0:
193,224,155324,2,0,P|230:199|293:173,1,80,4|0,0:2|0:0,0:0:0:0:
322,235,155690,6,0,P|346:192|354:157,1,80,6|0,0:0|0:0,0:0:0:0:
308,95,156056,2,0,P|271:78|226:55,1,80,8|0,0:0|0:0,0:0:0:0:
235,60,156331,1,0,0:0:0:0:
235,60,156423,1,0,0:0:0:0:
171,108,156606,1,0,0:0:0:0:
97,138,156789,2,0,P|127:190|151:215,1,80,8|0,0:0|0:0,0:0:0:0:
191,265,157155,5,0,0:0:0:0:
123,307,157338,2,0,P|86:282|45:263,1,80,0|8,0:0|0:0,0:0:0:0:
71,188,157704,2,0,L|81:141,2,40,0|0|0,0:0|0:0|0:0,0:0:0:0:
151,193,158071,1,0,0:0:0:0:
209,139,158254,2,0,P|250:113|289:91,1,80,8|0,0:0|0:0,0:0:0:0:
298,20,158620,6,0,P|248:10|201:-10,1,80
364,63,158986,2,0,P|401:43|441:26,1,80,8|0,0:0|0:0,0:0:0:0:
435,27,159261,1,0,0:0:0:0:
435,27,159352,1,0,0:0:0:0:
506,86,159535,1,0,0:0:0:0:
438,129,159718,2,0,P|425:161|416:220,1,80,8|0,0:0|0:0,0:0:0:0:
403,284,160085,6,0,P|425:292|455:312,2,40,4|0|0,0:0|0:0|0:0,0:0:0:0:
349,339,160451,2,0,P|327:346|297:366,2,40,4|0|0,0:0|0:0|0:0,0:0:0:0:
329,265,160817,2,0,P|320:235|292:188,1,80,4|0,0:0|0:0,0:0:0:0:
247,129,161183,1,8,0:0:0:0:
307,76,161366,1,0,0:0:0:0:
235,39,161549,6,0,P|178:22|151:-3,1,80,6|0,0:0|0:0,0:0:0:0:
88,39,161915,2,0,P|69:66|62:115,1,80,8|0,0:0|0:0,0:0:0:0:
61,111,162190,1,0,0:0:0:0:
61,111,162282,1,0,0:0:0:0:
3,166,162465,1,0,0:0:0:0:
63,217,162648,2,0,P|88:254|102:300,1,80,8|0,0:0|0:0,0:0:0:0:
135,358,163014,6,0,P|172:353|221:311,1,80,0|0,0:0|0:0,0:0:0:0:
263,273,163380,1,8,0:0:0:0:
214,209,163563,1,0,0:0:0:0:
283,168,163746,2,0,P|317:192|375:212,1,80,0|0,0:0|0:0,0:0:0:0:
408,264,164113,1,8,0:0:0:0:
474,219,164296,1,0,0:0:0:0:
436,148,164479,5,2,0:3:0:0:
436,148,164662,1,4,0:3:0:0:
506,83,164845,6,0,P|384:113|300:89,1,191.999994140625,6|0,0:0|0:0,0:0:0:0:
354,8,165394,2,0,P|305:78|259:5,1,191.999994140625,6|4,0:0|0:3,0:0:0:0:
183,79,165944,2,0,B|211:122|243:139|243:139|229:203|162:198,1,191.999994140625,6|4,0:0|0:3,0:0:0:0:
92,258,166493,2,0,B|103:223|98:187|98:187|174:247|174:307,1,191.999994140625,6|0,0:0|0:0,0:0:0:0:
170,280,167042,1,6,0:0:0:0:
311,354,167408,6,0,B|358:349|356:298|356:298|321:277|315:234,2,160,6|8|0,0:0|0:0|0:0,0:0:0:0:
244,308,168324,1,0,0:0:0:0:
167,332,168507,1,8,0:0:0:0:
112,273,168690,1,0,0:0:0:0:
151,203,168873,6,0,P|134:164|117:125,1,80,0|0,0:0|0:0,0:0:0:0:
62,72,169239,1,8,0:0:0:0:
135,40,169422,1,0,0:0:0:0:
135,40,169514,1,0,0:0:0:0:
135,40,169605,1,0,0:0:0:0:
199,88,169789,1,0,0:0:0:0:
243,21,169972,2,0,L|339:46,1,80,8|0,0:0|0:0,0:0:0:0:
332,120,170338,6,0,P|404:91|493:79,1,160,2|8,0:0|0:0,0:0:0:0:
512,162,170887,1,0,0:0:0:0:
512,162,170979,1,0,0:0:0:0:
512,162,171070,1,0,0:0:0:0:
452,215,171253,1,0,0:0:0:0:
379,180,171436,2,0,P|366:221|359:271,1,80,8|0,0:0|0:0,0:0:0:0:
315,324,171803,6,0,L|350:368,2,40,4|4|4,0:0|0:0|0:0,0:0:0:0:
242,293,172169,2,0,P|230:301|191:321,2,40,4|4|4,0:0|0:0|0:0,0:0:0:0:
285,233,172535,2,0,P|270:216|204:164,1,80,4|4,0:0|0:0,0:0:0:0:
153,145,172901,2,0,P|110:177|95:230,1,80,6|0,0:0|0:0,0:0:0:0:
53,265,173267,6,0,B|67:215|14:160|14:160|53:104,2,160,6|0|0,0:0|0:0|0:0,0:0:0:0:
89,336,174183,1,0,0:0:0:0:
157,294,174366,1,8,0:0:0:0:
236,301,174549,1,0,0:0:0:0:
271,229,174732,6,0,P|252:192|208:133,1,80,0|0,0:0|0:0,0:0:0:0:
270,90,175098,2,0,L|379:114,1,80,8|0,0:0|0:0,0:0:0:0:
348,107,175373,1,0,0:0:0:0:
348,107,175464,1,0,0:0:0:0:
421,74,175648,1,0,0:0:0:0:
455,146,175831,2,0,P|430:187|407:220,1,80,8|0,0:0|0:0,0:0:0:0:
332,218,176197,6,0,P|405:256|480:329,1,160,6|8,0:0|0:0,0:0:0:0:
430,380,176746,1,0,0:0:0:0:
430,380,176838,1,0,0:0:0:0:
430,380,176929,1,0,0:0:0:0:
509,374,177112,1,0,0:0:0:0:
462,307,177295,2,0,P|474:247|493:206,1,80,8|0,0:0|0:0,0:0:0:0:
438,161,177662,6,0,L|389:151,2,40,4|4|0,0:0|0:0|0:0,0:0:0:0:
480,93,178028,2,0,P|456:76|399:26,1,80,4|4,0:0|0:0,0:0:0:0:
417,43,178302,1,4,0:0:0:0:
417,43,178394,1,4,0:0:0:0:
338,30,178577,1,6,0:0:0:0:
294,97,178760,2,0,P|261:119|196:155,1,80,0|2,0:0|0:0,0:0:0:0:
169,83,179126,6,0,B|72:69|72:69|30:12,2,160,6|8|0,0:0|0:0|0:0,0:0:0:0:
166,163,180042,1,0,0:0:0:0:
89,187,180225,1,8,0:0:0:0:
126,257,180408,1,0,0:0:0:0:
73,317,180591,6,0,P|45:331|-10:357,1,80,0|0,0:0|0:0,0:0:0:0:
146,353,180957,1,8,0:0:0:0:
209,304,181140,2,0,L|255:346,2,40,0|0|0,0:0|0:0|0:0,0:0:0:0:
230,226,181507,1,0,0:0:0:0:
302,192,181690,2,0,L|282:114,1,80,8|0,0:0|0:0,0:0:0:0:
224,58,182056,6,0,P|322:83|417:92,1,160,2|8,0:0|0:0,0:0:0:0:
445,43,182605,1,0,0:0:0:0:
445,43,182697,1,0,0:0:0:0:
445,43,182788,1,0,0:0:0:0:
480,114,182971,1,0,0:0:0:0:
420,167,183154,2,0,P|417:200|403:271,1,80,8|0,0:0|0:0,0:0:0:0:
448,316,183521,6,0,L|518:343,2,40,4|4|4,0:0|0:0|0:0,0:0:0:0:
383,366,183887,2,0,L|346:352,2,40,4|4|4,0:0|0:0|0:0,0:0:0:0:
379,284,184253,2,0,P|347:248|334:192,1,80,4|4,0:0|0:0,0:0:0:0:
279,162,184619,2,0,P|302:121|343:72,1,80,6|0,0:0|0:0,0:0:0:0:
371,32,184985,6,0,P|299:81|247:29,2,160,6|8|0,0:0|0:0|0:0,0:0:0:0:
447,55,185901,1,0,0:0:0:0:
413,127,186084,1,8,0:0:0:0:
454,195,186267,1,0,0:0:0:0:
382,230,186450,6,0,P|358:198|308:189,1,80,0|0,0:0|0:0,0:0:0:0:
248,154,186816,1,8,0:0:0:0:
215,227,186999,1,0,0:0:0:0:
215,227,187091,1,0,0:0:0:0:
215,227,187183,1,0,0:0:0:0:
138,204,187366,1,0,0:0:0:0:
143,124,187549,2,0,P|109:101|60:77,1,80,8|0,0:0|0:0,0:0:0:0:
68,166,187915,6,0,P|202:113|245:84,1,160,2|8,0:0|0:0,0:0:0:0:
295,146,188464,1,0,0:0:0:0:
295,146,188556,1,0,0:0:0:0:
295,146,188647,1,0,0:0:0:0:
333,77,188830,1,0,0:0:0:0:
401,118,189013,2,0,P|448:142|481:154,1,80,0|0,0:0|0:0,0:0:0:0:
486,230,189380,5,4,2:1:0:0:
486,230,189471,1,4,2:1:0:0:
486,230,189563,1,4,2:1:0:0:
428,285,189746,1,4,2:1:0:0:
363,237,189929,2,0,L|311:218,2,40,4|4|4,2:1|2:1|2:1,0:0:0:0:
326,308,190295,1,6,0:0:0:0:
253,275,190478,2,0,L|226:380,1,80,0|6,0:2|0:0,0:0:0:0:
153,349,190844,6,0,L|200:177,1,160,6|2,0:0|0:3,0:0:0:0:
140,135,191394,1,0,0:0:0:0:
183,67,191577,2,0,L|290:40,1,80,0|2,0:0|0:3,0:0:0:0:
331,84,191943,1,0,0:0:0:0:
394,35,192126,6,0,P|441:62|464:90,1,80,0|2,0:0|0:3,0:0:0:0:
437,158,192492,1,0,0:0:0:0:
509,192,192675,1,0,0:0:0:0:
437,158,192858,1,2,0:3:0:0:
370,202,193042,2,0,L|288:218,1,80,0|0,0:0|0:0,0:0:0:0:
241,155,193408,2,0,P|212:188|174:227,1,80,2|0,0:3|0:0,0:0:0:0:
123,165,193774,6,0,P|152:261|150:340,1,160,2|2,0:1|0:3,0:0:0:0:
224,355,194323,1,0,0:0:0:0:
292,313,194506,2,0,P|331:275|361:254,1,80,0|2,0:0|0:3,0:0:0:0:
306,193,194872,1,0,0:0:0:0:
306,193,195056,1,2,0:3:0:0:
382,168,195239,6,0,P|404:161|448:154,2,40,4|4|4,2:1|0:0|0:0,0:0:0:0:
322,119,195605,2,0,P|326:96|342:54,2,40,4|4|4,2:1|0:0|2:1,0:0:0:0:
248,144,195971,2,0,P|222:126|175:93,1,80,4|4,2:1|2:1,0:0:0:0:
131,36,196337,2,0,P|94:41|35:65,1,80,6|0,0:0|0:0,0:0:0:0:
75,131,196703,6,0,P|103:209|46:251,1,160,6|2,0:0|0:3,0:0:0:0:
16,323,197253,1,0,0:0:0:0:
87,358,197436,2,0,P|116:329|167:316,1,80,0|0,0:0|0:0,0:0:0:0:
191,247,197802,1,0,0:0:0:0:
253,297,197985,6,0,P|293:325|339:320,1,80,0|2,0:0|0:3,0:0:0:0:
388,280,198351,1,0,0:0:0:0:
461,311,198534,1,0,0:0:0:0:
388,280,198717,1,2,0:3:0:0:
419,205,198901,2,0,P|437:182|465:123,1,80,0|0,0:0|0:0,0:0:0:0:
438,59,199267,2,0,P|374:28|344:16,1,80,2|0,0:3|0:0,0:0:0:0:
293,59,199633,6,0,P|285:143|280:243,1,160,2|0,0:0|0:0,0:0:0:0:
217,266,200182,1,0,0:0:0:0:
152,219,200365,2,0,P|131:188|76:140,1,80,0|4,0:0|3:0,0:0:0:0:
42,103,200731,1,0,0:0:0:0:
104,52,200915,1,8,3:0:0:0:
177,84,201098,6,0,P|190:111|194:140,2,40,4|4|0,0:0|0:0|0:0,0:0:0:0:
243,39,201464,2,0,P|301:46|340:67,1,80,4|4,0:0|0:0,0:0:0:0:
320,54,201739,1,4,0:0:0:0:
320,54,201830,1,4,0:0:0:0:
394,24,202013,1,6,0:0:0:0:
442,87,202196,2,0,P|422:129|419:172,1,80,4|2,0:2|0:0,0:0:0:0:
342,185,202562,6,0,P|333:256|396:346,1,160,6|2,0:0|0:3,0:0:0:0:
448,298,203112,1,0,0:0:0:0:
492,231,203295,2,0,P|443:217|388:203,1,80,0|2,0:0|0:3,0:0:0:0:
342,185,203661,1,0,0:0:0:0:
297,118,203844,6,0,P|257:104|188:77,1,80,0|2,0:0|0:3,0:0:0:0:
165,33,204210,1,0,0:0:0:0:
89,58,204393,1,0,0:0:0:0:
165,33,204576,1,2,0:3:0:0:
146,111,204760,2,0,P|127:152|115:201,1,80,0|0,0:0|0:0,0:0:0:0:
41,209,205126,2,0,P|56:251|67:303,1,80,2|0,0:3|0:0,0:0:0:0:
21,353,205492,6,0,P|82:322|177:334,1,160,6|2,0:0|0:3,0:0:0:0:
223,270,206041,1,0,0:0:0:0:
157,224,206224,2,0,P|117:228|79:181,1,80,0|2,0:0|0:3,0:0:0:0:
49,133,206591,1,0,0:0:0:0:
119,96,206774,1,2,0:3:0:0:
63,38,206957,6,0,L|13:6,2,40,4|4|0,0:0|0:0|0:0,0:0:0:0:
143,17,207323,2,0,P|171:26|199:35,2,40,4|4|0,0:0|0:0|0:0,0:0:0:0:
119,96,207689,2,0,B|121:134|121:134|152:176,1,80,4|4,0:0|0:0,0:0:0:0:
221,195,208055,2,0,P|269:173|287:121,1,80,6|0,0:0|0:0,0:0:0:0:
293,71,208421,6,0,P|397:79|464:113,1,160,6|2,0:0|0:3,0:0:0:0:
457,181,208971,1,0,0:0:0:0:
383,211,209154,1,0,0:0:0:0:
410,286,209337,1,2,0:3:0:0:
410,286,209520,1,0,0:0:0:0:
487,303,209703,6,0,P|466:340|437:381,1,80,0|2,0:0|0:3,0:0:0:0:
367,351,210069,1,0,0:0:0:0:
304,301,210252,2,0,P|273:316|236:343,1,80,0|2,0:0|0:3,0:0:0:0:
236,342,210527,1,0,0:0:0:0:
236,342,210619,1,2,0:3:0:0:
163,310,210802,1,0,0:0:0:0:
186,233,210985,2,0,P|236:218|274:201,1,80,2|0,0:3|0:0,0:0:0:0:
339,188,211351,6,0,P|252:155|182:97,1,160,6|2,0:0|0:3,0:0:0:0:
141,59,211900,1,0,0:0:0:0:
219,46,212083,1,0,0:0:0:0:
286,88,212266,1,4,0:3:0:0:
286,88,212450,1,0,0:0:0:0:
330,21,212633,6,0,L|424:32,1,80,4|4,0:3|0:0,0:0:0:0:
409,30,212907,1,4,0:0:0:0:
409,30,212999,1,4,0:0:0:0:
456,94,213182,1,4,0:0:0:0:
413,161,213365,2,0,L|458:208,2,40,4|4|4,0:0|0:0|0:0,0:0:0:0:
361,222,213731,1,6,0:0:0:0:
424,270,213914,2,0,P|408:307|390:354,1,80,0|6,0:0|0:0,0:0:0:0:
315,328,214280,5,6,0:0:0:0:
315,328,215013,2,0,P|282:321|235:310,1,80,0|0,0:0|0:0,0:0:0:0:
199,239,215379,2,0,P|159:260|121:275,1,80,0|0,0:0|0:0,0:0:0:0:
126,273,215654,1,0,0:0:0:0:
126,273,215745,5,0,0:0:0:0:
78,209,215928,1,0,0:0:0:0:
136,154,216111,2,0,P|125:113|118:68,1,80,0|0,0:0|0:0,0:0:0:0:
174,17,216478,2,0,L|259:29,2,80,0|0|0,0:0|0:0|0:0,0:0:0:0:
174,17,217210,5,6,0:0:0:0:
174,17,218675,5,0,0:0:0:0:
224,79,218858,1,0,0:0:0:0:
174,17,219041,2,0,L|91:30,1,80,2|0,0:3|0:0,0:0:0:0:
224,79,219407,2,0,P|250:130|277:153,1,80,2|0,0:3|0:0,0:0:0:0:
284,31,219773,1,6,0:0:0:0:
284,31,220139,5,6,0:0:0:0:
284,31,221604,6,0,P|329:46|372:49,1,80,0|0,0:0|0:0,0:0:0:0:
399,119,221970,1,0,0:0:0:0:
474,92,222154,1,0,0:0:0:0:
468,171,222337,2,0,P|457:199|433:272,1,80,0|0,0:0|0:0,0:0:0:0:
391,309,222703,1,0,0:0:0:0:
460,348,222886,1,0,0:0:0:0:
391,309,223069,6,0,P|347:335|291:366,1,80,6|0,0:0|0:0,0:0:0:0:
244,327,223435,1,0,0:0:0:0:
232,247,223618,2,0,L|245:196,2,40,0|0|0,0:0|0:0|0:0,0:0:0:0:
154,265,223984,1,0,0:0:0:0:
80,231,224168,2,0,L|20:241,2,40,0|0|0,0:0|0:0|0:0,0:0:0:0:
146,184,224534,5,4,2:1:0:0:
146,184,224625,1,4,2:1:0:0:
146,184,224717,2,0,L|108:106,1,80,4|0,2:1|0:0,0:0:0:0:
173,62,225083,2,0,L|226:44,2,40,4|4|4,2:1|2:1|0:0,0:0:0:0:
217,128,225449,1,4,1:2:0:0:
286,89,225632,2,0,L|328:194,1,80,0|6,1:0|0:0,0:0:0:0:
393,144,225998,5,6,0:0:0:0:
393,144,226731,2,0,L|374:233,1,80,0|0,0:0|0:0,0:0:0:0:
453,243,227097,2,0,L|469:164,1,80,0|0,0:0|0:0,0:0:0:0:
469,164,227372,1,0,0:0:0:0:
469,164,227463,5,0,0:0:0:0:
492,87,227646,1,0,0:0:0:0:
421,48,227829,2,0,P|380:41|329:29,1,80,0|0,0:0|0:0,0:0:0:0:
271,70,228196,2,0,P|237:107|212:159,1,80,0|0,0:0|0:0,0:0:0:0:
269,197,228562,1,0,0:0:0:0:
269,197,228928,5,6,0:0:0:0:
269,197,230393,1,0,0:0:0:0:
343,225,230576,1,0,0:0:0:0:
269,197,230759,2,0,L|171:219,1,80,0|0,0:3|0:0,0:0:0:0:
308,128,231125,2,0,P|303:93|246:64,1,80,2|0,0:3|0:0,0:0:0:0:
387,160,231491,1,6,0:0:0:0:
387,160,231858,5,6,0:0:0:0:
333,310,232224,2,0,B|326:327|302:328|302:328|301:278|234:256,1,120,0|0,0:0|0:0,0:0:0:0:
239,260,232590,1,0,0:0:0:0:
167,296,232773,1,0,0:0:0:0:
107,242,232956,2,0,P|81:193|69:159,1,80,0|0,0:0|0:0,0:0:0:0:
56,91,233322,6,0,P|100:80|148:48,1,80,0|0,0:0|0:0,0:0:0:0:
184,4,233688,1,0,0:0:0:0:
228,71,233872,1,0,0:0:0:0:
306,55,234055,2,0,P|323:84|347:145,1,80,0|0,0:0|0:0,0:0:0:0:
419,140,234421,2,0,P|414:176|405:234,1,80,0|0,0:0|0:0,0:0:0:0:
331,244,234787,6,0,P|324:271|365:317,1,80,2|4,0:3|0:3,0:0:0:0:
444,332,235153,6,0,P|400:336|220:328,1,191.999994140625,6|0,0:0|0:0,0:0:0:0:
157,344,235702,2,0,P|126:317|224:288,1,191.999994140625,6|0,0:0|0:0,0:0:0:0:
306,241,236252,2,0,B|333:203|333:203|249:143|249:143|201:205,1,191.999994140625,6|0,0:0|0:0,0:0:0:0:
128,189,236801,2,0,B|116:203|116:203|104:160|56:141|56:141|113:137|140:84,1,191.999994140625,6|0,0:0|0:0,0:0:0:0:
127,103,237350,1,6,0:0:0:0:
282,61,237717,5,6,0:0:0:0:
