osu file format v14

[General]
AudioFilename: audio.mp3
AudioLeadIn: 0
PreviewTime: 105904
Countdown: 0
SampleSet: Normal
StackLeniency: 0.7
Mode: 0
LetterboxInBreaks: 0
WidescreenStoryboard: 1

[Editor]
Bookmarks: 82468,105904,129340,143987,149114,167423,190859,214295
DistanceSpacing: 0.7
BeatDivisor: 4
GridSize: 4
TimelineZoom: 0.9

[Metadata]
Title:Freestyler (Cut Ver.)
TitleUnicode:Freestyler (Cut Ver.)
Artist:Bomfunk MC's
ArtistUnicode:Bomfunk MC's
Creator:Beomsan
Version:Collab Normal
Source:
Tags:Hoto Cocoa Down Lude hongilkim95 breakbeat drum and bass dnb english hiphop stereo
BeatmapID:3071159
BeatmapSetID:1438301

[Difficulty]
HPDrainRate:3
CircleSize:3
OverallDifficulty:4
ApproachRate:5
SliderMultiplier:1.4
SliderTickRate:1

[Events]
//Background and Video events
0,0,"Background.png",0,0
//Break Periods
//Storyboard Layer 0 (Background)
//Storyboard Layer 1 (Fail)
//Storyboard Layer 2 (Pass)
//Storyboard Layer 3 (Foreground)
//Storyboard Layer 4 (Overlay)
//Storyboard Sound Samples

[TimingPoints]
59017,366.188587122368,4,1,0,50,1,0
79889,-100,4,1,0,75,0,0
82086,-100,4,1,0,65,0,0
86847,-100,4,1,1,65,0,0
88312,-100,4,1,0,65,0,0
92706,-100,4,1,1,65,0,0
94171,-100,4,1,0,65,0,0
98565,-100,4,1,1,65,0,0
100030,-100,4,1,0,65,0,0
104424,-100,4,1,1,65,0,0
105522,-100,4,1,0,65,0,0
105889,-100,4,1,0,75,0,0
110283,-100,4,1,1,75,0,0
111748,-100,4,1,0,75,0,0
116142,-100,4,1,1,75,0,0
117607,-100,4,1,0,75,0,0
122001,-100,4,1,1,75,0,0
123466,-100,4,1,0,75,0,0
127860,-100,4,1,1,75,0,0
129325,-100,4,1,0,75,0,0
133719,-100,4,1,1,75,0,0
135550,-100,4,1,0,75,0,0
143972,-100,4,1,0,65,0,0
148367,-100,4,1,1,65,0,0
149831,-100,4,1,0,65,0,0
154226,-100,4,1,1,65,0,0
155690,-100,4,1,0,65,0,0
160085,-100,4,1,1,65,0,0
161549,-100,4,1,0,65,0,0
167408,-100,4,1,0,75,0,0
171803,-100,4,1,1,75,0,0
173267,-100,4,1,0,75,0,0
177662,-100,4,1,1,75,0,0
179126,-100,4,1,0,75,0,0
183521,-100,4,1,1,75,0,0
184985,-100,4,1,0,75,0,0
189380,-100,4,1,1,75,0,0
190844,-100,4,1,0,75,0,0
195239,-100,4,1,1,75,0,0
197070,-100,4,1,0,75,0,0
201098,-100,4,1,1,75,0,0
202929,-100,4,1,0,75,0,0
206957,-100,4,1,1,75,0,0
208788,-100,4,1,0,75,0,0
212816,-100,4,1,1,75,0,0
215013,-100,4,1,0,50,0,0
235153,-100,4,1,0,75,0,0

[Colours]
Combo1 : 242,182,0
Combo2 : 74,74,255
Combo3 : 40,255,255
Combo4 : 193,11,38

[HitObjects]
117,311,59016,5,2,0:0:0:0:
117,311,59749,6,0,L|130:152,2,140,0|0|0,0:0|0:0|0:0,0:0:0:0:
156,340,60664,1,0,0:0:0:0:
199,318,60847,1,0,0:0:0:0:
217,221,61214,2,0,P|288:243|286:310,1,140,0|0,0:0|0:0,0:0:0:0:
375,351,61946,5,6,0:0:0:0:
375,351,63411,5,0,0:0:0:0:
300,287,63777,2,0,L|315:205,1,70
290,174,64143,2,0,P|256:176|214:150,1,70
197,119,64509,1,0,0:0:0:0:
104,150,64875,1,6,0:0:0:0:
451,163,66340,6,0,P|462:94|435:31,1,140,0|0,0:0|0:0,0:0:0:0:
388,18,66889,1,0,0:0:0:0:
351,51,67073,1,0,0:0:0:0:
255,72,67439,2,0,P|222:58|200:32,2,70,0|0|0,0:0|0:0|0:0,0:0:0:0:
351,52,68171,6,0,P|343:119|281:170,1,140,0|0,0:0|0:0,0:0:0:0:
280,213,68720,2,0,P|218:182|149:177,1,140,0|0,0:0|0:0,0:0:0:0:
109,206,69270,5,4,2:1:0:0:
113,302,69636,2,0,P|154:300|190:312,1,70,4|0,2:1|0:0,0:0:0:0:
268,354,70185,6,0,B|323:334|323:334|346:335|346:335|401:315,1,140,4|4,1:2|0:2,0:0:0:0:
447,298,70734,1,6,0:0:0:0:
376,115,71467,6,0,P|308:110|292:177,1,140,0|0,0:0|0:0,0:0:0:0:
307,213,72016,1,0,0:0:0:0:
346,241,72199,2,0,L|491:197,2,140,0|0|0,0:0|0:0|0:0,0:0:0:0:
283,316,73298,1,0,0:0:0:0:
195,272,73664,5,6,0:0:0:0:
74,83,75129,6,0,L|60:165,1,70
89,192,75495,2,0,P|114:173|155:171,1,70,0|0,0:3|0:0,0:0:0:0:
188,137,75861,2,0,P|219:160|270:157,1,70,2|0,0:3|0:0,0:0:0:0:
281,200,76227,2,0,L|425:172,1,140,6|6,0:0|0:0,0:0:0:0:
451,265,76960,5,0,0:0:0:0:
382,335,77326,2,0,P|306:342|278:288,1,140,0|0,0:0|0:0,0:0:0:0:
180,283,78058,2,0,L|94:306,2,70,0|0|0,0:0|0:0|0:0,0:0:0:0:
278,293,78791,2,0,P|281:224|317:157,1,140,0|0,0:0|0:0,0:0:0:0:
376,87,79523,6,0,P|344:68|280:69,1,70,2|4,0:3|0:3,0:0:0:0:
298,15,79889,2,0,P|245:47|148:58,1,140,6|0,0:0|0:0,0:0:0:0:
121,46,80438,1,6,0:0:0:0:
69,129,80805,1,0,0:0:0:0:
115,143,80988,6,0,P|147:196|158:293,1,140,6|0,0:0|0:0,0:0:0:0:
182,315,81537,2,0,P|245:357|306:325,1,140,6|0,0:0|0:0,0:0:0:0:
347,336,82086,6,0,L|369:263,2,70,6|0|6,0:0|0:0|0:0,0:0:0:0:
444,323,82819,1,8,0:0:0:0:
498,241,83185,2,0,P|449:223|441:137,1,140,0|8,0:0|0:0,0:0:0:0:
475,53,83917,2,0,L|326:75,1,140,0|8,0:0|0:0,0:0:0:0:
255,129,84650,2,0,L|98:107,1,140,0|8,0:0|0:0,0:0:0:0:
70,91,85199,1,0,0:0:0:0:
35,56,85382,6,0,P|63:126|63:200,1,140,0|8,0:0|0:0,0:0:0:0:
60,287,86114,2,0,P|130:259|204:259,1,140,0|8,0:0|0:0,0:0:0:0:
240,273,86664,1,0,0:0:0:0:
281,299,86847,6,0,P|345:341|424:312,2,140,4|4|4,0:0|0:0|0:0,0:0:0:0:
217,224,87945,2,0,L|227:133,1,70,4|4,0:0|0:0,0:0:0:0:
234,106,88312,6,0,B|294:85|294:85|302:86|302:86|378:59,1,140,4|8,0:0|0:0,0:0:0:0:
375,111,88861,2,0,L|524:143,2,140
353,155,89776,1,0,0:0:0:0:
261,120,90143,1,8,0:0:0:0:
163,125,90509,2,0,P|150:156|155:196,2,70,0|0|8,0:0|0:0|0:0,0:0:0:0:
74,83,91241,6,0,P|49:147|61:224,1,140,0|8,0:0|0:0,0:0:0:0:
124,287,91973,2,0,P|188:312|265:300,1,140,0|8,0:0|0:0,0:0:0:0:
344,257,92706,2,0,B|363:287|363:287|356:329,2,70,4|4|4,2:1|2:1|2:1,0:0:0:0:
257,211,93438,1,4,2:1:0:0:
257,211,93621,2,0,B|247:152|247:152|249:133|249:133|237:67,1,140,4|6,0:0|0:0,0:0:0:0:
267,33,94171,6,0,L|413:47,1,140,0|8,0:0|0:0,0:0:0:0:
390,142,94903,1,0,0:0:0:0:
471,216,95269,1,8,0:0:0:0:
471,216,95452,2,0,P|492:279|434:333,1,140,0|0,0:0|0:0,0:0:0:0:
415,367,96002,2,0,B|373:347|373:347|282:374,1,140,8|0,0:0|0:0,0:0:0:0:
198,325,96734,1,8,0:0:0:0:
105,356,97100,6,0,P|102:292|159:240,1,140,0|8,0:0|0:0,0:0:0:0:
212,163,97832,2,0,P|215:99|158:47,1,140,0|8,0:0|0:0,0:0:0:0:
114,53,98382,1,0,0:0:0:0:
87,93,98565,1,4,2:1:0:0:
13,157,98931,2,0,B|-16:109|-16:109|9:16,2,140,4|4|4,2:1|2:1|0:2,0:0:0:0:
74,233,100030,6,0,L|152:240,1,70,6|0,0:0|0:0,0:0:0:0:
218,302,100579,1,0,0:0:0:0:
218,302,100762,2,0,L|361:274,2,140,0|8|0,0:0|0:0|0:0,0:0:0:0:
142,364,101861,1,8,0:0:0:0:
44,361,102227,2,0,P|-3:306|8:237,1,140,0|8,0:0|0:0,0:0:0:0:
41,210,102776,1,0,0:0:0:0:
91,126,103142,6,0,L|76:55,2,70,0|0|0,2:0|2:0|2:0,0:0:0:0:
129,156,103692,1,8,2:3:0:0:
129,156,103875,2,0,B|203:145|190:192|267:184,1,140,4|0,2:3|0:0,0:0:0:0:
307,204,104424,1,4,2:1:0:0:
382,141,104790,1,4,2:1:0:0:
382,141,104973,2,0,P|408:201|381:275,1,140,4|4,2:1|2:1,0:0:0:0:
347,299,105522,1,4,0:2:0:0:
274,365,105889,6,0,B|167:376|208:270|94:284,1,210,4|0,0:2|0:0,0:0:0:0:
52,308,106621,2,0,P|77:248|72:149,1,140,0|8,0:0|0:0,0:0:0:0:
54,131,107170,1,0,0:0:0:0:
27,89,107353,1,0,0:0:0:0:
106,30,107720,2,0,L|179:45,1,70,8|0,0:0|0:0,0:0:0:0:
194,88,108086,2,0,L|354:66,1,140,0|8,0:0|0:0,0:0:0:0:
381,61,108635,1,0,0:0:0:0:
429,54,108818,5,2,0:0:0:0:
418,151,109184,1,8,0:0:0:0:
407,248,109551,2,0,P|412:285|428:323,1,70,0|0,0:0|0:0,0:0:0:0:
397,356,109917,2,0,L|312:345,1,70,8|0,0:0|0:0,0:0:0:0:
290,315,110283,2,0,L|135:348,1,140,4|4,2:1|2:1,0:0:0:0:
117,378,110832,1,4,2:1:0:0:
68,368,111015,2,0,B|50:338|50:338|63:298,1,70,4|4,2:1|2:1,0:0:0:0:
96,271,111381,6,0,B|120:216|120:216|72:137,1,140,6|6,0:0|0:0,0:0:0:0:
116,57,112114,1,8,0:0:0:0:
175,134,112480,2,0,P|245:141|288:88,1,140,0|8,0:0|0:0,0:0:0:0:
311,49,113029,1,0,0:0:0:0:
359,41,113212,1,0,0:0:0:0:
442,93,113579,2,0,L|435:164,1,70,8|0,0:0|0:0,0:0:0:0:
394,189,113945,2,0,L|423:326,1,140,0|8,0:0|0:0,0:0:0:0:
385,356,114494,1,0,0:0:0:0:
343,381,114677,5,4,0:2:0:0:
245,368,115043,1,8,0:0:0:0:
147,355,115410,2,0,L|129:275,1,70,0|0,0:0|0:0,0:0:0:0:
90,260,115776,2,0,L|72:180,1,70,8|0,0:0|0:0,0:0:0:0:
33,165,116142,2,0,P|9:97|20:26,1,140,4|4,0:0|0:0,0:0:0:0:
64,14,116691,1,4,0:0:0:0:
64,14,116874,2,0,L|137:22,1,70,4|6,0:0|0:0,0:0:0:0:
170,112,117424,1,6,0:0:0:0:
210,140,117607,6,0,B|317:151|276:45|389:59,1,210,6|0,0:0|0:0,0:0:0:0:
434,40,118339,2,0,P|443:108|473:182,1,140,0|8,0:0|0:0,0:0:0:0:
459,222,118888,1,0,0:0:0:0:
455,269,119071,1,0,0:0:0:0:
393,345,119438,2,0,L|315:330,1,70,8|0,0:0|0:0,0:0:0:0:
291,295,119804,2,0,L|151:323,1,140,0|8,0:0|0:0,0:0:0:0:
106,334,120353,1,0,0:0:0:0:
58,344,120536,5,2,0:0:0:0:
69,246,120902,1,8,0:0:0:0:
80,148,121269,2,0,L|151:133,1,70,0|0,0:0|0:0,0:0:0:0:
171,90,121635,2,0,L|242:75,1,70,8|0,0:0|0:0,0:0:0:0:
267,36,122001,2,0,L|455:74,1,140,4|4,2:1|2:1,0:0:0:0:
438,98,122550,1,4,2:1:0:0:
474,130,122733,2,0,P|461:161|456:210,1,70,4|4,2:1|2:1,0:0:0:0:
421,231,123100,2,0,P|449:294|455:368,1,140,6|6,0:0|0:0,0:0:0:0:
360,340,123832,5,8,0:0:0:0:
270,380,124198,2,0,P|226:337|143:355,1,140,0|8,0:0|0:0,0:0:0:0:
114,376,124747,1,0,0:0:0:0:
66,363,124930,1,0,0:0:0:0:
27,272,125297,2,0,L|38:203,1,70,8|0,0:0|0:0,0:0:0:0:
78,175,125663,2,0,P|80:105|38:35,1,140,0|8,0:0|0:0,0:0:0:0:
96,52,126212,1,0,0:0:0:0:
139,29,126395,5,2,0:0:0:0:
216,88,126761,1,8,0:0:0:0:
295,29,127128,2,0,P|328:43|372:46,1,70,0|0,0:0|0:0,0:0:0:0:
400,76,127494,2,0,L|420:148,1,70,0|0,0:0|0:0,0:0:0:0:
433,189,127860,5,4,2:1:0:0:
406,283,128226,1,4,2:1:0:0:
417,330,128409,2,0,P|376:340|338:367,1,70,4|4,2:1|2:1,0:0:0:0:
305,340,128775,2,0,B|265:364|265:364|175:338,1,140,6|6,0:0|0:0,0:0:0:0:
130,359,129325,1,6,0:0:0:0:
43,313,129691,5,2,0:3:0:0:
77,279,129874,2,0,P|79:245|58:205,1,70,0|0,0:0|0:0,0:0:0:0:
84,170,130240,2,0,P|52:104|-9:61,1,140,2|0,0:3|0:0,0:0:0:0:
0,65,130789,6,0,B|137:54|137:54|154:15|183:0,2,210,2|2|2,0:3|0:3|0:3,0:0:0:0:
8,162,132254,6,0,L|151:149,1,140,2|2,0:0|0:3,0:0:0:0:
192,168,132804,1,0,0:0:0:0:
234,192,132987,2,0,P|270:186|318:191,2,70,0|2|0,0:0|0:3|0:0,0:0:0:0:
189,279,133719,6,0,B|178:310|178:310|194:346,1,70,4|4,2:1|2:1,0:0:0:0:
235,368,134085,2,0,B|266:379|266:379|302:363,1,70,4|4,2:1|2:1,0:0:0:0:
329,325,134451,2,0,P|401:306|473:329,2,140,4|2|6,2:1|0:0|0:0,0:0:0:0:
231,312,135550,5,2,0:3:0:0:
197,278,135733,2,0,P|195:244|216:204,1,70,0|0,0:0|0:0,0:0:0:0:
190,169,136099,2,0,P|222:103|283:60,1,140,2|0,0:3|0:0,0:0:0:0:
272,69,136648,6,0,B|135:58|135:58|118:19|89:4,2,210,2|2|2,0:3|0:3|0:3,0:0:0:0:
344,135,138113,6,0,L|429:120,1,70,2|4,0:3|0:3,0:0:0:0:
461,114,138479,1,6,0:0:0:0:
429,257,139029,1,6,0:0:0:0:
292,201,139578,1,6,0:0:0:0:
206,320,140127,6,0,P|119:313|73:180,6,210,6|6|6|6|6|6|6,0:0|0:0|0:0|0:0|0:0|0:0|0:0,0:0:0:0:
345,330,143972,6,0,B|392:244|392:244|349:103,1,210,6|0,0:0|0:0,0:0:0:0:
347,88,144705,2,0,P|312:73|242:89,1,70,0|0,0:0|0:0,0:0:0:0:
234,88,145071,1,8,0:0:0:0:
154,30,145437,2,0,B|124:69|124:69|155:208,1,140,0|8,0:0|0:0,0:0:0:0:
92,241,146169,2,0,P|165:254|238:183,1,140,0|0,0:0|0:0,0:0:0:0:
253,186,146719,1,0,0:0:0:0:
297,206,146902,6,0,L|479:169,1,140,0|8,0:0|0:0,0:0:0:0:
379,97,147634,2,0,P|303:50|242:82,1,140,0|8,0:0|0:0,0:0:0:0:
162,61,148367,2,0,B|150:93|150:93|192:142,2,70,4|4|4,0:0|0:0|0:0,0:0:0:0:
72,22,149099,2,0,B|60:55|60:55|26:61,2,70,4|4|4,0:0|0:0|0:0,0:0:0:0:
80,135,149831,6,0,P|70:204|103:275,1,140,4|8,0:0|0:0,0:0:0:0:
188,301,150564,2,0,B|244:292|244:292|282:312|282:312|367:298,1,140,0|8,0:0|0:0,0:0:0:0:
371,290,151113,1,0,0:0:0:0:
371,290,151296,2,0,P|383:204|353:144,2,140,0|8|0,0:0|0:0|0:0,0:0:0:0:
317,372,152395,2,0,L|146:352,1,140,8|0,0:0|0:0,0:0:0:0:
187,258,153127,5,8,0:0:0:0:
263,197,153493,2,0,P|201:161|130:174,1,140,0|8,0:0|0:0,0:0:0:0:
103,134,154042,1,0,0:0:0:0:
59,157,154226,2,0,B|28:188|33:230|33:230|71:256|59:319,2,140,4|4|4,0:0|0:0|0:0,0:0:0:0:
140,207,155324,2,0,P|189:207|237:172,1,70,4|0,0:2|0:0,0:0:0:0:
237,160,155690,6,0,P|332:143|364:208,1,140,6|8,0:0|0:0,0:0:0:0:
351,265,156423,2,0,P|394:258|439:214,2,70,0|0|8,0:0|0:0|0:0,0:0:0:0:
277,326,157155,2,0,B|208:300|208:300|128:332,1,140,0|8,0:0|0:0,0:0:0:0:
57,285,157887,2,0,P|44:187|67:132,1,140,0|8,0:0|0:0,0:0:0:0:
87,111,158437,1,0,0:0:0:0:
87,111,158620,2,0,P|149:75|247:121,2,140,0|8|0,0:0|0:0|0:0,0:0:0:0:
163,172,159718,1,8,0:0:0:0:
260,181,160085,2,0,B|335:196|335:196|414:147,2,140,4|4|4,0:0|0:0|0:0,0:0:0:0:
308,95,161183,2,0,B|273:79|273:79|229:85,1,70,8|0,0:0|0:0,0:0:0:0:
204,106,161549,6,0,B|142:103|142:103|124:112|124:112|3:105,1,140,6|8,0:0|0:0,0:0:0:0:
26,198,162282,2,0,P|21:277|75:259,1,140,0|8,0:0|0:0,0:0:0:0:
132,212,163014,2,0,P|175:196|261:250,1,140,0|8,0:0|0:0,0:0:0:0:
285,274,163563,1,0,0:0:0:0:
232,356,163930,2,0,B|308:373|308:373|388:316,1,140
400,312,164479,2,0,B|417:267|417:267|403:220,1,70,2|0,0:3|0:0,0:0:0:0:
424,200,164845,6,0,P|355:165|273:208,1,140,6|0,0:0|0:0,0:0:0:0:
248,185,165394,2,0,P|179:220|97:177,1,140,6|4,0:0|0:3,0:0:0:0:
84,171,165944,2,0,B|52:264|52:264|68:312,1,140,6|4,0:0|0:3,0:0:0:0:
57,351,166493,2,0,L|204:328,1,140,6|0,0:0|0:0,0:0:0:0:
243,320,167042,1,6,0:0:0:0:
339,304,167408,6,0,P|387:219|342:111,1,210,6|0,0:0|0:0,0:0:0:0:
375,74,168141,2,0,B|331:64|313:35|313:35|287:61|220:66,1,140,0|8,0:0|0:0,0:0:0:0:
206,58,168690,1,0,0:0:0:0:
159,42,168873,1,0,0:0:0:0:
64,69,169239,2,0,L|76:158,1,70,8|0,0:0|0:0,0:0:0:0:
117,159,169605,2,0,L|91:305,1,140,0|8,0:0|0:0,0:0:0:0:
80,344,170155,1,0,0:0:0:0:
112,380,170338,5,2,0:0:0:0:
187,317,170704,1,8,0:0:0:0:
284,318,171070,2,0,L|376:301,1,70
400,294,171436,2,0,P|409:245|397:210,1,70,8|0,0:0|0:0,0:0:0:0:
365,196,171803,2,0,B|343:119|343:119|378:46,1,140,4|4,0:0|0:0,0:0:0:0:
328,37,172352,1,4,0:0:0:0:
280,24,172535,2,0,B|252:45|252:45|204:33,1,70
185,73,172901,6,0,P|103:84|58:143,1,140,6|6,0:0|0:0,0:0:0:0:
51,220,173634,1,8,0:0:0:0:
24,314,174000,2,0,L|178:275,1,140,0|8,0:0|0:0,0:0:0:0:
205,261,174549,1,0,0:0:0:0:
251,277,174732,1,0,0:0:0:0:
348,290,175098,2,0,P|389:263|431:267,1,70,8|0,0:0|0:0,0:0:0:0:
457,264,175464,2,0,P|482:181|456:116,1,140,0|8,0:0|0:0,0:0:0:0:
440,91,176014,1,0,0:0:0:0:
402,59,176197,5,6,0:0:0:0:
307,83,176563,1,8,0:0:0:0:
212,108,176929,2,0,P|197:144|204:204,1,70,0|0,0:0|0:0,0:0:0:0:
201,223,177295,2,0,P|216:259|209:319,1,70,8|0,0:0|0:0,0:0:0:0:
211,338,177662,2,0,P|296:313|356:350,1,140,4|0,0:0|0:0,0:0:0:0:
385,349,178211,1,4,0:0:0:0:
418,313,178394,2,0,L|429:210,1,70,4|6,0:0|0:0,0:0:0:0:
424,145,178943,1,6,0:0:0:0:
386,114,179126,6,0,B|328:88|279:122|301:141|259:176|188:148,1,210,6|0,0:0|0:0,0:0:0:0:
145,136,179859,2,0,P|81:170|77:256,1,140,0|8,0:0|0:0,0:0:0:0:
107,260,180408,1,0,0:0:0:0:
94,307,180591,1,0,0:0:0:0:
190,320,180957,2,0,P|231:325|284:293,1,70,8|0,0:0|0:0,0:0:0:0:
291,280,181323,2,0,B|366:266|366:266|429:302,1,140,0|8,0:0|0:0,0:0:0:0:
468,283,181873,1,0,0:0:0:0:
472,234,182056,5,2,0:0:0:0:
442,140,182422,1,8,0:0:0:0:
413,46,182788,2,0,L|332:32,1,70,0|0,0:0|0:0,0:0:0:0:
302,59,183154,2,0,L|233:70,1,70,8|0,0:0|0:0,0:0:0:0:
185,56,183521,2,0,P|166:129|202:193,1,140,4|4,0:0|0:0,0:0:0:0:
165,225,184070,1,4,0:0:0:0:
181,270,184253,2,0,P|228:269|262:222,1,70,4|4,0:0|0:0,0:0:0:0:
290,275,184619,6,0,B|319:243|362:248|362:248|390:280|455:264,1,140,6|6,0:0|0:0,0:0:0:0:
421,171,185352,1,8,0:0:0:0:
494,106,185718,2,0,P|429:71|358:90,1,140,0|8,0:0|0:0,0:0:0:0:
324,108,186267,1,0,0:0:0:0:
274,97,186450,1,0,0:0:0:0:
181,129,186816,2,0,P|143:132|91:112,1,70,8|0,0:0|0:0,0:0:0:0:
63,118,187183,2,0,P|31:180|52:251,1,140,0|8,0:0|0:0,0:0:0:0:
74,286,187732,1,0,0:0:0:0:
119,267,187915,5,2,0:0:0:0:
210,231,188281,1,8,0:0:0:0:
285,292,188647,2,0,P|323:273|365:279,1,70,0|0,0:0|0:0,0:0:0:0:
387,305,189013,2,0,P|425:324|467:318,1,70,0|0,0:0|0:0,0:0:0:0:
491,294,189380,5,4,2:1:0:0:
474,197,189746,1,4,2:1:0:0:
461,149,189929,2,0,P|434:133|383:131,1,70,4|4,2:1|2:1,0:0:0:0:
362,164,190295,2,0,L|212:130,1,140,6|6,0:0|0:0,0:0:0:0:
177,122,190844,1,6,0:0:0:0:
141,213,191211,5,2,0:3:0:0:
126,259,191394,2,0,L|206:239,1,70,0|0,0:0|0:0,0:0:0:0:
240,256,191760,2,0,P|313:261|351:326,1,140,2|0,0:3|0:0,0:0:0:0:
397,315,192309,6,0,B|426:283|422:241|422:241|367:169|431:101,2,210,2|2|2,0:3|0:3|0:3,0:0:0:0:
320,253,193774,6,0,L|166:229,1,140,2|0,0:1|0:0,0:0:0:0:
143,200,194323,1,0,0:0:0:0:
105,168,194506,2,0,P|102:115|131:76,2,70,0|2|0,0:0|0:3|0:0,0:0:0:0:
194,127,195239,6,0,L|283:108,1,70,4|0,2:1|0:0,0:0:0:0:
311,107,195605,2,0,L|379:121,1,70,4|4,2:1|2:1,0:0:0:0:
427,132,195971,2,0,B|455:200|455:200|430:279,2,140,4|6|6,2:1|0:0|0:0,0:0:0:0:
361,205,197070,5,2,0:3:0:0:
325,238,197253,2,0,P|290:234|237:271,1,70,0|0,0:0|0:0,0:0:0:0:
228,285,197619,2,0,B|139:320|139:320|78:293,1,140,2|0,0:3|0:0,0:0:0:0:
56,278,198168,6,0,B|40:194|40:194|55:144|55:144|36:58,2,210,2|2|2,0:3|0:3|0:3,0:0:0:0:
136,221,199633,6,0,P|195:187|279:224,1,140,2|0,0:0|0:0,0:0:0:0:
293,241,200182,1,0,0:0:0:0:
318,283,200365,2,0,L|302:368,1,70
407,245,201098,6,0,L|416:161,1,70,4|0,0:0|0:0,0:0:0:0:
447,139,201464,2,0,L|439:69,1,70,4|0,0:0|0:0,0:0:0:0:
400,39,201830,1,4,0:0:0:0:
356,62,202013,2,0,B|289:92|289:92|163:49,1,140,6|2,0:0|0:0,0:0:0:0:
179,55,202562,1,6,0:0:0:0:
91,105,202929,5,0,0:0:0:0:
83,153,203112,2,0,P|105:189|93:247,1,70,0|0,0:0|0:0,0:0:0:0:
91,262,203478,2,0,P|170:237|224:277,1,140,0|0,0:0|0:0,0:0:0:0:
232,309,204027,6,0,B|256:357|318:347|318:347|377:304|447:359,2,210,0|0|0,0:0|0:0|0:0,0:0:0:0:
294,233,205492,6,0,B|264:163|264:163|286:76,1,140,6|0,0:0|0:0,0:0:0:0:
295,54,206041,1,0,0:0:0:0:
271,11,206224,2,0,L|359:-4,2,70
182,54,206957,6,0,B|147:39|147:39|93:49,1,70,4|0,0:0|0:0,0:0:0:0:
84,83,207323,2,0,B|49:98|49:98|-5:88,1,70,4|0,0:0|0:0,0:0:0:0:
7,140,207689,2,0,B|-5:191|-5:191|41:312,2,140,4|6|6,0:0|0:0|0:0,0:0:0:0:
90,190,208788,5,0,0:0:0:0:
108,235,208971,2,0,L|195:200,1,70
221,201,209337,2,0,B|291:179|291:179|330:192|331:234,1,140
342,275,209886,6,0,P|408:298|483:187,2,210,0|0|0,0:0|0:0|0:0,0:0:0:0:
392,190,211351,5,6,0:0:0:0:
401,92,211717,1,0,0:0:0:0:
354,75,211900,2,0,P|325:56|262:63,1,70,0|0,0:0|0:0,0:0:0:0:
242,64,212266,2,0,B|214:51|214:51|199:50|199:50|152:29,2,70,4|0|4,0:3|0:0|0:3,0:0:0:0:
227,111,212816,6,0,P|214:158|240:216,1,70,4|4,0:0|0:0,0:0:0:0:
243,219,213182,2,0,P|245:253|233:286,1,70,4|4,0:0|0:0,0:0:0:0:
209,328,213548,1,4,0:0:0:0:
224,374,213731,2,0,L|394:341,1,140,6|6,0:0|0:0,0:0:0:0:
398,315,214280,5,6,0:0:0:0:
398,315,215013,6,0,L|385:156,2,140
359,344,215928,1,0,0:0:0:0:
316,322,216111,1,0,0:0:0:0:
298,225,216478,2,0,P|227:247|229:314,1,140,0|0,0:0|0:0,0:0:0:0:
140,355,217210,5,6,0:0:0:0:
137,351,218675,5,0,0:0:0:0:
212,287,219041,2,0,L|197:205,1,70
222,174,219407,2,0,P|256:176|298:150,1,70
315,119,219773,1,0,0:0:0:0:
408,150,220139,1,6,0:0:0:0:
64,167,221604,6,0,P|53:98|80:35,1,140,0|0,0:0|0:0,0:0:0:0:
127,22,222154,1,0,0:0:0:0:
164,55,222337,1,0,0:0:0:0:
260,76,222703,2,0,P|293:62|315:36,2,70,0|0|0,0:0|0:0|0:0,0:0:0:0:
164,56,223435,6,0,P|172:123|234:174,1,140,0|0,0:0|0:0,0:0:0:0:
235,217,223984,2,0,P|297:186|366:181,1,140,0|0,0:0|0:0,0:0:0:0:
406,210,224534,5,4,2:1:0:0:
402,306,224900,2,0,P|361:304|325:316,1,70,4|0,2:1|0:0,0:0:0:0:
247,358,225449,6,0,B|192:338|192:338|169:339|169:339|114:319,1,140,4|6,1:2|0:0,0:0:0:0:
68,302,225999,1,6,0:0:0:0:
139,119,226731,6,0,P|207:114|223:181,1,140,0|0,0:0|0:0,0:0:0:0:
208,217,227280,1,0,0:0:0:0:
169,245,227463,2,0,L|24:201,2,140,0|0|0,0:0|0:0|0:0,0:0:0:0:
232,320,228562,1,0,0:0:0:0:
320,276,228928,5,6,0:0:0:0:
441,87,230393,6,0,L|455:169,1,70
426,196,230759,2,0,P|401:177|360:175,1,70,0|0,0:3|0:0,0:0:0:0:
327,141,231125,2,0,P|296:164|245:161,1,70,2|0,0:3|0:0,0:0:0:0:
234,204,231491,2,0,L|90:176,1,140,6|6,0:0|0:0,0:0:0:0:
64,269,232224,5,0,0:0:0:0:
133,339,232590,2,0,P|209:346|237:292,1,140,0|0,0:0|0:0,0:0:0:0:
335,287,233322,2,0,L|421:310,2,70,0|0|0,0:0|0:0|0:0,0:0:0:0:
237,297,234055,2,0,P|234:228|198:161,1,140,0|0,0:0|0:0,0:0:0:0:
139,91,234787,6,0,P|171:72|235:73,1,70,2|4,0:3|0:3,0:0:0:0:
217,19,235153,2,0,P|270:51|367:62,1,140,6|0,0:0|0:0,0:0:0:0:
394,50,235703,1,6,0:0:0:0:
446,133,236069,1,0,0:0:0:0:
400,147,236252,6,0,P|368:200|357:297,1,140,6|0,0:0|0:0,0:0:0:0:
333,319,236801,2,0,P|270:361|209:329,1,140,6|0,0:0|0:0,0:0:0:0:
186,299,237350,1,6,0:0:0:0:
136,214,237717,5,6,0:0:0:0:
