osu file format v14

[General]
AudioFilename: audio.mp3
AudioLeadIn: 0
PreviewTime: 48821
Countdown: 0
SampleSet: Soft
StackLeniency: 0.3
Mode: 0
LetterboxInBreaks: 0
WidescreenStoryboard: 1

[Editor]
Bookmarks: 21236,69386,77786,126986,135686,251411
DistanceSpacing: 1.2
BeatDivisor: 16
GridSize: 4
TimelineZoom: 2

[Metadata]
Title:To My Love (Tainy Remix)
TitleUnicode:To My Love (Tainy Remix)
Artist:Bomba Estereo
ArtistUnicode:Bomba Estéreo
Creator:Gero
Version:Intenso de ezek
Source:
Tags:Alternative Alternativo Reggaeton Pop Español Latino Americano LATAM Todo Mi Amor Amanecer (Remixed) Spanish Underground Colombia Cumbia Dancehall Todo SME Sony Music Reguetón ezek BigCat exected Krfawy
BeatmapID:1892620
BeatmapSetID:812804

[Difficulty]
HPDrainRate:6
CircleSize:4
OverallDifficulty:6
ApproachRate:8.5
SliderMultiplier:1.4
SliderTickRate:4

[Events]
//Background and Video events
Video,520,"Video.mp4"
0,0,"BG.jpg",0,0
//Break Periods
2,69386,77786
2,126986,135686
//Storyboard Layer 0 (Background)
//Storyboard Layer 1 (Fail)
//Storyboard Layer 2 (Pass)
//Storyboard Layer 3 (Foreground)
//Storyboard Layer 4 (Overlay)
//Storyboard Sound Samples

[TimingPoints]
2186,600,4,2,1,70,1,0
21386,-50,4,2,1,70,0,0
39386,-100,4,2,1,20,0,0
39986,-50,4,2,1,30,0,0
40586,-50,4,2,1,70,0,0
50186,-40,4,2,1,70,0,1
69386,-100,4,2,1,70,0,0
78986,-50,4,2,1,70,0,0
107786,-40,4,2,1,70,0,1
126986,-100,4,2,1,70,0,0
136586,-133.333333333333,4,2,1,70,0,0
144986,-83.3333333333333,4,2,1,70,0,0
146186,-100,4,2,1,70,0,0
174986,-83.3333333333333,4,2,1,70,0,0
183386,-1000,4,2,1,70,0,0
184586,-40,4,2,1,70,0,1
203711,-40,4,2,1,70,0,0
203786,-40,4,2,1,70,0,1
222686,-66.6666666666667,4,2,2,50,0,1
222986,-66.6666666666667,4,2,2,45,0,0
225086,-71.4285714285714,4,2,2,40,0,0
227486,-76.9230769230769,4,2,2,35,0,0
229886,-83.3333333333333,4,2,2,30,0,0
232286,-90.9090909090909,4,2,2,45,0,0
234986,-100,4,2,2,40,0,0
237386,-111.111111111111,4,2,2,35,0,0
239786,-125,4,2,2,30,0,0
242111,-142.857142857143,4,2,2,30,0,0
242186,-142.857142857143,4,2,2,5,0,0
244511,-142.857142857143,4,2,2,25,0,0
244586,-142.857142857143,4,2,2,5,0,0
246911,-142.857142857143,4,2,2,20,0,0
246986,-142.857142857143,4,2,2,5,0,0
249311,-142.857142857143,4,2,2,15,0,0
249386,-142.857142857143,4,2,2,5,0,0

[Colours]
Combo1 : 197,118,65
Combo2 : 234,91,91
Combo3 : 121,65,197
Combo4 : 55,156,189
Combo5 : 200,45,169
Combo6 : 237,44,72
Combo7 : 124,124,124
Combo8 : 232,179,19
SliderBorder : 200,200,200
SliderTrackOverride : 175,65,211

[HitObjects]
256,20,21236,5,0,0:0:0:0:
192,84,21386,2,0,P|256:108|320:84,1,140,4|0,3:0|0:0,0:0:0:0:
392,40,21836,1,0,1:0:0:0:
460,88,21986,2,0,L|460:248,1,140,4|0,3:0|1:0,0:0:0:0:
392,280,22436,1,0,0:0:0:0:
324,228,22586,6,0,B|256:212|256:212|188:228,1,140,4|0,3:0|0:0,0:0:0:0:
124,280,23036,1,0,1:0:0:0:
188,332,23186,2,0,B|256:348|256:348|324:332,1,140,4|2,3:0|1:3,0:0:0:0:
392,280,23636,1,0,0:0:0:0:
324,228,23786,6,0,L|312:88,1,140,4|0,3:0|0:0,0:0:0:0:
256,28,24236,1,0,1:0:0:0:
200,88,24386,2,0,L|188:228,1,140,4|0,3:0|1:0,0:0:0:0:
84,360,24986,6,0,B|36:332|36:284|36:284|36:236,1,140,4|0,3:0|0:0,0:0:0:0:
104,192,25436,1,0,1:0:0:0:
36,145,25586,2,0,B|36:100|36:100|36:52|84:24,1,140,4|2,3:0|1:3,0:0:0:0:
160,60,26036,1,0,0:0:0:0:
236,24,26186,5,4,3:0:0:0:
236,24,26336,1,2,0:0:0:0:
364,132,26636,2,0,P|430:145|489:110,1,140,0|2,1:0|0:0,0:0:0:0:
489,273,27236,2,0,P|430:238|364:252,1,140,0|2,0:0|0:0,0:0:0:0:
236,360,27836,5,0,1:0:0:0:
92,276,28136,1,2,0:0:0:0:
92,108,28436,1,0,0:0:0:0:
236,24,28736,1,2,0:0:0:0:
380,108,29036,1,0,1:0:0:0:
380,108,29186,2,0,B|452:108|452:108|512:144,1,140,0|0,0:0|1:0,0:0:0:0:
456,304,29786,6,0,P|380:300|324:328,1,140,4|0,3:0|0:0,0:0:0:0:
256,376,30236,1,0,1:0:0:0:
187,327,30386,2,0,P|125:298|56:304,1,140,4|2,3:0|1:3,0:0:0:0:
44,136,30986,6,0,B|96:112|96:112|136:128|176:112,1,140,4|0,3:0|0:0,0:0:0:0:
256,80,31436,1,0,1:0:0:0:
336,112,31586,2,0,B|376:128|416:112|416:112|468:136,1,140,4|0,3:0|1:0,0:0:0:0:
508,212,32036,1,0,0:0:0:0:
448,272,32186,6,0,P|376:284|316:260,1,140,4|0,3:0|0:0,0:0:0:0:
256,200,32636,1,0,1:0:0:0:
196,259,32786,2,0,P|132:284|64:272,1,140,4|2,3:0|1:3,0:0:0:0:
48,188,33236,1,0,0:0:0:0:
132,172,33386,6,0,L|108:380,2,210,4|0|0,3:0|1:0|1:0,0:0:0:0:
380,172,34586,2,0,L|404:380,2,210,4|0|2,3:0|1:0|1:3,0:0:0:0:
512,28,35786,6,0,P|448:8|380:28,1,140,4|0,3:0|0:0,0:0:0:0:
316,84,36236,1,0,1:0:0:0:
380,140,36386,2,0,B|380:196|380:196|396:216|396:216|396:276,1,140,4|0,3:0|1:0,0:0:0:0:
444,344,36836,1,0,0:0:0:0:
360,344,36986,6,0,L|228:292,1,140,4|0,3:0|0:0,0:0:0:0:
152,264,37436,1,0,1:0:0:0:
132,344,37586,2,0,P|68:364|0:344,1,140,4|2,3:0|1:3,0:0:0:0:
44,272,38036,6,0,B|52:240|52:240|44:204,1,70,0|4,0:0|3:0,0:0:0:0:
0,132,38336,2,0,B|-8:100|-8:100|0:64,1,70,0|0,0:0|0:0,0:0:0:0:
60,4,38636,1,0,1:0:0:0:
116,64,38786,2,0,B|152:80|180:68|184:64|188:60|216:48|252:64,1,140,4|0,3:0|1:0,0:0:0:0:
196,200,39386,6,0,L|169:301,1,105,2|2,3:2|3:2,0:0:0:0:
448,344,40286,2,0,L|468:376,2,35,2|2|2,3:0|3:0|3:0,0:0:0:0:
412,268,40586,6,0,B|380:204|380:204|452:168|448:88,2,210,8|8|8,1:2|1:2|1:2,0:0:0:0:
256,348,41786,1,0,0:0:0:0:
256,348,41936,2,0,B|240:312|252:284|256:280|260:276|272:248|256:212,1,140,8|0,1:2|0:0,0:0:0:0:
208,144,42386,1,8,1:2:0:0:
176,308,42686,1,0,0:0:0:0:
104,352,42836,1,0,0:0:0:0:
100,268,42986,6,0,B|132:204|132:204|60:168|64:88,2,210,8|8|8,1:2|1:2|1:2,0:0:0:0:
256,348,44186,1,0,0:0:0:0:
256,348,44336,2,0,B|272:312|260:284|256:280|252:276|240:248|256:212,1,140,8|0,1:2|0:0,0:0:0:0:
304,144,44786,1,8,1:2:0:0:
336,308,45086,1,0,0:0:0:0:
408,352,45236,1,0,0:0:0:0:
404,268,45386,6,0,P|381:171|464:118,2,210,8|8|8,1:2|1:2|1:2,0:0:0:0:
256,348,46586,1,0,0:0:0:0:
256,348,46736,2,0,B|240:312|252:284|256:280|260:276|272:248|256:212,1,140,8|0,1:2|0:0,0:0:0:0:
208,144,47186,1,8,1:2:0:0:
176,308,47486,1,0,0:0:0:0:
104,352,47636,1,0,0:0:0:0:
107,268,47786,6,0,P|130:171|47:118,2,210,8|8|8,1:2|1:2|1:2,0:0:0:0:
320,232,48986,6,0,L|368:240,2,46.6666666666667,2|0|0,1:0|1:0|1:0,0:0:0:0:
232,288,49286,2,0,L|184:280,2,46.6666666666667,0|0|0,1:0|1:0|1:0,0:0:0:0:
248,216,49586,2,0,L|256:168,2,46.6666666666667,2|0|0,1:0|1:0|1:0,0:0:0:0:
304,304,49886,2,0,L|296:352,2,46.6666666666667,0|0|0,1:0|1:0|1:0,0:0:0:0:
420,116,50186,6,0,P|457:192|420:268,1,175,4|0,1:0|0:0,0:0:0:0:
348,192,50636,1,10,1:2:0:0:
248,216,50786,2,0,P|204:228|164:216,1,87.5,4|0,3:0|0:0,0:0:0:0:
100,84,51086,2,0,P|144:72|184:84,1,87.5,2|0,1:2|0:0,0:0:0:0:
36,192,51386,6,0,B|0:272|0:272|36:352,1,175,6|0,3:0|0:0,0:0:0:0:
124,292,51836,1,2,1:2:0:0:
212,352,51986,2,0,L|308:352,1,87.5,6|0,3:0|0:0,0:0:0:0:
452,284,52286,2,0,L|356:284,1,87.5,2|0,1:2|0:0,0:0:0:0:
456,80,52586,6,0,B|476:120|520:136|520:136|476:152|456:192,1,175,6|0,3:0|0:0,0:0:0:0:
368,136,53036,1,2,1:2:0:0:
280,192,53186,2,0,B|256:220|256:248|256:248|256:280,1,87.5,4|0,3:0|0:0,0:0:0:0:
184,136,53486,2,0,B|208:108|208:80|208:80|208:48,1,87.5,2|0,1:2|0:0,0:0:0:0:
40,120,53786,6,0,B|13:161|36:204|40:204|43:204|66:248|40:288,1,175,6|2,3:0|3:0,0:0:0:0:
132,340,54236,1,2,1:2:0:0:
224,288,54386,2,0,B|264:288|264:288|304:316,1,87.5,6|8,3:0|3:0,0:0:0:0:
436,240,54686,2,0,B|396:240|396:240|356:212,1,87.5,2|2,1:2|3:0,0:0:0:0:
176,36,54986,6,0,B|192:22|212:8|240:8|240:8|272:8|272:8|300:8|316:21|336:36,1,175,6|0,3:0|0:0,0:0:0:0:
336,140,55436,2,0,B|319:153|300:168|272:168|272:168|240:168|240:168|212:168|195:154|176:140,1,175,2|0,1:2|0:0,0:0:0:0:
84,88,55886,2,0,P|40:76|0:88,1,87.5,2|0,1:2|0:0,0:0:0:0:
40,244,56186,6,0,L|165:365,1,175,6|0,3:0|0:0,0:0:0:0:
256,296,56636,1,2,1:2:0:0:
256,296,56786,2,0,L|256:204,1,87.5,6|0,3:0|0:0,0:0:0:0:
409,305,57086,2,0,L|346:365,1,87.5,2|2,1:2|3:0,0:0:0:0:
500,216,57386,6,0,B|500:152|500:152|500:92|448:56,1,175,6|0,3:0|0:0,0:0:0:0:
352,20,57836,1,2,1:2:0:0:
280,100,57986,2,0,P|268:140|280:184,1,87.5,4|0,3:0|0:0,0:0:0:0:
160,92,58286,2,0,P|172:52|160:8,1,87.5,2|0,1:2|0:0,0:0:0:0:
40,184,58586,6,0,B|4:264|4:264|40:344,1,175,6|2,3:0|3:0,0:0:0:0:
112,264,59036,1,2,1:2:0:0:
252,348,59186,2,0,B|296:356|296:356|339:348,1,87.5,14|8,3:0|3:0,0:0:0:0:
198,264,59486,2,0,B|156:256|156:256|110:264,1,87.5,2|2,1:2|3:0,0:0:0:0:
200,92,59786,6,0,B|240:72|256:28|256:28|272:72|312:92,1,175,6|0,3:0|0:0,0:0:0:0:
256,180,60236,1,2,1:2:0:0:
308,272,60386,2,0,B|352:272|352:272|384:244,1,87.5,4|0,3:0|0:0,0:0:0:0:
204,272,60686,2,0,B|160:272|160:272|128:244,1,87.5,2|0,1:2|0:0,0:0:0:0:
56,166,60986,6,0,P|20:242|54:320,1,175,6|0,3:0|0:0,0:0:0:0:
148,368,61436,1,2,1:2:0:0:
244,320,61586,2,0,P|288:308|328:320,1,87.5,6|0,3:0|0:0,0:0:0:0:
503,367,61886,2,0,P|461:379|420:368,1,87.5,2|0,1:2|0:0,0:0:0:0:
416,264,62186,6,0,L|449:92,1,175,6|0,3:0|0:0,0:0:0:0:
368,24,62636,1,2,1:2:0:0:
280,80,62786,2,0,B|236:92|236:92|196:80,1,87.5,4|0,3:0|0:0,0:0:0:0:
24,24,63086,2,0,B|64:12|64:12|108:24,1,87.5,2|0,1:2|0:0,0:0:0:0:
152,176,63386,6,0,L|185:348,1,175,6|2,3:0|3:0,0:0:0:0:
256,272,63836,1,2,1:2:0:0:
84,236,63986,2,0,L|-8:248,1,87.5,6|8,3:0|3:0,0:0:0:0:
98,359,64286,2,0,L|190:347,1,87.5,2|2,1:2|3:0,0:0:0:0:
360,272,64586,6,0,P|308:214|256:272,1,175,6|0,3:0|0:0,0:0:0:0:
408,156,65036,2,0,P|460:214|512:156,1,175,2|0,1:2|0:0,0:0:0:0:
384,72,65486,2,0,B|336:72|336:72|308:100,1,87.5,2|0,1:2|0:0,0:0:0:0:
256,192,65786,6,0,L|256:8,1,175,6|0,3:0|0:0,0:0:0:0:
128,72,66236,1,2,1:2:0:0:
128,72,66386,2,0,B|176:72|176:72|204:100,1,87.5,6|0,3:0|0:0,0:0:0:0:
152,192,66686,2,0,P|136:232|152:272,1,87.5,2|2,1:2|3:0,0:0:0:0:
300,352,66986,6,0,B|264:332|256:280|256:280|248:332|212:352,1,175,6|0,3:0|0:0,0:0:0:0:
360,271,67436,1,2,1:2:0:0:
360,271,67586,2,0,P|375:231|360:192,1,87.5,4|0,3:0|0:0,0:0:0:0:
443,48,67886,2,0,P|427:88|444:128,1,87.5,2|0,1:2|0:0,0:0:0:0:
328,40,68186,6,0,B|276:40|256:0|256:0|236:40|184:40,1,175,4|2,3:0|3:0,0:0:0:0:
116,120,68636,1,2,1:2:0:0:
184,200,68786,1,4,3:0:0:0:
116,280,68936,1,8,3:0:0:0:
184,360,69086,1,4,3:0:0:0:
60,88,78836,5,0,0:0:0:0:
60,88,78986,2,0,B|116:88|116:88|140:68|140:68|192:68,1,140,4|0,3:0|0:0,0:0:0:0:
256,124,79436,1,0,1:0:0:0:
320,68,79586,2,0,B|372:68|372:68|396:88|396:88|452:88,1,140,4|0,3:0|1:0,0:0:0:0:
508,152,80036,1,0,0:0:0:0:
508,152,80186,6,0,P|528:216|508:284,1,140,4|0,3:0|0:0,0:0:0:0:
452,348,80636,1,0,1:0:0:0:
380,308,80786,2,0,L|240:308,1,140,4|2,3:0|1:3,0:0:0:0:
164,348,81236,1,0,0:0:0:0:
164,348,81386,6,0,P|184:284|164:216,1,140,4|0,3:0|0:0,0:0:0:0:
84,240,81836,1,0,1:0:0:0:
84,240,81986,2,0,P|64:176|84:108,1,140,4|0,3:0|1:0,0:0:0:0:
232,24,82586,6,0,P|288:64|300:132,1,140,4|2,3:0|3:0,0:0:0:0:
240,192,83036,1,0,1:0:0:0:
300,253,83186,2,0,P|287:320|232:360,1,140,4|2,3:0|1:3,0:0:0:0:
148,372,83636,1,0,0:0:0:0:
176,292,83786,5,4,3:0:0:0:
176,292,83936,1,2,0:0:0:0:
44,192,84236,1,0,1:0:0:0:
176,92,84536,1,2,0:0:0:0:
256,240,84836,1,0,0:0:0:0:
336,92,85136,1,2,0:0:0:0:
468,192,85436,1,0,1:0:0:0:
384,336,85736,6,0,B|336:312|336:272|336:272|336:204,1,140,2|0,0:0|0:0,0:0:0:0:
128,336,86336,2,0,B|176:312|176:272|176:272|176:204,1,140,2|0,0:0|1:0,0:0:0:0:
256,188,86786,2,0,L|256:328,1,140,4|0,3:0|1:0,0:0:0:0:
420,364,87386,6,0,B|472:320|472:320|472:248,1,140,4|2,3:0|3:0,0:0:0:0:
408,192,87836,1,0,1:0:0:0:
472,136,87986,2,0,B|472:64|472:64|420:20,1,140,4|2,3:0|1:3,0:0:0:0:
288,120,88586,6,0,B|255:141|221:123|221:120|221:117|186:99|154:120,1,140,4|0,3:0|0:0,0:0:0:0:
108,192,89036,1,0,1:0:0:0:
154,264,89186,2,0,B|186:285|221:267|221:264|221:261|255:243|288:264,1,140,4|0,3:0|1:0,0:0:0:0:
368,288,89636,1,0,0:0:0:0:
444,252,89786,6,0,B|480:192|480:192|444:132,1,140,4|0,3:0|0:0,0:0:0:0:
368,96,90236,1,0,1:0:0:0:
368,96,90386,2,0,L|308:132,1,70,4|0,3:0|0:0,0:0:0:0:
256,200,90686,2,0,L|256:272,1,70,0|0,1:0|0:0,0:0:0:0:
204,132,90986,6,0,P|152:92|12:112,2,210,4|0|0,3:0|1:0|1:0,0:0:0:0:
180,312,92186,2,0,P|232:352|372:332,2,210,4|0|2,3:0|1:0|1:3,0:0:0:0:
412,180,93386,5,4,3:0:0:0:
412,180,93536,2,0,B|428:148|428:148|444:116|440:80|412:52,1,140,2|0,0:0|1:0,0:0:0:0:
256,116,94136,1,2,0:0:0:0:
100,52,94436,2,0,B|72:80|68:116|84:148|84:148|100:180,1,140,0|2,0:0|0:0,0:0:0:0:
256,240,95036,5,0,1:0:0:0:
412,180,95336,1,2,0:0:0:0:
340,332,95636,1,0,0:0:0:0:
172,332,95936,1,2,0:0:0:0:
100,180,96236,1,0,1:0:0:0:
100,180,96386,6,0,P|124:120|192:96,1,140,4|0,3:0|1:0,0:0:0:0:
256,252,96986,2,0,L|256:328,1,70,4|2,3:0|0:3,0:0:0:0:
412,180,97436,1,0,1:0:0:0:
412,180,97586,2,0,P|388:120|320:96,1,140,4|2,3:0|3:0,0:0:0:0:
256,148,98036,1,2,3:0:0:0:
191,95,98186,6,0,B|134:100|134:100|66:168|66:168|60:225,2,210,8|8|8,1:2|1:2|1:2,0:0:0:0:
320,203,99386,1,0,0:0:0:0:
320,204,99536,2,0,B|256:232|256:232|192:204,1,140,8|0,1:2|0:0,0:0:0:0:
256,148,99986,1,8,1:2:0:0:
328,300,100286,1,0,0:0:0:0:
256,344,100436,1,0,0:0:0:0:
191,289,100586,6,0,B|134:284|134:284|66:216|66:216|60:159,2,210,8|8|8,1:2|1:2|1:2,0:0:0:0:
320,181,101786,1,0,0:0:0:0:
320,180,101936,2,0,B|256:152|256:152|192:180,1,140,8|0,1:2|0:0,0:0:0:0:
256,236,102386,1,8,1:2:0:0:
212,76,102686,1,0,0:0:0:0:
256,4,102836,1,0,0:0:0:0:
300,76,102986,6,0,B|348:44|400:72|400:76|400:80|452:108|500:76,2,210,8|8|8,1:2|1:2|1:2,0:0:0:0:
192,204,104186,1,0,0:0:0:0:
192,205,104336,2,0,B|256:233|256:233|320:205,1,140,8|0,1:2|0:0,0:0:0:0:
256,149,104786,1,8,1:2:0:0:
300,312,105086,1,0,0:0:0:0:
256,384,105236,1,0,0:0:0:0:
212,312,105386,6,0,B|164:280|112:308|112:312|112:316|60:344|12:312,2,210,8|8|8,1:2|1:2|1:2,0:0:0:0:
420,264,106586,6,0,L|468:256,2,46.6666666666667,2|0|0,1:0|1:0|1:0,0:0:0:0:
332,208,106886,2,0,L|284:216,2,46.6666666666667,0|0|0,1:0|1:0|1:0,0:0:0:0:
348,280,107186,2,0,L|356:328,2,46.6666666666667,2|0|0,1:0|1:0|1:0,0:0:0:0:
404,192,107486,2,0,L|396:144,2,46.6666666666667,0|0|0,1:0|1:0|1:0,0:0:0:0:
332,72,107786,6,0,B|280:72|280:72|256:46|256:46|232:72|232:72|180:72,1,175,4|0,1:0|0:0,0:0:0:0:
104,148,108236,1,10,1:2:0:0:
160,236,108386,2,0,P|180:276|180:320,1,87.5,4|0,3:0|0:0,0:0:0:0:
331,318,108686,2,0,P|332:274|352:236,1,87.5,2|0,1:2|0:0,0:0:0:0:
256,364,108986,6,0,L|256:184,1,175,6|0,3:0|0:0,0:0:0:0:
256,84,109436,1,2,1:2:0:0:
168,28,109586,2,0,B|140:48|140:80|140:80|140:108,1,87.5,4|0,3:0|0:0,0:0:0:0:
344,28,109886,2,0,B|372:48|372:80|372:80|372:108,1,87.5,2|0,1:2|0:0,0:0:0:0:
340,264,110186,6,0,B|299:291|256:268|256:264|256:261|212:238|172:264,1,175,6|0,3:0|0:0,0:0:0:0:
84,324,110636,1,2,1:2:0:0:
84,324,110786,2,0,L|32:232,1,87.5,4|0,3:0|0:0,0:0:0:0:
84,116,111086,2,0,L|136:208,1,87.5,2|0,1:2|0:0,0:0:0:0:
220,340,111386,6,0,P|304:360|388:340,1,175,6|2,3:0|3:0,0:0:0:0:
488,300,111836,1,2,1:2:0:0:
400,240,111986,2,0,L|316:272,1,87.5,6|8,3:0|3:0,0:0:0:0:
404,140,112286,2,0,L|488:172,1,87.5,2|2,1:2|3:0,0:0:0:0:
424,4,112586,6,0,B|372:16|344:60|344:60|304:124,1,175,6|0,3:0|0:0,0:0:0:0:
208,124,113036,2,0,B|168:60|168:60|140:16|88:4,1,175,2|0,1:2|0:0,0:0:0:0:
88,108,113486,2,0,L|136:180,1,87.5,2|0,1:2|0:0,0:0:0:0:
336,256,113786,6,0,B|256:220|256:220|176:256,1,175,6|0,3:0|0:0,0:0:0:0:
324,348,114236,1,2,1:2:0:0:
324,348,114386,2,0,P|356:348|404:320,1,87.5,6|0,3:0|0:0,0:0:0:0:
188,348,114686,2,0,P|156:348|108:320,1,87.5,2|2,1:2|3:0,0:0:0:0:
336,256,114986,6,0,B|256:292|256:292|176:256,1,175,6|0,3:0|0:0,0:0:0:0:
328,92,115436,1,2,1:2:0:0:
328,92,115586,2,0,L|336:184,1,87.5,4|0,3:0|0:0,0:0:0:0:
176,179,115886,2,0,L|184:92,1,87.5,2|0,1:2|0:0,0:0:0:0:
296,260,116186,6,0,B|337:287|380:264|380:260|380:257|424:234|464:260,1,175,6|2,3:0|3:0,0:0:0:0:
256,164,116636,1,2,1:2:0:0:
328,92,116786,1,14,3:0:0:0:
184,92,116936,1,8,3:0:0:0:
256,240,117086,2,0,L|256:332,1,87.5,2|2,1:2|3:0,0:0:0:0:
96,144,117386,6,0,B|52:148|28:192|28:192|52:236|96:240,1,175,6|0,3:0|0:0,0:0:0:0:
192,192,117836,1,2,1:2:0:0:
288,236,117986,2,0,L|368:272,1,87.5,4|0,3:0|0:0,0:0:0:0:
288,148,118286,2,0,L|368:112,1,87.5,2|0,1:2|0:0,0:0:0:0:
488,112,118586,6,0,P|520:192|488:272,1,175,6|0,3:0|0:0,0:0:0:0:
396,320,119036,1,2,1:2:0:0:
300,272,119186,2,0,P|256:260|216:272,1,87.5,6|0,3:0|0:0,0:0:0:0:
41,319,119486,2,0,P|83:331|124:320,1,87.5,2|0,1:2|0:0,0:0:0:0:
128,216,119786,6,0,L|20:72,1,175,6|0,3:0|0:0,0:0:0:0:
112,16,120236,1,2,1:2:0:0:
200,72,120386,2,0,B|244:84|244:84|284:72,1,87.5,4|0,3:0|0:0,0:0:0:0:
456,16,120686,2,0,B|416:4|416:4|372:16,1,87.5,2|0,1:2|0:0,0:0:0:0:
328,168,120986,6,0,B|328:232|328:232|304:272|304:272|304:340,1,175,6|2,3:0|3:0,0:0:0:0:
216,280,121436,1,2,1:2:0:0:
416,200,121586,2,0,P|460:188|500:200,1,87.5,6|8,3:0|3:0,0:0:0:0:
387,335,121886,2,0,P|343:347|303:335,1,87.5,2|2,1:2|3:0,0:0:0:0:
152,240,122186,6,0,P|184:164|152:80,1,175,6|0,3:0|0:0,0:0:0:0:
80,160,122636,2,0,P|48:236|80:320,1,175,2|0,1:2|0:0,0:0:0:0:
228,320,123086,2,0,L|308:284,1,87.5,2|0,1:2|0:0,0:0:0:0:
408,192,123386,6,0,B|367:165|324:188|324:192|324:195|280:218|240:192,1,175,6|0,3:0|0:0,0:0:0:0:
228,64,123836,1,2,1:2:0:0:
228,64,123986,2,0,L|308:100,1,87.5,6|0,3:0|0:0,0:0:0:0:
240,192,124286,2,0,L|144:192,1,87.5,2|2,1:2|3:0,0:0:0:0:
344,336,124586,6,0,B|376:312|392:264|392:264|376:216|344:192,1,175,6|0,3:0|0:0,0:0:0:0:
240,192,125036,1,2,1:2:0:0:
240,192,125186,2,0,L|152:192,1,87.5,4|0,3:0|0:0,0:0:0:0:
288,108,125486,2,0,L|376:108,1,87.5,2|0,1:2|0:0,0:0:0:0:
153,48,125786,6,0,B|121:72|105:120|105:120|121:168|153:192,1,175,4|2,3:0|3:0,0:0:0:0:
256,220,126236,1,2,1:2:0:0:
176,288,126386,1,4,3:0:0:0:
256,356,126536,1,8,3:0:0:0:
336,288,126686,1,4,3:0:0:0:
464,40,136586,6,0,L|472:92,1,52.5000020027161,8|0,0:0|0:0,0:0:0:0:
384,132,137036,1,8,0:0:0:0:
384,132,137186,2,0,L|388:80,1,52.5000020027161,2|8,0:0|0:0,0:0:0:0:
256,153,137786,1,0,0:0:0:0:
256,153,137936,2,0,L|256:231,1,78.7500030040742,8|8,0:0|0:0,0:0:0:0:
48,40,138986,6,0,L|40:92,1,52.5000020027161,8|0,0:0|0:0,0:0:0:0:
128,132,139436,1,8,0:0:0:0:
128,132,139586,2,0,L|124:80,1,52.5000020027161,2|8,0:0|0:0,0:0:0:0:
256,153,140186,1,0,0:0:0:0:
256,153,140336,2,0,L|256:231,1,78.7500030040742,8|8,0:0|0:0,0:0:0:0:
456,304,141386,6,0,P|444:328|444:360,1,52.5000020027161,8|0,0:0|0:0,0:0:0:0:
368,256,141836,1,8,0:0:0:0:
368,256,141986,2,0,L|408:220,1,52.5000020027161,2|8,0:0|0:0,0:0:0:0:
256,153,142586,1,0,0:0:0:0:
256,153,142736,2,0,L|256:231,1,78.7500030040742,8|8,0:0|0:0,0:0:0:0:
56,304,143786,6,0,P|68:328|68:360,1,52.5000020027161,8|0,0:0|0:0,0:0:0:0:
144,256,144236,1,8,0:0:0:0:
144,256,144386,2,0,L|104:220,1,52.5000020027161,2|8,0:0|0:0,0:0:0:0:
360,348,144986,6,0,L|356:304,5,27.9999991455078,2|2|2|2|2|2,3:0|3:0|3:0|3:0|3:0|3:0,0:0:0:0:
416,276,145586,2,0,L|420:232,5,27.9999991455078,2|2|2|2|2|2,3:0|3:0|3:0|3:0|3:0|3:0,0:0:0:0:
460,192,146186,5,2,3:0:0:0:
460,192,146336,2,0,P|427:204|396:192,1,70,2|0,0:0|0:0,0:0:0:0:
351,173,146786,2,0,P|318:161|287:173,1,70,2|0,0:0|0:0,0:0:0:0:
240,192,147236,2,0,B|207:213|172:195|172:192|172:189|137:171|105:192,1,140,2|0,0:0|0:0,0:0:0:0:
60,208,147986,6,0,B|52:244|52:244|60:276,1,70,2|0,0:0|0:0,0:0:0:0:
104,300,148436,2,0,B|112:336|112:336|104:368,1,70,2|2,0:0|0:0,0:0:0:0:
392,269,150836,6,0,P|426:267|452:244,1,70,2|0,0:0|0:0,0:0:0:0:
452,140,151436,2,0,P|426:116|392:114,1,70,2|0,0:0|0:0,0:0:0:0:
304,160,152036,1,2,0:0:0:0:
208,160,152336,1,0,0:0:0:0:
119,114,152636,2,0,P|85:116|59:140,1,70,2|0,0:0|0:0,0:0:0:0:
60,244,153236,2,0,P|88:268|124:268,1,70,2|0,0:0|0:0,0:0:0:0:
208,224,153836,1,2,0:0:0:0:
340,48,155636,6,0,L|372:120,1,70,2|0,0:0|0:0,0:0:0:0:
172,48,156236,2,0,L|140:120,1,70,2|0,0:0|0:0,0:0:0:0:
332,184,156836,2,0,P|340:220|332:252,1,70,2|0,0:0|0:0,0:0:0:0:
180,184,157436,2,0,P|172:220|180:252,1,70,2|0,0:0|0:0,0:0:0:0:
256,356,158036,5,2,0:0:0:0:
256,356,158336,1,0,0:0:0:0:
88,360,160436,6,0,B|88:344|88:344|88:312|68:296,1,70,2|0,0:0|0:0,0:0:0:0:
192,192,161036,2,0,L|180:264,1,70,2|0,0:0|0:0,0:0:0:0:
331,261,161636,2,0,L|320:192,1,70,2|0,0:0|0:0,0:0:0:0:
444,296,162236,2,0,B|424:312|424:344|424:344|424:360,1,70,2|0,0:0|0:0,0:0:0:0:
256,304,162836,5,2,0:0:0:0:
256,192,163136,1,0,0:0:0:0:
256,80,163436,1,2,0:0:0:0:
400,336,165236,5,2,0:0:0:0:
464,260,165536,1,0,0:0:0:0:
392,192,165836,1,2,0:0:0:0:
344,104,166136,1,0,0:0:0:0:
256,148,166436,1,2,0:0:0:0:
168,104,166736,1,0,0:0:0:0:
120,192,167036,1,2,0:0:0:0:
48,260,167336,1,0,0:0:0:0:
112,336,167636,2,0,L|148:336,1,35,2|0,0:0|0:0,0:0:0:0:
32,40,170036,5,2,0:0:0:0:
116,92,170336,1,0,0:0:0:0:
200,144,170636,2,0,P|192:176|200:212,1,70,2|0,0:0|0:0,0:0:0:0:
256,292,171236,2,0,L|256:376,2,70,2|0|2,0:0|0:0|0:0,0:0:0:0:
312,211,172136,2,0,P|320:177|312:144,1,70,0|2,0:0|0:0,0:0:0:0:
396,92,172736,1,0,0:0:0:0:
480,40,173036,1,2,0:0:0:0:
48,40,174686,5,0,0:0:0:0:
48,40,174836,1,0,0:0:0:0:
48,40,174986,2,0,P|36:80|48:120,1,83.9999974365235,8|2,0:0|0:0,0:0:0:0:
68,168,175436,2,0,P|80:208|68:248,1,83.9999974365235,8|2,0:0|0:0,0:0:0:0:
40,288,175886,1,8,0:0:0:0:
176,356,176336,1,8,0:0:0:0:
256,228,176786,1,8,0:0:0:0:
464,344,177236,5,0,0:0:0:0:
464,344,177386,2,0,P|476:304|464:264,1,83.9999974365235,8|2,0:0|0:0,0:0:0:0:
444,216,177836,2,0,P|432:176|444:136,1,83.9999974365235,8|2,0:0|0:0,0:0:0:0:
472,96,178286,1,8,0:0:0:0:
336,28,178736,1,8,0:0:0:0:
256,156,179186,1,8,0:0:0:0:
256,192,179786,12,2,183386,0:0:0:0:
312,292,184586,6,0,B|272:312|256:356|256:356|240:312|200:292,1,175,4|0,1:0|0:0,0:0:0:0:
124,220,185036,1,10,1:2:0:0:
196,144,185186,2,0,B|196:100|196:100|168:68,1,87.5,4|0,3:0|0:0,0:0:0:0:
344,68,185486,2,0,B|316:100|316:100|316:144,1,87.5,2|0,1:2|0:0,0:0:0:0:
512,220,185786,6,0,B|471:247|428:224|428:220|428:217|384:194|344:220,1,175,6|0,3:0|0:0,0:0:0:0:
256,276,186236,1,2,1:2:0:0:
168,216,186386,2,0,P|120:204|84:216,1,87.5,6|0,3:0|0:0,0:0:0:0:
40,308,186686,2,0,P|88:320|124:308,1,87.5,2|0,1:2|0:0,0:0:0:0:
256,196,186986,6,0,L|256:12,1,175,6|0,3:0|0:0,0:0:0:0:
168,80,187436,1,2,1:2:0:0:
84,20,187586,2,0,P|36:8|0:20,1,87.5,4|0,3:0|0:0,0:0:0:0:
0,124,187886,2,0,P|48:136|84:124,1,87.5,2|0,1:2|0:0,0:0:0:0:
256,21,188186,6,0,B|297:-6|340:17|340:21|340:24|384:47|424:21,1,175,6|2,3:0|3:0,0:0:0:0:
500,96,188636,1,2,1:2:0:0:
428,172,188786,2,0,B|416:216|416:216|428:256,1,87.5,6|8,3:0|3:0,0:0:0:0:
328,372,189086,2,0,B|340:332|340:332|328:288,1,87.5,2|2,1:2|3:0,0:0:0:0:
224,96,189386,6,0,B|148:96|148:96|92:96|64:140,1,175,6|0,3:0|0:0,0:0:0:0:
64,244,189836,2,0,B|92:288|148:288|148:288|224:288,1,175,2|0,1:2|0:0,0:0:0:0:
264,192,190286,2,0,L|176:192,1,87.5,2|0,1:2|0:0,0:0:0:0:
356,248,190586,6,0,B|376:208|420:192|420:192|376:176|356:136,1,175,6|0,3:0|0:0,0:0:0:0:
452,88,191036,1,2,1:2:0:0:
452,88,191186,2,0,L|544:88,1,87.5,6|0,3:0|0:0,0:0:0:0:
356,24,191486,2,0,L|268:24,1,87.5,2|2,1:2|3:0,0:0:0:0:
108,112,191786,6,0,B|72:192|72:192|108:272,1,175,6|0,3:0|0:0,0:0:0:0:
180,348,192236,1,2,1:2:0:0:
180,348,192386,2,0,P|220:333|259:348,1,87.5,4|0,3:0|0:0,0:0:0:0:
403,265,192686,2,0,P|363:281|323:264,1,87.5,2|0,1:2|0:0,0:0:0:0:
472,184,192986,6,0,B|508:264|508:264|472:344,1,175,6|2,3:0|3:0,0:0:0:0:
403,265,193436,1,2,1:2:0:0:
259,348,193586,2,0,L|180:300,1,87.5,14|8,3:0|3:0,0:0:0:0:
328,219,193886,2,0,L|407:267,1,87.5,2|2,1:2|3:0,0:0:0:0:
180,72,194186,6,0,B|232:72|232:72|256:46|256:46|280:72|280:72|332:72,1,175,6|0,3:0|0:0,0:0:0:0:
408,148,194636,1,2,1:2:0:0:
352,236,194786,2,0,P|332:276|332:320,1,87.5,4|0,3:0|0:0,0:0:0:0:
181,318,195086,2,0,P|180:274|160:236,1,87.5,2|0,1:2|0:0,0:0:0:0:
256,364,195386,6,0,L|256:184,1,175,6|0,3:0|0:0,0:0:0:0:
256,84,195836,1,2,1:2:0:0:
344,28,195986,2,0,B|372:48|372:80|372:80|372:108,1,87.5,6|0,3:0|0:0,0:0:0:0:
168,28,196286,2,0,B|140:48|140:80|140:80|140:108,1,87.5,2|0,1:2|0:0,0:0:0:0:
172,264,196586,6,0,B|213:291|256:268|256:264|256:261|300:238|340:264,1,175,6|0,3:0|0:0,0:0:0:0:
428,324,197036,1,2,1:2:0:0:
428,324,197186,2,0,L|480:232,1,87.5,4|0,3:0|0:0,0:0:0:0:
428,116,197486,2,0,L|376:208,1,87.5,2|0,1:2|0:0,0:0:0:0:
292,340,197786,6,0,P|208:360|124:340,1,175,6|2,3:0|3:0,0:0:0:0:
24,300,198236,1,2,1:2:0:0:
112,240,198386,2,0,L|196:272,1,87.5,6|8,3:0|3:0,0:0:0:0:
108,140,198686,2,0,L|24:172,1,87.5,2|2,1:2|3:0,0:0:0:0:
88,4,198986,6,0,B|140:16|168:60|168:60|208:124,1,175,6|0,3:0|0:0,0:0:0:0:
304,124,199436,2,0,B|344:60|344:60|372:16|424:4,1,175,2|0,1:2|0:0,0:0:0:0:
424,108,199886,2,0,L|376:180,1,87.5,2|0,1:2|0:0,0:0:0:0:
176,256,200186,6,0,B|256:220|256:220|336:256,1,175,6|0,3:0|0:0,0:0:0:0:
188,348,200636,1,2,1:2:0:0:
188,348,200786,2,0,P|156:348|108:320,1,87.5,6|0,3:0|0:0,0:0:0:0:
324,348,201086,2,0,P|356:348|404:320,1,87.5,2|2,1:2|3:0,0:0:0:0:
176,256,201386,6,0,B|256:292|256:292|336:256,1,175,6|0,3:0|0:0,0:0:0:0:
184,92,201836,1,2,1:2:0:0:
184,92,201986,2,0,L|176:184,1,87.5,4|0,3:0|0:0,0:0:0:0:
335,179,202286,2,0,L|328:92,1,87.5,2|0,1:2|0:0,0:0:0:0:
216,260,202586,6,0,B|175:287|132:264|132:260|132:257|88:234|48:260,1,175,4|2,3:0|3:0,0:0:0:0:
256,164,203036,1,2,1:2:0:0:
184,92,203186,5,4,3:0:0:0:
328,92,203336,1,8,3:0:0:0:
256,240,203486,2,0,L|256:332,1,87.5,2|4,1:2|3:0,0:0:0:0:
420,116,203786,6,0,B|452:156|452:156|452:228|452:228|420:268,1,175,6|0,3:0|0:0,0:0:0:0:
344,192,204236,1,2,1:2:0:0:
268,264,204386,2,0,P|224:276|184:264,1,87.5,4|0,3:0|0:0,0:0:0:0:
184,119,204686,2,0,P|226:107|268:120,1,87.5,2|0,1:2|0:0,0:0:0:0:
104,192,204986,6,0,B|72:168|56:120|56:120|72:72|104:48,1,175,6|0,3:0|0:0,0:0:0:0:
184,119,205436,1,2,1:2:0:0:
260,48,205586,2,0,B|300:32|300:32|344:48,1,87.5,6|0,3:0|0:0,0:0:0:0:
509,108,205886,2,0,B|468:124|468:124|428:108,1,87.5,2|0,1:2|0:0,0:0:0:0:
256,208,206186,6,0,B|220:288|220:288|256:368,1,175,6|0,3:0|0:0,0:0:0:0:
324,288,206636,1,2,1:2:0:0:
396,364,206786,2,0,L|484:348,1,87.5,4|0,3:0|0:0,0:0:0:0:
512,248,207086,2,0,L|436:264,1,87.5,2|0,1:2|0:0,0:0:0:0:
184,132,207386,6,0,B|236:132|256:92|256:92|276:132|328:132,1,175,6|2,3:0|3:0,0:0:0:0:
256,208,207836,1,2,1:2:0:0:
324,288,207986,2,0,B|324:336|324:336|348:368,1,87.5,6|8,3:0|3:0,0:0:0:0:
188,288,208286,2,0,B|188:336|188:336|164:368,1,87.5,2|2,1:2|3:0,0:0:0:0:
76,200,208586,6,0,B|100:148|100:148|164:164|204:108,1,175,6|0,3:0|0:0,0:0:0:0:
309,109,209036,2,0,B|348:164|412:148|412:148|436:200,1,175,2|0,1:2|0:0,0:0:0:0:
384,312,209486,2,0,B|336:312|336:312|308:284,1,87.5,2|0,1:2|0:0,0:0:0:0:
256,192,209786,6,0,L|256:376,1,175,6|0,3:0|0:0,0:0:0:0:
128,312,210236,1,2,1:2:0:0:
128,312,210386,2,0,B|176:312|176:312|204:284,1,87.5,6|0,3:0|0:0,0:0:0:0:
152,192,210686,2,0,P|136:152|152:112,1,87.5,2|2,1:2|3:0,0:0:0:0:
300,32,210986,6,0,B|264:52|256:104|256:104|248:52|212:32,1,175,6|0,3:0|0:0,0:0:0:0:
360,113,211436,1,2,1:2:0:0:
360,113,211586,2,0,P|375:153|360:192,1,87.5,4|0,3:0|0:0,0:0:0:0:
443,336,211886,2,0,P|427:296|444:256,1,87.5,2|0,1:2|0:0,0:0:0:0:
328,332,212186,6,0,B|292:368|256:380|256:380|220:368|184:332,1,175,6|2,3:0|3:0,0:0:0:0:
256,256,212636,1,2,1:2:0:0:
172,192,212786,2,0,L|156:104,1,87.5,14|8,3:0|3:0,0:0:0:0:
355,105,213086,2,0,L|340:192,1,87.5,2|2,1:2|3:0,0:0:0:0:
200,12,213386,6,0,B|248:24|256:72|256:72|264:24|312:12,1,175,6|0,3:0|0:0,0:0:0:0:
156,105,213836,1,2,1:2:0:0:
156,105,213986,2,0,B|116:129|116:180,1,87.5,4|0,3:0|0:0,0:0:0:0:
356,105,214286,2,0,B|396:129|396:180,1,87.5,2|0,1:2|0:0,0:0:0:0:
208,280,214586,6,0,B|167:307|124:284|124:280|124:277|80:254|40:280,1,175,6|0,3:0|0:0,0:0:0:0:
280,356,215036,1,2,1:2:0:0:
280,356,215186,2,0,L|296:268,1,87.5,6|0,3:0|0:0,0:0:0:0:
356,105,215486,2,0,L|340:193,1,87.5,2|0,1:2|0:0,0:0:0:0:
188,112,215786,6,0,P|104:92|20:112,1,175,6|0,3:0|0:0,0:0:0:0:
88,192,216236,1,2,1:2:0:0:
20,272,216386,2,0,P|12:316|20:360,1,87.5,4|0,3:0|0:0,0:0:0:0:
152,360,216686,2,0,P|160:316|152:272,1,87.5,2|0,1:2|0:0,0:0:0:0:
296,232,216986,6,0,L|468:276,1,175,6|2,3:0|3:0,0:0:0:0:
216,152,217436,1,2,1:2:0:0:
216,152,217586,2,0,L|132:128,1,87.5,6|8,3:0|3:0,0:0:0:0:
296,152,217886,2,0,L|380:128,1,87.5,2|2,1:2|3:0,0:0:0:0:
64,216,218186,6,0,P|136:268|208:236,1,175,6|0,3:0|0:0,0:0:0:0:
304,236,218636,2,0,P|381:267|448:216,1,175,2|0,1:2|0:0,0:0:0:0:
256,160,219086,2,0,L|256:68,1,87.5,2|0,1:2|0:0,0:0:0:0:
208,296,219386,6,0,B|256:369|256:369|304:296,1,175,6|0,3:0|0:0,0:0:0:0:
144,160,219836,1,2,1:2:0:0:
144,160,219986,2,0,B|104:160|104:160|96:164|96:164|56:164,1,87.5,6|0,3:0|0:0,0:0:0:0:
368,160,220286,2,0,B|408:160|408:160|416:164|416:164|456:164,1,87.5,2|2,1:2|3:0,0:0:0:0:
256,20,220586,6,0,L|256:200,1,175,6|0,3:0|0:0,0:0:0:0:
196,280,221036,1,2,1:2:0:0:
196,280,221186,2,0,P|152:292|112:280,1,87.5,6|0,3:0|0:0,0:0:0:0:
316,280,221486,2,0,P|360:292|400:280,1,87.5,2|0,1:2|0:0,0:0:0:0:
176,156,221786,6,0,B|256:120|256:120|336:156,1,175,6|2,3:0|3:0,0:0:0:0:
256,352,222236,1,2,1:2:0:0:
256,352,222386,2,0,L|256:264,1,87.5,4|4,3:0|3:0,0:0:0:0:
256,100,222686,5,2,3:0:0:0:
256,100,222836,1,2,3:0:0:0:
256,100,222986,1,2,0:0:0:0:
32,228,223286,5,0,0:0:0:0:
32,156,223436,1,0,0:0:0:0:
96,192,223586,1,2,0:0:0:0:
364,312,224186,5,2,0:0:0:0:
364,312,224336,2,0,P|312:328|264:312,1,105.000004005432,2|2,0:0|0:0,0:0:0:0:
432,192,225086,5,0,0:0:0:0:
432,120,225236,1,0,0:0:0:0:
368,156,225386,1,2,0:0:0:0:
256,80,225686,5,0,0:0:0:0:
256,8,225836,1,0,0:0:0:0:
320,44,225986,1,2,0:0:0:0:
88,192,226586,5,2,0:0:0:0:
88,192,226736,2,0,P|140:208|184:192,1,97.9999970092774,2|2,0:0|0:0,0:0:0:0:
320,316,227486,5,0,0:0:0:0:
256,352,227636,1,0,0:0:0:0:
192,316,227786,1,2,0:0:0:0:
320,240,228086,5,0,0:0:0:0:
384,204,228236,1,0,0:0:0:0:
448,240,228386,1,2,0:0:0:0:
256,20,228986,5,2,0:0:0:0:
256,20,229136,2,0,L|256:124,1,90.9999958343508,2|2,0:0|0:0,0:0:0:0:
192,316,229886,5,0,0:0:0:0:
256,352,230036,1,0,0:0:0:0:
320,316,230186,1,2,0:0:0:0:
192,240,230486,5,0,0:0:0:0:
128,204,230636,1,0,0:0:0:0:
64,240,230786,1,2,0:0:0:0:
256,20,231386,5,2,0:0:0:0:
256,20,231536,2,0,L|256:120,1,83.9999974365235,2|2,0:0|0:0,0:0:0:0:
320,276,232286,6,0,L|316:324,2,38.5000011749268,0|0|2,0:0|0:0|0:0,0:0:0:0:
192,276,232886,6,0,L|196:324,2,38.5000011749268,0|0|2,0:0|0:0|0:0,0:0:0:0:
436,228,233786,5,2,0:0:0:0:
436,228,233936,2,0,B|451:192|451:192|436:156,1,77.0000023498536,2|2,0:0|0:0,0:0:0:0:
80,192,234686,5,0,0:0:0:0:
80,120,234836,1,0,0:0:0:0:
144,156,234986,1,2,0:0:0:0:
256,80,235286,5,0,0:0:0:0:
256,8,235436,1,0,0:0:0:0:
192,44,235586,1,2,0:0:0:0:
424,192,236186,5,2,0:0:0:0:
424,192,236336,2,0,P|388:200|356:192,1,70,2|2,0:0|0:0,0:0:0:0:
192,316,237086,5,0,0:0:0:0:
256,352,237236,1,0,0:0:0:0:
320,316,237386,1,2,0:0:0:0:
192,240,237686,5,0,0:0:0:0:
128,204,237836,1,0,0:0:0:0:
64,240,237986,1,2,0:0:0:0:
256,20,238586,5,2,0:0:0:0:
256,20,238736,2,0,L|256:104,1,62.9999980773926,2|2,0:0|0:0,0:0:0:0:
320,316,239486,5,0,0:0:0:0:
256,352,239636,1,0,0:0:0:0:
192,316,239786,1,2,0:0:0:0:
320,240,240086,5,0,0:0:0:0:
384,204,240236,1,0,0:0:0:0:
448,240,240386,1,2,0:0:0:0:
256,20,240986,5,2,0:0:0:0:
256,20,241136,2,0,L|256:96,1,56,2|2,0:0|0:0,0:0:0:0:
52,215,242111,6,0,P|80:362|215:299,1,342.999989532471,2|0,0:0|3:0,0:0:0:0:
220,212,244511,6,0,B|256:44|256:44|292:212,1,342.999989532471,2|0,0:0|3:0,0:0:0:0:
297,300,246911,6,0,P|432:361|460:215,1,342.999989532471,2|0,0:0|3:0,0:0:0:0:
256,192,249311,12,2,251411,0:0:0:0:
