osu file format v14

[General]
AudioFilename: audio.mp3
AudioLeadIn: 0
PreviewTime: 48821
Countdown: 0
SampleSet: Soft
StackLeniency: 0.4
Mode: 0
LetterboxInBreaks: 0
WidescreenStoryboard: 1

[Editor]
Bookmarks: 16586,69386,77786,126986,136586,251411
DistanceSpacing: 1.2
BeatDivisor: 16
GridSize: 4
TimelineZoom: 2

[Metadata]
Title:To My Love (Tainy Remix)
TitleUnicode:To My Love (Tainy Remix)
Artist:Bomba Estereo
ArtistUnicode:Bomba Estéreo
Creator:Gero
Version:Dificil de Krfawy
Source:
Tags:Alternative Alternativo Reggaeton Pop Español Latino Americano LATAM Todo Mi Amor Amanecer (Remixed) Spanish Underground Colombia Cumbia Dancehall Todo SME Sony Music Reguetón ezek BigCat exected Krfawy
BeatmapID:1928883
BeatmapSetID:812804

[Difficulty]
HPDrainRate:5
CircleSize:4
OverallDifficulty:5
ApproachRate:6.5
SliderMultiplier:1.2
SliderTickRate:4

[Events]
//Background and Video events
Video,520,"Video.mp4"
0,0,"BG.jpg",0,0
//Break Periods
2,69586,77786
2,127186,135611
2,148785,150011
2,153585,154811
2,158386,159611
2,163185,164411
2,167986,169211
2,172785,174011
//Storyboard Layer 0 (Background)
//Storyboard Layer 1 (Fail)
//Storyboard Layer 2 (Pass)
//Storyboard Layer 3 (Foreground)
//Storyboard Layer 4 (Overlay)
//Storyboard Sound Samples

[TimingPoints]
2186,600,4,2,1,70,1,0
21386,-50,4,2,1,70,0,0
39386,-100,4,2,1,20,0,0
39986,-50,4,2,1,30,0,0
40586,-50,4,2,1,70,0,0
50186,-45.4545454545455,4,2,1,70,0,1
69386,-100,4,2,1,25,0,0
78836,-100,4,2,1,70,0,0
78986,-50,4,2,1,70,0,0
107786,-45.4545454545455,4,2,1,70,0,1
126986,-100,4,2,1,70,0,0
136586,-100,4,2,1,70,0,0
146186,-100,4,2,1,25,0,0
146486,-100,4,2,1,70,0,0
174986,-100,4,2,1,70,0,0
183386,-1000,4,2,1,70,0,0
184586,-45.4545454545455,4,2,1,70,0,1
203711,-45.4545454545455,4,2,1,70,0,0
203786,-45.4545454545455,4,2,1,70,0,1
222686,-66.6666666666667,4,2,2,50,0,1
222986,-66.6666666666667,4,2,2,45,0,0
225086,-66.6666666666667,4,2,2,40,0,0
227486,-66.6666666666667,4,2,2,35,0,0
229886,-66.6666666666667,4,2,2,30,0,0
232286,-66.6666666666667,4,2,2,45,0,0
234986,-66.6666666666667,4,2,2,40,0,0
237386,-66.6666666666667,4,2,2,35,0,0
239786,-66.6666666666667,4,2,2,30,0,0
242111,-100,4,2,2,30,0,0
242186,-100,4,2,2,5,0,0
244511,-100,4,2,2,25,0,0
244586,-100,4,2,2,5,0,0
246911,-100,4,2,2,20,0,0
246986,-100,4,2,2,5,0,0
249311,-100,4,2,2,15,0,0
249386,-100,4,2,2,5,0,0

[Colours]
Combo1 : 197,118,65
Combo2 : 234,91,91
Combo3 : 121,65,197
Combo4 : 55,156,189
Combo5 : 200,45,169
Combo6 : 237,44,72
Combo7 : 124,124,124
Combo8 : 232,179,19
SliderBorder : 200,200,200
SliderTrackOverride : 175,65,211

[HitObjects]
256,192,16586,12,2,20186,0:0:0:0:
438,181,21236,5,2,0:0:0:0:
426,192,21386,6,0,P|342:220|258:192,1,180,4|2,1:0|3:2,0:0:0:0:
205,140,21986,2,0,B|225:160|233:192|233:192|225:224|205:244,2,120,8|0|0,1:2|3:0|1:0,0:0:0:0:
152,5,23036,1,2,3:2:0:0:
140,16,23186,2,0,B|303:59,1,120,8|4,1:2|1:2,0:0:0:0:
365,140,23786,6,0,B|421:136|453:192|421:248|365:244,1,180,2|2,1:2|3:2,0:0:0:0:
313,192,24386,1,8,1:2:0:0:
256,46,24686,1,2,3:2:0:0:
147,140,24986,2,0,B|91:136|59:192|91:248|147:244,1,180,0|2,1:0|3:2,0:0:0:0:
199,192,25586,1,8,1:2:0:0:
256,46,25886,6,0,B|337:24,2,60,4|0|2,1:2|3:0|1:2,0:0:0:0:
85,192,26636,1,2,3:2:0:0:
97,203,26786,2,0,B|153:225|153:225|209:203,1,120,8|2,1:2|3:2,0:0:0:0:
256,46,27386,1,0,1:0:0:0:
427,192,27836,1,2,3:2:0:0:
415,203,27986,2,0,B|359:225|359:225|303:203,1,120,8|4,1:2|1:2,0:0:0:0:
332,62,28586,6,0,B|421:97|421:97|429:97|429:97|426:104|426:104|435:103|435:103|495:127,2,180,0|2|2,1:0|3:2|1:2,0:0:0:0:
180,62,29786,2,0,B|90:97|90:97|82:97|82:97|85:104|85:104|76:103|76:103|16:127,2,180,0|2|4,1:0|3:2|1:2,0:0:0:0:
256,162,30986,6,0,B|288:246|288:246|256:330,1,180,2|2,1:2|3:2,0:0:0:0:
244,342,31586,2,0,B|184:186,1,120,8|2,1:2|3:2,0:0:0:0:
162,76,32186,1,0,1:0:0:0:
350,76,32636,1,2,3:2:0:0:
356,91,32786,2,0,B|416:247,1,120,8|4,1:2|1:2,0:0:0:0:
359,342,33386,6,0,B|325:252|325:252|325:244|325:244|318:247|318:247|319:238|319:238|296:177,2,180,0|2|2,1:0|3:2|1:2,0:0:0:0:
499,307,34586,1,0,1:0:0:0:
447,97,35036,1,2,3:2:0:0:
441,82,35186,1,8,1:2:0:0:
306,136,35486,6,0,L|238:163,2,60,4|0|2,1:2|3:0|1:2,0:0:0:0:
321,130,35936,1,0,3:0:0:0:
420,226,36236,2,0,B|442:282|442:282|420:338,1,120,2|0,3:2|3:0,0:0:0:0:
305,312,36836,6,0,B|327:285|355:282|355:282|330:269|318:237,2,120,0|2|2,3:0|0:0|3:2,0:0:0:0:
207,312,37736,2,0,B|184:285|156:282|156:282|181:269|193:237,2,120,2|4|2,3:2|3:2|3:2,0:0:0:0:
256,176,38636,1,2,3:2:0:0:
256,160,38786,2,0,B|253:108|253:108|261:93|261:93|256:42,2,120,8|2|4,1:2|3:2|0:1,0:0:0:0:
256,160,40286,5,2,3:2:0:0:
327,284,40586,2,0,B|373:303|402:290|414:284|424:279|454:264|501:284,2,180,0|0|2,1:0|1:0|1:2,0:0:0:0:
333,278,41936,2,0,P|431:226|403:163,1,180,0|2,1:0|1:2,0:0:0:0:
185,284,42986,2,0,B|138:303|109:290|97:284|87:279|57:264|10:284,2,180,0|0|2,1:0|1:0|1:2,0:0:0:0:
179,278,44336,2,0,P|81:226|109:163,1,180,0|2,1:0|1:2,0:0:0:0:
256,192,45386,12,2,48986,3:2:0:0:
256,160,50186,5,6,1:0:0:0:
454,160,50636,1,2,3:1:0:0:
473,160,50786,2,0,B|483:198|461:236|461:236|434:281,1,132.00000402832,8|2,1:0|3:2,0:0:0:0:
277,295,51386,2,0,B|335:194|335:194|337:182|337:182|344:186|344:186|347:173|347:173|405:73,2,264.000008056641,2|10|2,1:0|1:0|1:0,0:0:0:0:
179,123,53036,1,2,3:1:0:0:
191,107,53186,2,0,B|126:98|126:98|61:107,1,132.00000402832,8|2,1:0|3:2,0:0:0:0:
14,258,53786,6,0,L|144:240,1,132.00000402832,2|2,1:0|3:2,0:0:0:0:
156,256,54236,1,2,3:1:0:0:
168,272,54386,2,0,B|140:288|131:324|131:324|140:360|168:376,1,132.00000402832,8|4,1:0|3:2,0:0:0:0:
288,324,54986,5,2,1:0:0:0:
58,224,55436,1,2,3:1:0:0:
39,224,55586,2,0,B|29:186|51:148|51:148|78:103,1,132.00000402832,8|2,1:0|3:2,0:0:0:0:
235,89,56186,2,0,B|177:190|177:190|175:202|175:202|168:198|168:198|165:211|165:211|107:311,2,264.000008056641,2|10|2,1:0|1:0|1:0,0:0:0:0:
333,261,57836,1,2,3:1:0:0:
321,277,57986,2,0,B|386:286|386:286|451:277,1,132.00000402832,8|2,1:0|3:2,0:0:0:0:
498,126,58586,6,0,L|368:144,1,132.00000402832,2|2,1:0|3:2,0:0:0:0:
356,128,59036,1,2,3:1:0:0:
344,112,59186,2,0,B|372:96|381:60|381:60|372:24|344:8,1,132.00000402832,8|4,1:0|3:2,0:0:0:0:
224,60,59786,6,0,B|267:134|267:134|272:159|272:159|315:233,1,198.000006042481,2|2,1:0|3:1,0:0:0:0:
325,251,60386,2,0,B|363:261|401:239|401:239|446:212,1,132.00000402832,8|2,1:0|3:2,0:0:0:0:
508,66,60986,2,0,B|371:145|371:145|421:116|435:65,1,264.000008056641,2|10,1:0|1:0,0:0:0:0:
306,22,61886,2,0,B|237:61,2,66.0000020141602,4|0|2,3:2|3:0|1:0,0:0:0:0:
325,251,62636,5,2,3:1:0:0:
309,260,62786,2,0,B|171:338,1,132.00000402832,8|2,1:0|3:2,0:0:0:0:
35,309,63386,2,0,B|136:251|136:251|148:249|148:249|144:242|144:242|157:239|157:239|256:182,1,264.000008056641,2|10,1:0|1:0,0:0:0:0:
476,309,64586,6,0,B|375:251|375:251|363:249|363:249|367:242|367:242|354:239|354:239|256:182,1,264.000008056641,2|10,1:0|1:0,0:0:0:0:
118,103,65486,1,2,3:2:0:0:
101,93,65636,1,0,3:0:0:0:
84,83,65786,2,0,B|74:121|96:159|96:159|162:269,1,198.000006042481,2|2,1:0|3:2,0:0:0:0:
204,324,66386,2,0,B|220:352|256:361|256:361|292:352|308:324,1,132.00000402832,10|4,1:0|3:2,0:0:0:0:
398,192,66986,5,2,1:0:0:0:
207,50,67436,1,2,3:2:0:0:
187,50,67586,2,0,L|40:57,1,132.00000402832,8|2,1:0|3:2,0:0:0:0:
114,192,68186,2,0,L|245:185,1,132.00000402832,4|2,1:2|3:2,0:0:0:0:
265,185,68636,1,0,3:0:0:0:
284,184,68786,2,0,B|294:222|272:260|272:260|245:305,2,132.00000402832,10|2|4,1:0|3:2|0:1,0:0:0:0:
74,181,78836,5,2,0:0:0:0:
86,192,78986,6,0,P|170:220|254:192,1,180,4|2,1:0|3:2,0:0:0:0:
307,140,79586,2,0,B|287:160|279:192|279:192|287:224|307:244,2,120,8|0|0,1:2|3:0|1:0,0:0:0:0:
360,5,80636,1,2,3:2:0:0:
372,16,80786,2,0,P|315:34|259:16,1,120,8|4,1:2|1:2,0:0:0:0:
114,16,81386,6,0,B|84:80|84:80|142:52|185:88,1,180,2|2,1:2|3:2,0:0:0:0:
256,118,81986,1,8,1:2:0:0:
381,166,82286,1,2,3:2:0:0:
398,16,82586,2,0,B|428:80|428:80|370:52|327:88,1,180,2|2,1:2|3:2,0:0:0:0:
256,118,83186,1,8,1:2:0:0:
131,166,83486,1,4,3:2:0:0:
114,16,83786,5,0,1:0:0:0:
325,88,84236,1,2,3:2:0:0:
340,94,84386,2,0,P|340:154|312:205,1,120,8|2,1:2|3:2,0:0:0:0:
271,344,84986,1,0,1:0:0:0:
60,272,85436,1,2,3:2:0:0:
45,266,85586,2,0,P|45:206|73:155,1,120,8|4,1:2|3:2,0:0:0:0:
114,16,86186,6,0,B|156:93|156:93|156:184,2,180,0|2|2,1:0|3:2|1:2,0:0:0:0:
256,37,87386,2,0,B|298:114|298:114|298:205,2,180,0|2|4,1:0|3:2|1:2,0:0:0:0:
398,58,88586,6,0,B|440:135|440:135|440:226,1,180,0|2,1:0|3:2,0:0:0:0:
424,300,89186,1,8,1:2:0:0:
269,313,89486,1,2,3:2:0:0:
114,326,89786,2,0,B|72:249|72:249|72:158,1,180,0|2,1:0|3:2,0:0:0:0:
88,84,90386,1,8,1:2:0:0:
243,71,90686,1,4,3:2:0:0:
398,58,90986,6,0,B|375:146|440:226,1,180,0|2,1:0|3:2,0:0:0:0:
490,281,91586,2,0,B|359:257,1,120,8|2,1:2|3:2,0:0:0:0:
231,226,92186,1,0,1:0:0:0:
278,14,92636,1,2,3:2:0:0:
293,20,92786,1,8,1:2:0:0:
433,53,93086,6,0,L|501:80,2,60,4|0|2,1:2|3:0|1:2,0:0:0:0:
418,47,93536,1,0,3:0:0:0:
278,14,93836,2,0,B|256:71|294:128,1,120,2|0,3:2|3:0,0:0:0:0:
317,270,94436,6,0,B|339:297|367:300|367:300|330:348,2,120,0|2|2,3:0|0:0|3:2,0:0:0:0:
195,270,95336,2,0,B|173:297|145:300|145:300|182:348,2,120,2|4|2,3:2|0:2|3:2,0:0:0:0:
256,139,96236,1,2,3:2:0:0:
256,123,96386,2,0,B|248:59|183:33,1,120,8|2,1:2|3:2,0:0:0:0:
118,161,96986,2,0,B|66:199|76:269,1,120,4|2,1:0|3:2,0:0:0:0:
90,272,97436,1,0,3:0:0:0:
105,277,97586,1,8,1:2:0:0:
242,233,97886,1,2,3:2:0:0:
286,370,98186,6,0,B|332:389|361:376|373:370|383:365|413:350|460:370,2,180,0|0|2,1:0|1:0|1:2,0:0:0:0:
292,364,99536,2,0,P|390:312|362:249,1,180,0|2,1:0|1:2,0:0:0:0:
226,14,100586,2,0,B|180:-5|151:8|139:14|129:19|99:34|52:14,2,180,0|0|2,1:0|1:0|1:2,0:0:0:0:
220,20,101936,2,0,P|122:72|150:135,1,180,0|2,1:0|1:2,0:0:0:0:
256,192,102986,12,2,106586,3:2:0:0:
256,160,107786,5,6,1:0:0:0:
354,331,108236,1,2,3:1:0:0:
363,346,108386,2,0,B|401:356|439:334|439:334|410:280,1,132.00000402832,8|2,1:0|3:2,0:0:0:0:
347,142,108986,2,0,B|289:243|289:243|287:255|287:255|280:251|280:251|277:264|277:264|219:364,2,264.000008056641,2|10|2,1:0|1:0|1:0,0:0:0:0:
138,28,110636,1,2,3:1:0:0:
128,45,110786,2,0,B|62:159,1,132.00000402832,8|2,1:0|3:2,0:0:0:0:
15,311,111386,6,0,B|129:377,1,132.00000402832,2|2,1:0|3:2,0:0:0:0:
149,375,111836,1,2,3:1:0:0:
168,372,111986,2,0,B|196:356|205:320|205:320|196:284|168:268,1,132.00000402832,8|4,1:0|3:2,0:0:0:0:
62,160,112586,5,2,1:0:0:0:
297,192,113036,1,2,1:0:0:0:
307,208,113186,2,0,B|339:266|339:266|307:324,1,132.00000402832,8|2,1:0|1:2,0:0:0:0:
165,242,113786,2,0,B|223:141|223:141|225:129|225:129|232:133|232:133|235:120|235:120|293:20,2,264.000008056641,2|10|2,1:0|1:0|1:0,0:0:0:0:
374,356,115436,1,2,3:1:0:0:
384,339,115586,2,0,B|450:225,1,132.00000402832,8|2,1:0|3:2,0:0:0:0:
497,73,116186,6,0,B|383:7,1,132.00000402832,2|2,1:0|3:2,0:0:0:0:
363,9,116636,1,2,3:1:0:0:
344,12,116786,2,0,B|316:28|307:64|307:64|316:100|344:116,1,132.00000402832,8|4,1:0|3:2,0:0:0:0:
450,224,117386,5,2,1:0:0:0:
279,322,117836,1,2,3:1:0:0:
264,331,117986,2,0,B|150:265,1,132.00000402832,8|2,1:0|3:2,0:0:0:0:
12,184,118586,2,0,B|48:311|48:311|84:184,1,264.000008056641,2|10,1:0|1:0,0:0:0:0:
102,24,119486,2,0,P|142:32|177:62,2,66.0000020141602,4|0|2,3:2|3:0|1:0,0:0:0:0:
150,265,120236,5,2,3:1:0:0:
166,274,120386,2,0,B|304:352,1,132.00000402832,8|2,1:0|3:2,0:0:0:0:
473,307,120986,2,0,B|433:262|374:250|374:250|366:241|366:241|362:248|362:248|354:238|354:238|295:227|256:182,1,264.000008056641,2|10,1:0|1:0,0:0:0:0:
39,307,122186,6,0,B|79:262|138:250|138:250|146:241|146:241|150:248|150:248|158:238|158:238|217:227|256:182,1,264.000008056641,2|10,1:0|1:0,0:0:0:0:
394,103,123086,1,2,3:2:0:0:
411,93,123236,1,0,3:0:0:0:
428,83,123386,2,0,B|437:118|437:118|354:257,1,198.000006042481,2|2,1:0|3:2,0:0:0:0:
308,324,123986,2,0,B|293:349|293:349|219:349|219:349|204:324,1,132.00000402832,10|4,1:0|3:2,0:0:0:0:
114,192,124586,5,2,1:0:0:0:
305,50,125036,1,2,3:2:0:0:
325,50,125186,2,0,L|472:57,1,132.00000402832,8|2,1:0|3:2,0:0:0:0:
398,192,125786,2,0,L|267:185,1,132.00000402832,0|2,1:0|3:2,0:0:0:0:
247,185,126236,1,0,3:0:0:0:
228,184,126386,2,0,B|218:222|218:222|240:260|240:260|267:305,2,132.00000402832,8|2|4,1:0|3:2|0:1,0:0:0:0:
228,184,136586,6,0,B|168:184|168:184|140:204,2,90,2|0|2,3:2|3:0|3:2,0:0:0:0:
234,190,137936,2,0,P|215:135|234:102,1,90,0|2,3:0|3:2,0:0:0:0:
361,184,138986,2,0,B|421:184|421:184|449:164,2,90,2|0|2,3:2|3:0|3:2,0:0:0:0:
355,190,140336,2,0,P|374:245|355:277,1,90,0|2,3:0|3:2,0:0:0:0:
208,256,141386,6,0,B|172:276|136:256|136:256|104:312|104:312|144:340,2,180,0|0|2,3:0|3:0|3:2,0:0:0:0:
208,128,143786,2,0,B|172:108|136:128|136:128|104:72|104:72|144:44,1,180,0|2,3:0|3:2,0:0:0:0:
256,192,144986,12,4,146186,0:1:0:0:
256,328,147386,6,0,B|296:308|312:260|296:212|256:192|256:192|276:158|256:124,1,240,0|2,0:0|0:0,0:0:0:0:
340,48,150986,6,0,B|320:112|256:124|256:124|192:112|172:48,2,240,2|0|2,0:0|0:0|0:0,0:0:0:0:
172,48,155786,6,0,B|192:112|256:124|256:124|320:136|340:200,2,240,2|0|2,0:0|0:0|0:0,0:0:0:0:
340,48,160586,6,0,B|320:112|256:124|256:124|192:136|172:200,2,240,2|0|2,0:0|0:0|0:0,0:0:0:0:
123,293,165386,6,0,P|273:175|85:141,1,480,2|2,0:0|0:0,0:0:0:0:
426,141,170186,6,0,P|238:175|389:293,1,480,2|2,0:0|0:0,0:0:0:0:
172,200,174986,6,0,P|210:171|216:132,4,90,0|2|0|2|0,3:0|3:2|3:0|3:2|3:0,0:0:0:0:
340,200,177386,2,0,P|301:171|295:132,4,90,0|2|0|2|0,3:0|3:2|3:0|3:2|3:0,0:0:0:0:
256,345,179786,2,0,B|258:306|258:306|252:295|252:295|256:257,1,90,0|2,3:0|3:2,0:0:0:0:
295,132,180686,2,0,B|260:149|260:149|253:159|253:159|219:175,1,90,0|2,3:0|3:2,0:0:0:0:
91,204,181586,1,0,3:0:0:0:
256,192,182186,12,2,183386,3:2:0:0:
256,192,184586,5,6,1:0:0:0:
454,192,185036,1,2,3:1:0:0:
473,192,185186,2,0,P|473:263|430:314,1,132.00000402832,8|2,1:0|3:2,0:0:0:0:
283,347,185786,2,0,B|167:347|167:347|155:343|155:343|155:351|155:351|143:347|143:347|27:347,2,264.000008056641,2|10|2,1:0|1:0|1:0,0:0:0:0:
283,109,187436,1,2,3:1:0:0:
271,93,187586,2,0,B|206:84|206:84|141:93,1,132.00000402832,8|2,1:0|3:2,0:0:0:0:
33,210,188186,6,0,L|163:192,1,132.00000402832,2|2,1:0|3:2,0:0:0:0:
183,190,188636,1,2,3:1:0:0:
202,188,188786,2,0,B|230:204|239:240|239:240|337:227,1,132.00000402832,8|4,1:0|3:2,0:0:0:0:
460,201,189386,5,2,1:0:0:0:
295,10,189836,1,2,3:1:0:0:
276,5,189986,2,0,B|253:-1|253:-1|146:10,1,132.00000402832,8|2,1:0|3:2,0:0:0:0:
136,168,190586,2,0,B|204:192|256:138|256:138|308:192|376:168,1,264.000008056641,2|10,1:0|1:0,0:0:0:0:
475,43,191486,6,0,P|441:20|395:16,2,66.0000020141602,4|0|2,3:2|3:0|1:0,0:0:0:0:
326,228,192236,1,2,3:2:0:0:
314,243,192386,2,0,B|314:303|374:303|374:303|408:303,1,132.00000402832,8|2,1:0|3:2,0:0:0:0:
408,81,192986,6,0,B|374:81|374:81|314:81|314:141,1,132.00000402832,2|0,1:0|3:0,0:0:0:0:
326,156,193436,1,2,3:2:0:0:
338,170,193586,2,0,L|204:125,1,132.00000402832,10|4,1:0|1:2,0:0:0:0:
60,79,194186,5,2,1:0:0:0:
108,311,194636,1,2,3:1:0:0:
112,328,194786,2,0,B|166:346|166:346|171:350|171:350|173:346|173:346|178:350|178:350|233:369,1,132.00000402832,8|2,1:0|3:2,0:0:0:0:
388,343,195386,2,0,B|425:233|425:233|433:223|433:223|425:221|425:221|433:211|433:211|470:102,2,264.000008056641,2|10|2,1:0|1:0|1:0,0:0:0:0:
124,343,197036,5,2,3:2:0:0:
120,326,197186,2,0,B|101:271|101:271|97:266|97:266|101:265|101:265|97:260|97:260|79:205,1,132.00000402832,8|2,1:0|1:2,0:0:0:0:
29,55,197786,2,0,B|44:30|44:30|118:30|118:30|133:55,1,132.00000402832,2|2,1:0|3:2,0:0:0:0:
138,73,198236,1,2,3:1:0:0:
145,90,198386,2,0,B|164:123|207:135|207:135|258:147,1,132.00000402832,8|4,1:0|3:2,0:0:0:0:
410,193,198986,6,0,B|382:308|382:308|370:351|336:370,1,198.000006042481,2|2,1:0|3:2,0:0:0:0:
256,371,199586,1,8,1:0:0:0:
175,234,199886,1,4,3:2:0:0:
256,97,200186,2,0,B|357:155|357:155|369:157|369:157|365:164|365:164|378:167|378:167|478:225,2,264.000008056641,2|10|2,1:0|1:0|1:0,0:0:0:0:
240,325,201836,1,2,3:2:0:0:
256,334,201986,2,0,P|322:334|378:303,1,132.00000402832,8|2,1:0|3:2,0:0:0:0:
491,192,202586,6,0,B|491:60,1,132.00000402832,2|2,1:0|3:2,0:0:0:0:
489,40,203036,1,2,3:1:0:0:
486,23,203186,2,0,B|425:-1|425:-1|392:14|381:45,1,132.00000402832,8|4,1:0|3:2,0:0:0:0:
256,192,203786,5,6,1:0:0:0:
58,224,204236,1,2,3:1:0:0:
39,224,204386,2,0,B|29:186|51:148|51:148|78:103,1,132.00000402832,8|2,1:0|3:2,0:0:0:0:
235,89,204986,2,0,B|177:190|177:190|175:202|175:202|168:198|168:198|165:211|165:211|107:311,2,264.000008056641,2|10|2,1:0|1:0|1:0,0:0:0:0:
333,261,206636,1,2,3:1:0:0:
321,277,206786,2,0,B|386:286|386:286|451:277,1,132.00000402832,8|2,1:0|3:2,0:0:0:0:
498,126,207386,6,0,L|368:144,1,132.00000402832,2|2,1:0|3:2,0:0:0:0:
356,128,207836,1,2,3:1:0:0:
344,112,207986,2,0,B|377:100|389:60|377:20|344:8,1,132.00000402832,8|4,1:0|3:2,0:0:0:0:
224,60,208586,5,2,1:0:0:0:
454,160,209036,1,2,3:1:0:0:
473,160,209186,2,0,B|483:198|461:236|461:236|434:281,1,132.00000402832,8|2,1:0|3:2,0:0:0:0:
277,295,209786,2,0,B|335:194|335:194|337:182|337:182|344:186|344:186|347:173|347:173|405:73,2,264.000008056641,2|10|2,1:0|1:0|1:0,0:0:0:0:
179,123,211436,1,2,3:1:0:0:
191,107,211586,2,0,B|126:98|126:98|61:107,1,132.00000402832,8|2,1:0|3:2,0:0:0:0:
14,258,212186,6,0,L|144:240,1,132.00000402832,2|2,1:0|3:2,0:0:0:0:
156,256,212636,1,2,3:1:0:0:
168,272,212786,2,0,B|135:284|123:324|135:364|168:376,1,132.00000402832,8|4,1:0|3:2,0:0:0:0:
288,324,213386,6,0,B|281:266|240:225|240:225|197:151,1,198.000006042481,2|2,1:0|3:1,0:0:0:0:
187,133,213986,2,0,B|149:123|111:145|111:145|66:172,1,132.00000402832,8|2,1:0|3:2,0:0:0:0:
4,318,214586,2,0,B|141:239|141:239|91:268|77:319,1,264.000008056641,2|10,1:0|1:0,0:0:0:0:
206,362,215486,2,0,B|275:323,2,66.0000020141602,4|0|2,3:2|3:0|1:0,0:0:0:0:
187,133,216236,5,2,3:1:0:0:
203,124,216386,2,0,B|341:46,1,132.00000402832,8|2,1:0|3:2,0:0:0:0:
437,42,216986,2,0,B|437:102|377:133|377:133|365:135|365:135|369:142|369:142|356:145|356:145|257:202,1,264.000008056641,2|10,1:0|1:0,0:0:0:0:
75,42,218186,6,0,B|75:102|135:133|135:133|147:135|147:135|143:142|143:142|156:145|156:145|255:202,1,264.000008056641,2|10,1:0|1:0,0:0:0:0:
394,281,219086,1,2,3:2:0:0:
411,291,219236,1,0,3:0:0:0:
428,301,219386,2,0,B|438:263|416:225|416:225|350:115,1,198.000006042481,2|2,1:0|3:2,0:0:0:0:
308,60,219986,2,0,B|275:67|256:97|256:97|237:67|204:60,1,132.00000402832,10|4,1:0|3:2,0:0:0:0:
114,192,220586,5,2,1:0:0:0:
256,261,220886,1,2,3:2:0:0:
276,261,221036,1,2,3:2:0:0:
296,261,221186,2,0,L|443:254,1,132.00000402832,10|2,1:0|3:2,0:0:0:0:
388,91,221786,2,0,L|256:97,1,132.00000402832,2|2,1:0|3:2,0:0:0:0:
236,98,222236,1,0,3:0:0:0:
216,98,222386,2,0,P|176:90|141:60,2,66.0000020141602,10|0|4,1:0|3:0|1:2,0:0:0:0:
388,91,222986,6,0,B|388:114|388:114|388:154|347:154,1,90.0000034332277,4|2,0:1|0:0,0:0:0:0:
332,143,223436,1,2,0:0:0:0:
318,131,223586,2,0,L|356:318,1,180.000006866455,0|2,0:0|0:0,0:0:0:0:
354,307,224336,1,0,0:0:0:0:
264,368,224636,1,2,0:0:0:0:
104,376,225086,6,0,P|80:371|60:353,2,45.0000017166138,0|0|2,0:0|0:0|0:0,0:0:0:0:
118,271,225686,2,0,P|104:251|102:224,2,45.0000017166138,0|0|2,0:0|0:0|0:0,0:0:0:0:
256,104,226586,1,2,0:0:0:0:
268,99,226736,2,0,P|268:156|241:195,1,90.0000034332277,2|2,0:0|0:0,0:0:0:0:
150,315,227486,5,2,0:0:0:0:
137,304,227636,1,0,0:0:0:0:
124,293,227786,2,0,B|124:270|124:270|124:230|165:230,1,90.0000034332277,2|2,0:0|0:0,0:0:0:0:
180,241,228236,1,2,0:0:0:0:
194,253,228386,2,0,L|156:66,1,180.000006866455,0|2,0:0|0:0,0:0:0:0:
159,76,229136,1,0,0:0:0:0:
256,24,229436,1,2,0:0:0:0:
416,8,229886,6,0,P|440:13|460:31,2,45.0000017166138,0|0|2,0:0|0:0|0:0,0:0:0:0:
394,113,230486,2,0,P|408:133|410:160,2,45.0000017166138,0|0|2,0:0|0:0|0:0,0:0:0:0:
256,280,231386,1,2,0:0:0:0:
244,285,231536,2,0,P|244:228|271:189,1,90.0000034332277,2|2,0:0|0:0,0:0:0:0:
394,113,232286,5,2,0:0:0:0:
383,100,232436,1,0,0:0:0:0:
372,87,232586,2,0,B|349:87|349:87|309:87|309:128,1,90.0000034332277,2|2,0:0|0:0,0:0:0:0:
320,143,233036,1,2,0:0:0:0:
332,157,233186,2,0,L|145:119,1,180.000006866455,0|2,0:0|0:0,0:0:0:0:
156,121,233936,1,0,0:0:0:0:
60,168,234236,1,2,0:0:0:0:
119,319,234686,6,0,P|98:332|71:333,2,45.0000017166138,0|0|2,0:0|0:0|0:0,0:0:0:0:
225,295,235286,2,0,P|238:315|239:342,2,45.0000017166138,0|0|2,0:0|0:0|0:0,0:0:0:0:
256,80,236186,1,2,0:0:0:0:
244,75,236336,2,0,P|244:132|271:171,1,90.0000034332277,2|2,0:0|0:0,0:0:0:0:
379,298,237086,5,2,0:0:0:0:
368,311,237236,1,0,0:0:0:0:
357,324,237386,2,0,B|334:324|334:324|294:324|294:283,1,90.0000034332277,2|2,0:0|0:0,0:0:0:0:
305,268,237836,1,2,0:0:0:0:
317,254,237986,2,0,L|130:292,1,180.000006866455,0|2,0:0|0:0,0:0:0:0:
141,290,238736,1,0,0:0:0:0:
72,204,239036,1,2,0:0:0:0:
56,44,239486,6,0,P|61:20|79:0,2,45.0000017166138,0|0|2,0:0|0:0|0:0,0:0:0:0:
164,56,240086,2,0,P|184:42|211:40,2,45.0000017166138,0|0|2,0:0|0:0|0:0,0:0:0:0:
344,180,240986,1,2,0:0:0:0:
349,192,241136,2,0,P|292:192|253:165,1,90.0000034332277,2|2,0:0|0:0,0:0:0:0:
381,76,242111,6,0,B|419:192|390:279|295:279|211:192|295:105|390:105|419:192|381:308,1,480,4|2,0:1|0:0,0:0:0:0:
131,308,246911,6,0,B|93:192|122:105|217:105|301:192|217:279|122:279|93:192|131:76,1,480,2|4,0:0|0:1,0:0:0:0:
256,192,249386,12,4,251411,0:3:0:0:
