osu file format v14

[General]
AudioFilename: audio.mp3
AudioLeadIn: 0
PreviewTime: 108762
Countdown: 0
SampleSet: Soft
StackLeniency: 0.7
Mode: 2
LetterboxInBreaks: 0
WidescreenStoryboard: 0

[Editor]
Bookmarks: 28281,49050,67512,109050,127512,143665,144098,144531,144964,145396,148281,157512,185204
DistanceSpacing: 1
BeatDivisor: 4
GridSize: 8
TimelineZoom: 1.9

[Metadata]
Title:Nisha Labyrinth
TitleUnicode:밤의미궁
Artist:Bolbbalgan4
ArtistUnicode:볼빨간사춘기
Creator:[-naniwa-]
Version:Laby
Source:엘소드
Tags:Elsword BOL4 nisha laby new character teaser kog k-pop
BeatmapID:1864878
BeatmapSetID:892075

[Difficulty]
HPDrainRate:7
CircleSize:4.5
OverallDifficulty:9.6
ApproachRate:9.6
SliderMultiplier:1.8
SliderTickRate:1

[Events]
//Background and Video events
Video,0,"videoplayback (1).mp4"
0,0,"maxresdefault.jpg",0,0
//Break Periods
2,148481,154695
//Storyboard Layer 0 (Background)
//Storyboard Layer 1 (Fail)
//Storyboard Layer 2 (Pass)
//Storyboard Layer 3 (Foreground)
//Storyboard Sound Samples

[TimingPoints]
589,576.923076923077,4,2,0,100,1,0
589,-100,4,2,0,30,0,0
5204,-66.6666666666667,4,2,0,40,0,0
5781,-100,4,2,0,40,0,0
6069,-66.6666666666667,4,2,0,40,0,0
6646,-100,4,2,0,40,0,0
6935,-50,4,2,0,40,0,0
7512,-100,4,2,0,50,0,0
9242,-66.6666666666667,4,2,0,60,0,0
9819,-83.3333333333333,4,2,0,50,0,0
25973,-83.3333333333333,4,2,0,30,0,0
27704,-66.6666666666667,4,2,0,50,0,0
28281,-66.6666666666667,4,2,0,70,0,0
46742,-66.6666666666667,4,2,0,50,0,0
49050,-66.6666666666667,4,2,0,90,0,1
67512,-66.6666666666667,4,2,0,30,0,0
67512,-66.6666666666667,4,2,0,100,0,0
69819,-66.6666666666667,4,2,0,50,0,0
79050,-66.6666666666667,4,2,0,60,0,0
88281,-66.6666666666667,4,2,0,50,0,0
90012,-66.6666666666667,4,2,0,60,0,0
90589,-66.6666666666667,4,2,0,70,0,0
106742,-66.6666666666667,4,2,0,50,0,0
109050,-55.5555555555556,4,2,0,90,0,1
127512,-66.6666666666667,4,2,0,70,0,0
133281,-55.5555555555556,4,2,0,100,0,0
133858,-66.6666666666667,4,2,0,100,0,0
138473,-55.5555555555556,4,2,0,100,0,0
139050,-66.6666666666667,4,2,0,100,0,0
143665,-66.6666666666667,4,2,0,100,0,0
144098,-55.5555555555556,4,2,0,100,0,0
144531,-50,4,2,0,100,0,0
144964,-45.4545454545455,4,2,0,100,0,0
145396,-40,4,2,0,100,0,0
145973,-66.6666666666667,4,2,0,50,0,0
155204,-50,4,2,0,70,0,0
157512,-55.5555555555556,4,2,0,90,0,1
157513,-55.5555555555556,4,2,0,90,0,0
166742,-50,4,2,0,100,0,1
182896,-50,4,2,0,80,0,1
184050,-50,4,2,0,50,0,1
185204,-100,4,2,0,30,0,0
189819,-100,4,2,0,40,0,0
192127,-100,4,2,0,50,0,0

[Colours]
Combo1 : 255,0,128
Combo2 : 255,128,192
Combo3 : 128,0,255
Combo4 : 0,128,255

[HitObjects]
200,240,589,6,0,L|200:136,1,90,2|0,0:0|0:0,0:0:0:0:
288,240,1021,2,0,L|160:240,1,90
288,152,1454,2,0,L|378:152,1,90,2|0,0:0|0:0,0:0:0:0:
290,152,1887,2,0,L|200:152,1,90
440,160,2319,1,2,0:0:0:0:
72,160,2608,1,2,0:0:0:0:
312,240,2896,6,0,L|312:136,1,90,2|0,0:0|0:0,0:0:0:0:
224,240,3328,2,0,L|352:240,1,90
224,152,3761,2,0,L|134:152,1,90,2|0,0:0|0:0,0:0:0:0:
222,152,4194,2,0,L|312:152,1,90
72,160,4626,1,2,0:0:0:0:
440,160,4915,1,2,0:0:0:0:
352,160,5060,1,0,0:0:0:0:
264,160,5204,6,0,P|200:232|272:288,1,202.500007724762,2|0,0:0|0:0,0:0:0:0:
352,288,5781,1,0,0:0:0:0:
432,248,5925,1,0,0:0:0:0:
480,168,6069,2,0,P|464:88|336:72,1,202.500007724762,2|0,0:0|0:0,0:0:0:0:
288,64,6646,1,0,0:0:0:0:
224,64,6790,1,0,0:0:0:0:
88,64,6935,2,2,P|32:128|104:176,1,180
288,256,7512,6,0,L|408:256,1,90,2|0,0:0|0:0,0:0:0:0:
256,256,7944,1,0,0:0:0:0:
395,256,8233,2,0,L|440:256,1,45,0|2,0:0|0:0,0:0:0:0:
280,248,8521,2,0,L|152:248,2,90
440,256,9242,2,0,P|480:208|416:160,1,135.000005149842
96,256,9819,5,4,0:1:0:0:
35,224,9964,1,0,0:0:0:0:
51,160,10108,1,0,0:0:0:0:
115,136,10252,1,0,0:0:0:0:
169,136,10396,1,2,0:0:0:0:
223,138,10540,1,0,0:0:0:0:
392,192,10829,2,0,L|272:192,1,107.999996704102
392,192,11262,1,0,0:0:0:0:
180,192,11550,2,0,L|288:192,1,107.999996704102,2|0,0:0|0:0,0:0:0:0:
112,80,12127,5,2,0:3:0:0:
48,128,12271,1,0,0:0:0:0:
80,200,12415,1,0,0:0:0:0:
152,232,12560,1,0,0:0:0:0:
206,232,12704,1,2,0:0:0:0:
260,232,12848,1,0,0:0:0:0:
400,200,13137,2,0,L|272:200,1,107.999996704102
208,200,13569,1,0,0:0:0:0:
440,256,13858,2,0,L|464:128,1,107.999996704102,2|0,0:0|0:0,0:0:0:0:
312,232,14435,6,0,L|176:232,1,107.999996704102,2|0,0:3|0:0,0:0:0:0:
376,231,14867,1,0,0:0:0:0:
424,184,15011,1,2,0:0:0:0:
377,138,15155,1,0,0:0:0:0:
208,232,15300,1,0,0:0:0:0:
312,232,15444,2,0,L|420:232,1,107.999996704102
256,152,15877,2,0,L|328:152,1,53.9999983520508
144,232,16165,2,0,P|120:176|176:120,1,107.999996704102,2|0,0:0|0:0,0:0:0:0:
256,208,16742,5,2,0:3:0:0:
88,200,17031,2,0,L|152:200,1,53.9999983520508
256,200,17319,2,0,L|184:200,1,53.9999983520508,2|0,0:0|0:0,0:0:0:0:
328,272,17752,2,0,P|384:240|312:136,1,215.999993408203
160,216,18473,1,2,0:0:0:0:
280,136,18762,1,0,0:0:0:0:
128,216,19050,5,4,0:3:0:0:
72,216,19194,1,0,0:0:0:0:
128,216,19339,1,0,0:0:0:0:
240,216,19483,1,0,0:0:0:0:
296,216,19627,1,2,0:0:0:0:
352,216,19771,1,0,0:0:0:0:
192,184,20060,2,0,L|304:184,1,107.999996704102
379,186,20492,1,0,0:0:0:0:
188,248,20781,2,0,L|80:248,1,107.999996704102,2|0,0:0|0:0,0:0:0:0:
368,248,21358,5,2,0:3:0:0:
314,248,21502,1,0,0:0:0:0:
260,248,21646,1,0,0:0:0:0:
392,248,21790,1,0,0:0:0:0:
446,248,21934,1,2,0:0:0:0:
392,248,22079,1,0,0:0:0:0:
272,264,22367,2,0,P|208:224|288:136,1,215.999993408203
448,160,23089,1,2,0:0:0:0:
272,136,23449,1,0,0:0:0:0:
408,272,23665,6,0,P|456:192|376:144,1,161.999995056153,2|0,0:3|0:0,0:0:0:0:
304,136,24242,1,2,0:0:0:0:
160,224,24531,2,0,L|232:224,1,53.9999983520508
88,224,24819,2,0,P|48:176|160:72,1,215.999993408203,0|2,0:0|0:0,0:0:0:0:
256,192,25973,12,0,27415,0:0:0:0:
104,288,27704,6,0,P|72:216|120:192,1,135.000005149842
192,192,28137,1,0,0:0:0:0:
392,296,28281,6,0,P|464:273|458:145,1,202.500007724762,4|0,0:3|0:0,0:0:0:0:
232,192,28858,2,0,L|408:192,1,135.000005149842,8|0,0:3|0:0,0:0:0:0:
96,272,29290,2,0,P|56:216|144:192,1,135.000005149842,8|8,0:3|0:0,0:0:0:0:
304,208,29867,2,0,L|160:208,1,135.000005149842,2|0,0:3|0:0,0:0:0:0:
304,128,30300,2,0,L|392:128,1,67.5000025749208
112,296,30589,6,0,P|40:273|46:145,1,202.500007724762,4|0,0:3|0:0,0:0:0:0:
256,224,31165,2,0,L|384:224,2,67.5000025749208,8|0|0,0:3|0:3|0:3,0:3:0:0:
32,192,31598,2,0,L|184:192,1,135.000005149842,8|8,0:3|0:0,0:0:0:0:
32,192,32031,1,0,0:0:0:0:
248,240,32319,2,0,L|112:240,1,135.000005149842,2|0,0:3|0:0,0:0:0:0:
456,144,32896,6,0,P|493:233|433:308,1,202.500007724762,4|0,0:3|0:0,0:0:0:0:
313,132,33473,1,8,0:3:0:0:
465,228,33762,1,0,0:0:0:0:
397,228,33906,1,8,0:3:0:0:
329,228,34050,1,0,0:0:0:0:
160,216,34194,2,0,L|312:216,1,135.000005149842,8|0,0:0|0:0,0:0:0:0:
128,224,34627,2,0,P|88:168|152:88,1,135.000005149842,2|0,0:3|0:0,0:0:0:0:
456,224,35204,6,0,L|296:224,1,135.000005149842,4|0,0:3|0:0,0:0:0:0:
224,224,35637,1,0,0:0:0:0:
392,288,35781,2,0,L|496:184,1,135.000005149842,8|0,0:3|0:0,0:0:0:0:
392,288,36214,2,0,L|248:288,1,135.000005149842,8|8,0:3|0:0,0:0:0:0:
392,288,36646,1,0,0:0:0:0:
192,288,36935,2,0,L|56:288,1,135.000005149842,2|0,0:3|0:0,0:0:0:0:
160,288,37367,1,0,0:0:0:0:
384,296,37512,6,0,P|432:240|368:184,1,135.000005149842,4|0,0:3|0:0,0:0:0:0:
320,184,37944,1,0,0:0:0:0:
144,280,38089,2,0,P|112:224|168:168,1,135.000005149842,8|0,0:3|0:0,0:0:0:0:
320,176,38521,2,0,L|464:176,1,135.000005149842,8|8,0:3|0:0,0:0:0:0:
256,176,39098,1,0,0:0:0:0:
384,176,39242,2,0,L|464:48,1,135.000005149842
320,176,39675,1,0,0:0:0:0:
96,272,39819,6,0,P|48:224|96:168,1,135.000005149842,4|0,0:3|0:0,0:0:0:0:
160,144,40252,1,0,0:0:0:0:
248,136,40396,1,8,0:3:0:0:
128,136,40540,2,0,L|56:136,1,67.5000025749208
280,136,40829,2,0,L|416:136,1,135.000005149842,8|2,0:3|0:3,0:3:0:0:
280,136,41262,2,0,L|200:136,1,67.5000025749208
416,256,41550,2,0,P|464:248|464:160,1,135.000005149842,2|0,0:3|0:0,0:0:0:0:
128,248,42127,6,0,P|56:232|64:104,1,202.500007724762,4|0,0:3|0:0,0:0:0:0:
208,176,42704,2,0,L|360:176,1,135.000005149842,8|0,0:3|0:0,0:0:0:0:
144,64,43137,2,0,P|80:128|192:184,1,202.500007724762,8|8,0:3|0:0,0:0:0:0:
312,176,43858,1,2,0:3:0:0:
88,200,44146,1,0,0:0:0:0:
352,208,44435,6,0,L|184:208,1,135.000005149842,8|0,0:3|0:0,0:0:0:0:
312,208,44867,1,0,0:0:0:0:
448,208,45012,2,0,L|368:208,2,67.5000025749208,2|0|0,0:0|0:0|0:0,0:0:0:0:
216,208,45444,2,0,L|64:208,1,135.000005149842,2|0,0:0|0:0,0:0:0:0:
272,208,45877,2,0,L|352:208,1,67.5000025749208
168,112,46165,2,0,P|112:176|168:224,1,135.000005149842,2|2,0:0|0:3,0:0:0:0:
240,208,46598,1,0,0:0:0:0:
64,216,46742,5,8,0:3:0:0:
280,208,47031,1,4,0:3:0:0:
128,208,47319,2,0,L|128:128,1,67.5000025749208,2|0,0:3|0:0,0:0:0:0:
320,208,47752,1,8,0:3:0:0:
160,208,48040,2,0,L|256:208,1,67.5000025749208,2|0,0:3|0:0,0:0:0:0:
384,208,48473,1,8,0:1:0:0:
456,208,48762,1,0,0:0:0:0:
112,224,49050,6,0,L|24:224,1,67.5000025749208,4|0,0:3|0:0,0:0:0:0:
176,224,49339,2,0,L|248:224,1,67.5000025749208
24,320,49627,2,0,L|159:320,1,135.000005149842,2|0,0:0|0:0,0:0:0:0:
25,208,50060,2,0,L|160:208,1,135.000005149842,2|0,0:0|0:0,0:0:0:0:
25,208,50492,1,2,0:3:0:0:
384,224,50781,2,0,L|472:224,1,67.5000025749208,2|0,0:0|0:0,0:0:0:0:
312,224,51069,2,0,L|400:224,1,67.5000025749208
120,136,51358,6,0,P|80:192|136:232,1,135.000005149842,8|0,0:0|0:0,0:0:0:0:
224,248,51790,1,0,0:0:0:0:
64,272,51935,1,2,0:0:0:0:
296,240,52079,2,0,L|176:240,1,67.5000025749208
360,240,52367,2,0,P|424:224|400:112,1,202.500007724762,2|0,0:3|0:0,0:0:0:0:
176,240,53089,1,2,0:0:0:0:
108,240,53233,1,0,0:0:0:0:
41,240,53377,1,2,0:0:0:0:
384,248,53665,6,0,P|456:192|440:128,1,135.000005149842,4|0,0:3|0:0,0:0:0:0:
344,152,54098,1,0,0:0:0:0:
136,160,54242,1,2,0:0:0:0:
280,152,54531,1,0,0:0:0:0:
160,248,54675,2,0,P|112:160|168:104,1,135.000005149842,8|0,0:3|0:0,0:0:0:0:
280,160,55108,2,0,L|432:160,1,135.000005149842,4|0,0:3|0:0,0:0:0:0:
280,160,55540,2,0,L|208:160,2,67.5000025749208
120,240,55973,6,0,L|256:240,1,135.000005149842,4|0,0:3|0:0,0:0:0:0:
120,240,56406,1,0,0:0:0:0:
255,240,56550,1,2,0:0:0:0:
80,240,56839,2,0,L|12:240,1,67.5000025749208
344,240,57127,1,4,0:2:0:0:
200,216,57415,2,0,L|120:216,1,67.5000025749208,2|0,0:0|0:0,0:0:0:0:
264,216,57704,2,0,L|344:216,1,67.5000025749208,2|0,0:0|0:0,0:0:0:0:
72,216,57992,1,2,0:3:0:0:
432,216,58281,6,0,L|296:216,1,135.000005149842,4|2,0:3|0:0,0:0:0:0:
392,216,58714,1,0,0:0:0:0:
480,152,58858,1,0,0:0:0:0:
491,218,59002,1,2,0:0:0:0:
448,280,59146,1,0,0:0:0:0:
368,304,59290,1,4,0:3:0:0:
216,224,59579,2,0,L|148:224,1,67.5000025749208,0|2,0:0|0:0,0:0:0:0:
404,176,60012,2,0,L|472:176,1,67.5000025749208,2|0,0:0|0:0,0:0:0:0:
328,176,60300,2,0,L|248:176,1,67.5000025749208
471,176,60589,5,8,0:3:0:0:
296,184,60877,2,0,L|208:184,1,67.5000025749208,2|0,0:0|0:0,0:0:0:0:
408,184,61165,2,0,L|496:184,2,67.5000025749208,2|0|0,0:3|0:0|0:0,0:0:0:0:
128,216,61598,2,0,P|64:184|48:104,1,135.000005149842,4|0,0:2|0:0,0:0:0:0:
264,184,62031,2,0,L|352:184,1,67.5000025749208,2|0,0:3|0:0,0:0:0:0:
96,280,62319,2,0,L|163:280,1,67.5000025749208,2|0,0:0|0:0,0:0:0:0:
328,280,62608,1,4,0:3:0:0:
104,272,62896,6,0,P|32:240|64:168,1,135.000005149842,2|0,0:3|0:0,0:0:0:0:
152,144,63329,1,0,0:0:0:0:
8,136,63473,1,2,0:0:0:0:
216,176,63762,2,0,L|149:176,1,67.5000025749208,0|2,0:0|0:0,0:0:0:0:
348,176,64194,2,0,L|416:176,1,67.5000025749208,0|2,0:0|0:3,0:0:0:0:
144,264,64627,2,0,L|72:264,1,67.5000025749208,2|0,0:0|0:0,0:0:0:0:
216,264,64915,2,0,L|296:264,1,67.5000025749208
432,288,65204,6,0,P|464:224|408:176,1,135.000005149842,4|0,0:3|0:0,0:0:0:0:
344,176,65637,1,2,0:0:0:0:
200,176,65781,2,0,L|267:176,1,67.5000025749208,0|2,0:0|0:0,0:0:0:0:
432,136,66069,2,0,P|368:136|364:136,1,67.5000025749208
216,248,66358,2,0,P|176:192|224:128,1,135.000005149842,4|0,0:3|0:0,0:0:0:0:
400,224,66935,2,0,L|312:224,1,67.5000025749208,2|0,0:0|0:0,0:0:0:0:
184,208,67223,2,0,L|280:208,1,67.5000025749208
408,288,67512,6,0,P|440:224|364:204,1,135.000005149842,2|0,0:3|0:0,0:0:0:0:
280,200,67944,2,0,L|144:200,1,135.000005149842
328,272,68521,2,0,L|416:152,1,135.000005149842,2|0,0:0|0:0,0:0:0:0:
280,280,69098,2,0,L|184:280,1,67.5000025749208
80,288,69387,1,0,0:0:0:0:
54,266,69459,1,0,0:0:0:0:
45,234,69531,1,0,0:0:0:0:
54,202,69603,1,0,0:0:0:0:
79,180,69675,1,0,0:0:0:0:
112,176,69747,1,0,0:0:0:0:
384,232,69819,5,8,0:3:0:0:
320,200,70108,2,0,L|232:200,1,67.5000025749208,2|0,0:0|0:0,0:0:0:0:
384,200,70396,2,0,L|464:200,1,67.5000025749208,2|0,0:0|0:0,0:0:0:0:
88,264,70829,2,0,L|256:264,1,135.000005149842,8|0,0:3|0:0,0:0:0:0:
56,264,71262,2,0,P|23:208|54:151,1,135.000005149842,4|0,0:3|0:0,0:0:0:0:
288,264,71839,1,2,0:0:0:0:
96,264,72127,5,8,0:3:0:0:
288,208,72415,2,0,L|200:208,1,67.5000025749208,2|0,0:0|0:0,0:0:0:0:
96,216,72704,2,0,L|163:216,1,67.5000025749208,2|0,0:0|0:0,0:0:0:0:
328,248,73137,2,0,P|400:200|416:144,1,135.000005149842,8|0,0:3|0:0,0:0:0:0:
288,176,73569,2,0,L|176:176,1,67.5000025749208,4|0,0:3|0:0,0:0:0:0:
352,176,73858,2,0,L|248:176,1,67.5000025749208,2|0,0:0|0:0,0:0:0:0:
104,224,74146,2,0,L|171:224,1,67.5000025749208,2|0,0:0|0:0,0:0:0:0:
416,176,74435,6,0,L|416:104,1,67.5000025749208,8|0,0:3|0:0,0:0:0:0:
72,72,74867,1,2,0:0:0:0:
336,168,75300,2,0,L|416:168,1,67.5000025749208,2|0,0:0|0:0,0:0:0:0:
96,176,75589,2,0,L|96:104,1,67.5000025749208,8|0,0:3|0:0,0:0:0:0:
440,72,76021,1,2,0:0:0:0:
176,168,76454,2,0,L|96:168,1,67.5000025749208,2|0,0:0|0:0,0:0:0:0:
336,224,76742,6,0,L|416:224,1,67.5000025749208,8|0,0:3|0:0,0:0:0:0:
272,176,77031,2,0,L|176:176,1,67.5000025749208,2|0,0:0|0:0,0:0:0:0:
464,152,77319,2,0,L|384:152,1,67.5000025749208,2|0,0:0|0:0,0:0:0:0:
272,144,77608,2,0,L|200:144,1,67.5000025749208
432,152,77896,1,2,0:0:0:0:
200,240,78185,2,0,L|120:240,1,67.5000025749208,2|0,0:0|0:0,0:0:0:0:
272,240,78473,2,0,L|352:240,2,67.5000025749208,2|0|2,0:3|0:0|0:0,0:0:0:0:
64,248,79050,5,2,0:3:0:0:
216,184,79339,2,0,L|312:184,1,67.5000025749208,2|0,0:0|0:0,0:0:0:0:
152,184,79627,2,0,L|72:184,1,67.5000025749208,2|0,0:0|0:0,0:0:0:0:
360,296,80060,2,0,L|392:136,1,135.000005149842,8|0,0:3|0:0,0:0:0:0:
272,216,80492,2,0,L|184:216,1,67.5000025749208,4|0,0:3|0:0,0:0:0:0:
336,216,80781,2,0,L|424:216,2,67.5000025749208,2|0|2,0:0|0:0|0:0,0:0:0:0:
144,128,81358,6,0,P|88:184|112:248,1,135.000005149842,8|0,0:3|0:0,0:0:0:0:
288,240,81935,2,0,L|288:168,1,67.5000025749208,2|0,0:0|0:0,0:0:0:0:
192,240,82223,1,0,0:0:0:0:
384,248,82367,2,0,P|376:168|304:144,1,135.000005149842,4|0,0:3|0:0,0:0:0:0:
208,176,82800,2,0,L|136:176,1,67.5000025749208,8|0,0:3|0:0,0:0:0:0:
328,176,83089,1,2,0:0:0:0:
260,176,83233,1,0,0:0:0:0:
328,176,83377,1,2,0:0:0:0:
408,256,83665,6,0,L|488:256,1,67.5000025749208,8|0,0:3|0:0,0:0:0:0:
128,176,84098,1,2,0:0:0:0:
280,184,84531,2,0,L|208:184,1,67.5000025749208,2|0,0:0|0:0,0:0:0:0:
128,264,84819,2,0,L|48:264,1,67.5000025749208,8|0,0:3|0:0,0:0:0:0:
424,176,85252,1,2,0:0:0:0:
232,184,85685,2,0,L|304:184,1,67.5000025749208,2|0,0:0|0:0,0:0:0:0:
64,184,85973,5,8,0:0:0:0:
232,192,86262,2,0,L|312:192,1,67.5000025749208,2|0,0:0|0:0,0:0:0:0:
128,192,86550,2,0,L|200:192,1,67.5000025749208,2|0,0:0|0:0,0:0:0:0:
336,192,86839,2,0,L|248:192,1,67.5000025749208,2|0,0:0|0:0,0:0:0:0:
160,144,87127,2,0,L|48:144,1,67.5000025749208,2|0,0:0|0:0,0:0:0:0:
264,136,87415,2,0,L|336:136,1,67.5000025749208,2|0,0:0|0:0,0:0:0:0:
128,280,87704,2,0,P|96:208|176:160,1,135.000005149842,2|0,0:0|0:0,0:0:0:0:
224,160,88137,1,0,0:0:0:0:
424,296,88281,6,0,P|472:224|416:184,1,135.000005149842,2|0,0:3|0:0,0:0:0:0:
288,224,88858,2,0,L|360:224,1,67.5000025749208,2|0,0:0|0:0,0:0:0:0:
192,272,89290,2,0,P|136:208|192:168,1,135.000005149842,2|0,0:0|0:0,0:0:0:0:
352,144,89867,1,0,0:0:0:0:
128,144,90012,2,0,L|48:144,1,67.5000025749208,2|0,0:0|0:0,0:0:0:0:
284,144,90300,2,0,L|364:144,1,67.5000025749208
96,216,90589,6,0,P|40:176|64:112,1,135.000005149842,4|2,0:3|0:0,0:0:0:0:
160,88,91021,1,0,0:0:0:0:
320,144,91165,2,0,L|376:80,1,67.5000025749208,2|0,0:0|0:0,0:0:0:0:
192,176,91454,2,0,L|112:176,1,67.5000025749208
288,176,91742,2,0,L|376:176,2,67.5000025749208,4|0|0,0:3|0:0|0:0,0:0:0:0:
104,248,92319,2,0,P|64:200|104:120,1,135.000005149842,2|0,0:0|0:0,0:0:0:0:
360,264,92896,6,0,P|360:160|264:144,1,202.500007724762,8|0,0:3|0:0,0:0:0:0:
152,144,93473,1,2,0:0:0:0:
384,144,93762,1,0,0:0:0:0:
219,256,93906,2,0,P|211:191|256:144,1,135.000005149842,2|0,0:0|0:0,0:0:0:0:
392,232,94483,1,0,0:0:0:0:
480,160,94627,2,0,L|352:256,1,135.000005149842,2|0,0:0|0:0,0:0:0:0:
176,280,95204,6,0,P|88:232|152:152,1,202.500007724762,4|0,0:3|0:0,0:0:0:0:
208,152,95781,1,2,0:0:0:0:
360,152,96069,2,0,L|440:152,1,67.5000025749208,2|0,0:0|0:0,0:0:0:0:
304,152,96358,1,0,0:0:0:0:
184,152,96502,2,0,L|104:152,1,67.5000025749208,0|2,0:0|0:0,0:0:0:0:
328,280,96935,1,2,0:0:0:0:
390,261,97079,1,0,0:0:0:0:
409,199,97223,1,0,0:0:0:0:
368,149,97367,1,0,0:0:0:0:
112,256,97512,6,0,P|120:176|192:136,1,135.000005149842,4|2,0:3|0:0,0:0:0:0:
264,144,97944,1,0,0:0:0:0:
392,128,98089,2,0,L|296:128,1,67.5000025749208,2|0,0:0|0:0,0:0:0:0:
168,144,98377,2,0,L|248:144,1,67.5000025749208
400,168,98665,2,0,L|424:80,1,67.5000025749208,2|0,0:3|0:0,0:0:0:0:
280,64,99098,1,0,0:0:0:0:
144,168,99242,2,0,P|88:128|104:48,1,135.000005149842,2|0,0:0|0:0,0:0:0:0:
184,56,99675,1,0,0:0:0:0:
416,288,99819,6,0,P|472:240|456:120,1,202.500007724762,8|0,0:3|0:0,0:0:0:0:
312,176,100396,1,2,0:0:0:0:
248,176,100540,1,0,0:0:0:0:
184,176,100685,1,0,0:0:0:0:
384,288,100829,2,0,L|272:192,1,135.000005149842,4|0,0:3|0:0,0:0:0:0:
448,280,101262,2,0,L|488:176,1,67.5000025749208,2|0,0:0|0:0,0:0:0:0:
200,224,101550,2,0,L|64:224,1,135.000005149842,8|2,0:3|0:0,0:0:0:0:
200,224,101983,1,0,0:0:0:0:
408,280,102127,6,0,P|464:232|464:152,1,135.000005149842,4|0,0:3|0:0,0:0:0:0:
360,152,102560,1,0,0:0:0:0:
160,272,102704,2,0,P|136:200|192:160,1,135.000005149842,2|0,0:0|0:0,0:0:0:0:
280,160,103137,2,0,L|432:160,1,135.000005149842,8|0,0:3|0:0,0:0:0:0:
312,112,103569,2,0,L|216:112,1,67.5000025749208,2|0,0:0|0:0,0:0:0:0:
440,256,103858,2,0,P|472:176|424:112,1,135.000005149842,4|2,0:3|0:0,0:0:0:0:
104,272,104435,6,0,L|40:144,1,135.000005149842,8|2,0:3|0:0,0:0:0:0:
160,272,104867,1,0,0:0:0:0:
280,224,105012,2,0,L|352:224,2,67.5000025749208,2|0|2,0:0|0:0|0:0,0:0:0:0:
128,216,105444,2,0,P|96:144|160:104,1,135.000005149842,2|0,0:3|0:0,0:0:0:0:
256,160,105877,2,0,L|336:160,1,67.5000025749208,2|0,0:0|0:0,0:0:0:0:
192,160,106165,2,0,P|128:192|136:256,1,135.000005149842,2|2,0:3|0:0,0:0:0:0:
384,176,106598,2,0,L|440:176,1,33.7500012874604
456,176,106742,5,8,0:0:0:0:
320,152,107031,1,2,0:0:0:0:
192,224,107319,1,8,0:0:0:0:
288,224,107464,1,2,0:0:0:0:
120,224,107752,1,8,0:0:0:0:
32,224,108040,1,8,0:0:0:0:
288,176,108185,1,2,0:0:0:0:
160,152,108473,1,2,0:0:0:0:
408,112,108762,1,0,0:0:0:0:
64,256,109050,6,0,L|144:256,1,80.9999975280763,4|0,0:3|0:0,0:0:0:0:
289,256,109339,2,0,L|208:256,1,80.9999975280763
424,312,109627,2,0,P|472:248|400:168,1,161.999995056153,4|0,0:3|0:0,0:0:0:0:
304,208,110060,2,0,L|120:208,1,161.999995056153,8|0,0:3|0:0,0:0:0:0:
328,208,110492,2,0,L|416:64,1,161.999995056153,2|2,0:0|0:3,0:0:0:0:
344,24,110925,1,0,0:0:0:0:
264,24,111069,1,2,0:0:0:0:
192,72,111214,1,0,0:0:0:0:
408,200,111358,6,0,L|240:200,1,161.999995056153,6|0,0:3|0:0,0:0:0:0:
384,200,111790,2,0,P|424:120|312:80,1,161.999995056153,2|2,0:0|0:0,0:0:0:0:
280,72,112223,1,0,0:0:0:0:
120,224,112367,2,0,L|24:80,1,161.999995056153,2|0,0:3|0:0,0:0:0:0:
144,88,112800,1,2,0:0:0:0:
336,264,113089,2,0,L|400:168,1,80.9999975280763,2|0,0:0|0:0,0:0:0:0:
264,176,113377,1,0,0:0:0:0:
424,264,113665,6,0,P|480:184|384:112,1,161.999995056153,4|0,0:3|0:0,0:0:0:0:
360,120,114098,1,0,0:0:0:0:
192,240,114242,2,0,L|296:240,1,80.9999975280763,2|0,0:3|0:0,0:0:0:0:
120,184,114531,2,0,L|96:96,1,80.9999975280763,2|0,0:0|0:0,0:0:0:0:
232,176,114819,2,0,L|408:176,1,161.999995056153,8|2,0:3|0:0,0:0:0:0:
288,176,115252,1,0,0:0:0:0:
80,224,115396,2,0,L|48:128,1,80.9999975280763,2|0,0:0|0:0,0:0:0:0:
184,112,115685,2,0,L|288:112,1,80.9999975280763
64,80,115973,6,0,P|24:152|104:224,1,161.999995056153,8|2,0:3|0:3,0:0:0:0:
152,216,116406,1,0,0:0:0:0:
368,232,116550,2,0,L|400:152,1,80.9999975280763,2|0,0:0|0:0,0:0:0:0:
272,128,116839,2,0,L|144:128,1,80.9999975280763,2|0,0:0|0:0,0:0:0:0:
416,224,117127,2,0,L|448:120,1,80.9999975280763,8|0,0:0|0:0,0:0:0:0:
256,112,117415,2,0,L|352:112,1,80.9999975280763,2|0,0:0|0:0,0:0:0:0:
96,224,117704,2,0,L|72:146,1,80.9999975280763,8|0,0:0|0:0,0:0:0:0:
256,112,117992,2,0,L|175:112,1,80.9999975280763,2|0,0:0|0:0,0:0:0:0:
400,272,118281,6,0,P|464:224|456:128,1,161.999995056153,8|0,0:3|0:0,0:0:0:0:
344,144,118714,2,0,L|176:144,1,161.999995056153,2|0,0:0|0:0,0:0:0:0:
304,144,119146,1,2,0:0:0:0:
160,256,119290,2,0,P|128:176|200:80,1,161.999995056153,2|0,0:3|0:0,0:0:0:0:
280,96,119723,1,2,0:0:0:0:
104,208,120012,2,0,L|232:208,1,80.9999975280763,2|0,0:0|0:0,0:0:0:0:
64,208,120300,2,0,L|32:104,1,80.9999975280763
280,104,120589,6,0,P|368:136|400:232,1,161.999995056153,4|0,0:3|0:0,0:0:0:0:
280,216,121021,1,0,0:0:0:0:
144,216,121165,2,0,L|56:216,2,80.9999975280763,2|0|2,0:0|0:0|0:0,0:0:0:0:
336,288,121598,2,0,L|432:40,1,242.999992584229,8|2,0:3|0:0,0:0:0:0:
248,208,122319,2,0,L|160:208,1,80.9999975280763,2|0,0:0|0:0,0:0:0:0:
288,208,122608,2,0,L|376:208,1,80.9999975280763
112,264,122896,6,0,P|48:200|72:120,1,161.999995056153,8|2,0:3|0:0,0:0:0:0:
160,128,123329,1,0,0:0:0:0:
288,136,123473,2,0,L|112:136,1,161.999995056153,4|0,0:3|0:0,0:0:0:0:
256,248,123906,2,0,P|336:232|328:88,1,242.999992584229,8|2,0:3|0:0,0:0:0:0:
104,264,124627,1,2,0:0:0:0:
71,191,124771,1,0,0:0:0:0:
100,118,124915,1,0,0:0:0:0:
173,88,125059,1,0,0:0:0:0:
400,288,125204,6,0,P|432:208|336:160,1,161.999995056153,4|2,0:3|0:0,0:0:0:0:
280,152,125637,1,0,0:0:0:0:
112,264,125781,1,2,0:0:0:0:
73,195,125925,1,0,0:0:0:0:
91,118,126069,1,0,0:0:0:0:
156,73,126213,1,0,0:0:0:0:
328,216,126358,2,0,L|192:216,1,80.9999975280763,8|0,0:0|0:0,0:0:0:0:
360,216,126646,1,2,0:0:0:0:
448,232,126935,2,0,L|488:144,1,80.9999975280763,8|0,0:0|0:0,0:0:0:0:
392,112,127223,2,0,L|296:112,1,80.9999975280763,2|0,0:0|0:0,0:0:0:0:
96,264,127512,6,0,P|56:184|112:112,1,135.000005149842,4|0,0:3|0:0,0:0:0:0:
168,136,127944,1,0,0:0:0:0:
296,248,128089,2,0,P|352:184|288:128,1,135.000005149842,2|0,0:0|0:0,0:0:0:0:
240,136,128521,1,0,0:0:0:0:
80,136,128665,1,2,0:0:0:0:
200,136,128810,1,0,0:0:0:0:
48,136,128954,2,0,L|128:136,1,67.5000025749208
240,136,129242,2,0,L|328:136,2,67.5000025749208,2|0|2,0:3|0:0|0:0,0:0:0:0:
115,136,129675,1,0,0:0:0:0:
328,144,129819,6,0,L|176:144,1,135.000005149842,4|0,0:3|0:0,0:0:0:0:
296,144,130252,1,0,0:0:0:0:
424,256,130396,2,0,P|464:200|440:128,1,135.000005149842,2|0,0:0|0:0,0:0:0:0:
360,136,130829,1,0,0:0:0:0:
200,240,130973,2,0,L|184:152,1,67.5000025749208,2|0,0:0|0:0,0:0:0:0:
72,176,131262,2,0,L|56:96,1,67.5000025749208
216,160,131550,2,0,L|280:96,1,67.5000025749208,2|0,0:0|0:0,0:0:0:0:
104,96,131839,2,0,L|24:96,1,67.5000025749208
328,144,132127,5,8,0:0:0:0:
168,168,132271,2,0,L|64:168,2,67.5000025749208,2|0|2,0:0|0:0|0:0,0:0:0:0:
392,144,132704,1,8,0:0:0:0:
232,224,132848,2,0,L|136:224,2,67.5000025749208,2|0|2,0:0|0:0|0:0,0:0:0:0:
448,144,133281,2,0,P|496:192|408:240,1,161.999995056153,8|0,0:0|0:0,0:0:0:0:
296,224,133858,2,0,L|192:224,1,67.5000025749208,2|0,0:0|0:0,0:0:0:0:
360,224,134146,2,0,L|448:224,1,67.5000025749208
240,280,134435,5,4,0:3:0:0:
178,256,134579,1,0,0:0:0:0:
143,200,134723,1,0,0:0:0:0:
151,134,134867,1,0,0:0:0:0:
264,120,135012,2,0,L|408:120,1,135.000005149842,2|0,0:0|0:0,0:0:0:0:
240,120,135444,2,0,P|216:200|280:240,1,135.000005149842,2|0,0:0|0:0,0:0:0:0:
344,240,135877,2,0,L|416:240,1,67.5000025749208,2|0,0:0|0:0,0:0:0:0:
240,240,136165,1,2,0:0:0:0:
186,204,136309,1,0,0:0:0:0:
188,139,136453,1,2,0:0:0:0:
245,109,136597,1,0,0:0:0:0:
392,176,136742,6,0,L|459:176,2,67.5000025749208,2|0|0,0:3|0:0|0:0,0:0:0:0:
120,160,137175,1,2,0:0:0:0:
312,240,137464,2,0,L|400:240,1,67.5000025749208,2|0,0:0|0:0,0:0:0:0:
240,232,137752,2,0,P|184:168|232:88,1,135.000005149842,4|0,0:3|0:0,0:0:0:0:
352,144,138185,2,0,L|284:144,1,67.5000025749208,8|0,0:3|0:0,0:0:0:0:
432,264,138473,2,0,P|440:152|344:120,1,161.999995056153,2|0,0:3|0:0,0:0:0:0:
220,216,139050,5,2,0:3:0:0:
280,216,139194,1,0,0:0:0:0:
344,216,139339,1,0,0:0:0:0:
96,216,139483,2,0,P|56:192|88:96,1,135.000005149842,4|2,0:3|0:0,0:0:0:0:
136,96,139915,1,0,0:0:0:0:
224,248,140060,2,0,L|400:80,1,202.500007724762,8|0,0:3|0:0,0:0:0:0:
136,168,140781,2,0,L|120:96,1,67.5000025749208,2|0,0:3|0:0,0:0:0:0:
256,88,141069,1,2,0:0:0:0:
144,80,141214,1,0,0:0:0:0:
432,104,141358,5,8,0:0:0:0:
256,176,141502,2,0,L|336:112,1,67.5000025749208,2|0,0:0|0:0,0:0:0:0:
480,144,141790,1,2,0:0:0:0:
200,136,141935,1,8,0:0:0:0:
352,136,142079,2,0,L|272:96,1,67.5000025749208,2|0,0:0|0:0,0:0:0:0:
152,136,142367,1,2,0:0:0:0:
384,208,142512,2,0,L|472:208,2,67.5000025749208,2|2|0,0:3|0:0|0:0,0:0:0:0:
140,216,142944,1,2,0:0:0:0:
288,208,143089,2,0,L|384:208,1,67.5000025749208,2|0,0:3|0:0,0:0:0:0:
184,216,143377,2,0,L|72:216,1,67.5000025749208,2|0,0:0|0:0,0:0:0:0:
384,216,143665,6,0,L|264:216,2,67.5000025749208,8|0|2,0:0|0:0|0:0,0:0:0:0:
96,200,144098,2,0,L|208:200,2,80.9999975280763,8|0|2,0:0|0:0|0:0,0:0:0:0:
456,184,144531,2,0,L|352:184,2,90,8|0|2,0:0|0:0|0:0,0:0:0:0:
40,192,144964,2,0,L|144:192,2,99.0000030212403,8|0|2,0:0|0:0|0:0,0:0:0:0:
512,176,145396,1,8,0:0:0:0:
399,176,145540,1,0,0:0:0:0:
287,176,145684,1,2,0:0:0:0:
256,192,145973,12,2,148281,0:0:0:0:
312,288,155204,6,0,P|400:240|416:160,1,180,4|0,0:3|0:0,0:0:0:0:
200,288,155637,2,0,P|112:240|96:160,1,180,4|0,0:3|0:0,0:0:0:0:
416,296,156069,2,2,P|408:200|240:160,1,270,8|2,0:3|0:3,0:3:0:0:
136,144,156646,1,2,0:0:0:0:
368,224,156935,2,0,L|400:120,1,90,2|0,0:0|0:0,0:0:0:0:
280,120,157223,1,2,0:0:0:0:
432,136,157367,1,0,0:0:0:0:
128,240,157512,6,0,P|48:192|72:112,1,161.999995056153,4|0,0:0|0:0,0:0:0:0:
280,176,157944,2,0,L|112:176,1,161.999995056153,8|0,0:0|0:0,0:0:0:0:
224,176,158377,1,2,0:0:0:0:
424,280,158521,2,0,P|488:200|424:128,1,161.999995056153,2|0,0:3|0:0,0:0:0:0:
352,136,158954,1,2,0:0:0:0:
120,256,159242,2,0,L|104:160,1,80.9999975280763,2|0,0:0|0:0,0:0:0:0:
240,128,159531,2,0,L|144:128,1,80.9999975280763,2|0,0:0|0:0,0:0:0:0:
368,208,159819,6,0,L|176:208,1,161.999995056153,8|2,0:0|0:0,0:0:0:0:
400,208,160252,2,0,P|464:152|384:72,1,161.999995056153,4|2,0:3|0:0,0:0:0:0:
320,80,160685,1,0,0:0:0:0:
80,304,160829,2,0,L|40:56,1,242.999992584229,4|2,0:0|0:0,0:0:0:0:
240,184,161550,1,2,0:0:0:0:
160,184,161694,1,0,0:0:0:0:
80,184,161839,1,2,0:0:0:0:
160,184,161983,1,0,0:0:0:0:
432,272,162127,6,0,P|472:184|400:144,1,161.999995056153,8|0,0:3|0:0,0:0:0:0:
328,136,162560,1,2,0:0:0:0:
200,224,162704,2,0,L|384:224,1,161.999995056153,4|0,0:3|0:0,0:0:0:0:
208,224,163137,1,4,0:3:0:0:
128,224,163281,1,0,0:0:0:0:
208,224,163425,1,0,0:0:0:0:
96,224,163569,2,0,L|80:144,1,80.9999975280763,2|0,0:0|0:0,0:0:0:0:
240,224,163858,2,0,L|336:224,1,80.9999975280763,2|0,0:0|0:0,0:0:0:0:
176,224,164146,2,0,L|80:224,1,80.9999975280763
416,264,164435,6,0,L|456:96,1,161.999995056153,8|0,0:3|0:0,0:0:0:0:
288,176,164867,2,0,L|176:176,1,80.9999975280763,4|0,0:3|0:0,0:0:0:0:
400,176,165300,2,0,L|304:176,1,80.9999975280763,4|0,0:3|0:0,0:0:0:0:
120,256,165589,1,8,0:0:0:0:
67,198,165733,1,0,0:0:0:0:
83,122,165877,1,2,0:0:0:0:
154,91,166021,1,0,0:0:0:0:
368,168,166165,2,0,L|456:168,1,80.9999975280763,8|0,0:0|0:0,0:0:0:0:
128,176,166454,2,0,L|264:176,1,80.9999975280763,2|0,0:0|0:0,0:0:0:0:
408,240,166742,6,0,L|272:240,1,90,4|0,0:0|0:0,0:0:0:0:
48,240,167031,2,0,L|144:240,1,90,2|0,0:0|0:0,0:0:0:0:
368,328,167319,2,0,P|432:288|384:192,1,180,8|0,0:0|0:0,0:0:0:0:
110,232,167752,2,0,L|304:232,1,180,2|0,0:3|0:0,0:0:0:0:
168,232,168185,1,2,0:0:0:0:
408,224,168473,2,0,L|280:224,1,90,2|0,0:0|0:0,0:0:0:0:
456,192,168762,2,0,L|496:104,1,90,2|0,0:0|0:0,0:0:0:0:
176,264,169050,6,0,P|88:200|112:104,1,180,8|2,0:0|0:0,0:0:0:0:
216,112,169483,1,0,0:0:0:0:
416,184,169627,2,0,L|488:128,1,90,2|0,0:0|0:0,0:0:0:0:
352,184,169915,1,2,0:0:0:0:
184,312,170060,2,0,P|128:224|192:152,1,180,2|0,0:3|0:0,0:0:0:0:
280,160,170492,1,2,0:0:0:0:
72,264,170781,2,0,L|16:176,1,90,2|0,0:0|0:0,0:0:0:0:
128,128,171069,2,0,L|232:128,1,90,2|0,0:0|0:0,0:0:0:0:
432,208,171358,6,0,L|224:208,1,180,4|2,0:0|0:0,0:0:0:0:
376,208,171790,1,0,0:0:0:0:
128,256,171935,2,0,P|64:152|144:64,1,180,8|0,0:3|0:0,0:0:0:0:
224,208,172367,2,0,L|432:208,1,180,4|0,0:3|0:0,0:0:0:0:
224,208,172800,1,2,0:0:0:0:
432,208,172944,2,0,P|472:120|400:88,1,180,2|0,0:3|0:0,0:0:0:0:
256,112,173377,2,0,L|160:112,1,90,2|0,0:0|0:0,0:0:0:0:
416,152,173665,6,0,L|304:152,2,90,8|0|2,0:0|0:0|0:0,0:0:0:0:
240,208,174098,2,0,L|336:208,1,90,8|0,0:0|0:0,0:0:0:0:
136,160,174531,2,0,L|40:160,1,90,2|0,0:0|0:0,0:0:0:0:
352,280,174819,2,0,P|432:224|344:136,1,180,8|2,0:0|0:0,0:0:0:0:
296,144,175252,1,0,0:0:0:0:
112,280,175396,1,2,0:0:0:0:
72,202,175540,1,0,0:0:0:0:
104,121,175685,1,2,0:0:0:0:
186,91,175828,1,0,0:0:0:0:
400,264,175973,6,8,L|216:264,1,180,4|2,0:3|0:0,0:3:0:0:
432,264,176406,2,0,P|472:168|400:128,1,180,8|2,0:3|0:0,0:0:0:0:
280,264,176839,1,0,0:0:0:0:
160,264,176983,2,0,P|88:200|176:96,1,180,2|0,0:3|0:0,0:0:0:0:
176,72,177415,1,2,0:0:0:0:
264,64,177560,1,0,0:0:0:0:
64,200,177704,2,0,L|0:136,1,90,2|0,0:0|0:0,0:0:0:0:
288,200,177992,2,0,L|384:200,1,90
160,200,178281,6,0,L|352:200,1,180,8|2,0:0|0:0,0:0:0:0:
192,200,178714,1,0,0:0:0:0:
368,104,178858,2,0,L|472:104,2,90,2|0|2,0:3|0:0|0:0,0:0:0:0:
88,312,179290,2,0,P|40:216|112:144,1,180,8|0,0:0|0:0,0:0:0:0:
208,144,179723,1,2,0:0:0:0:
368,264,180012,2,0,L|440:192,1,90,2|0,0:0|0:0,0:0:0:0:
256,208,180300,2,0,L|144:208,1,90
432,272,180589,6,0,P|480:192|392:128,1,180,4|2,0:3|0:0,0:0:0:0:
320,128,181021,1,0,0:0:0:0:
112,176,181165,2,0,L|88:80,1,90,8|0,0:3|0:0,0:0:0:0:
224,80,181454,1,0,0:0:0:0:
40,220,181598,2,0,P|19:138|88:88,1,180,4|2,0:3|0:0,0:0:0:0:
298,256,182031,2,0,L|208:256,1,90,2|0,0:3|0:0,0:0:0:0:
432,264,182319,1,2,0:0:0:0:
488,197,182463,1,0,0:0:0:0:
466,113,182607,1,2,0:0:0:0:
385,82,182751,1,0,0:0:0:0:
136,320,182896,6,0,L|112:72,1,180,8|0,0:0|0:0,0:0:0:0:
320,272,183329,2,0,L|336:80,1,180,8|0,0:0|0:0,0:0:0:0:
40,144,183762,1,4,0:3:0:0:
256,272,184050,1,2,0:0:0:0:
166,272,184194,1,0,0:0:0:0:
76,272,184338,1,2,0:0:0:0:
424,224,184627,2,0,L|496:152,1,90,2|0,0:0|0:0,0:0:0:0:
256,240,184915,2,0,L|136:240,1,90
432,240,185204,6,0,L|312:240,1,90,2|0,0:0|0:0,0:0:0:0:
216,240,185637,2,0,L|344:240,1,90,2|0,0:0|0:0,0:0:0:0:
160,240,186214,2,0,L|32:240,2,90,2|2|0,0:0|0:0|0:0,0:0:0:0:
306,240,186935,2,2,L|306:128,1,90
80,240,187512,6,0,L|200:240,1,90,2|0,0:0|0:0,0:0:0:0:
296,240,187945,2,0,L|168:240,1,90,2|0,0:0|0:0,0:0:0:0:
352,240,188522,2,0,L|480:240,2,90,2|2|0,0:0|0:0|0:0,0:0:0:0:
206,240,189242,2,2,L|206:128,1,90
80,216,189819,6,0,L|192:216,1,90,2|0,0:0|0:0,0:0:0:0:
288,216,190252,2,0,L|408:216,1,90,2|0,0:0|0:0,0:0:0:0:
232,216,190685,2,0,L|112:216,1,90,2|0,0:0|0:0,0:0:0:0:
24,216,191117,2,0,L|136:216,1,90,2|0,0:0|0:0,0:0:0:0:
264,216,191550,1,2,0:0:0:0:
114,216,191839,1,2,0:0:0:0:
328,216,192127,6,0,L|328:96,1,90,2|0,0:0|0:0,0:0:0:0:
184,216,192560,2,0,L|184:96,1,90,2|0,0:0|0:0,0:0:0:0:
440,216,193137,2,0,L|440:96,1,90,0|2,0:0|0:0,0:0:0:0:
320,136,193714,1,2,0:0:0:0:
184,128,193858,2,0,L|184:256,1,90,2|0,0:0|0:0,0:0:0:0:
