osu file format v14

[General]
AudioFilename: audio.mp3
AudioLeadIn: 0
PreviewTime: 52378
Countdown: 0
SampleSet: None
StackLeniency: 0.7
Mode: 0
LetterboxInBreaks: 0
WidescreenStoryboard: 1

[Editor]
Bookmarks: 4306,7197,10089,12980,15872,18763,21655,24546,27438,30330,33221,36113,39004,41896,44787,47679,50571,53462,55631,59245,62137,65028,67920,70812,73703,76595,79486,82378,85269,88161,91052,93944,96836,99546,102619,105510,108402,111293,114185,117077,119968,122137,125751,128643,131534,134426,137318,140209,143101,145992,148884,150330,153221,155390,159004,161896,164787,167679,170570,173462,185028,187920,190811,193703,196595
DistanceSpacing: 1
BeatDivisor: 4
GridSize: 4
TimelineZoom: 1

[Metadata]
Title:Galaxy
TitleUnicode:우주를 줄게
Artist:Bolbbalgan4
ArtistUnicode:볼빨간사춘기
Creator:Bakari
Version:Normal
Source:
Tags:kpop pilot Jiyoung Jiyoon Blushing Youth Bolbbalgan RED PLANET k-pop k-indie indie
BeatmapID:1378060
BeatmapSetID:649298

[Difficulty]
HPDrainRate:4
CircleSize:4
OverallDifficulty:4
ApproachRate:5
SliderMultiplier:1.5
SliderTickRate:2

[Events]
//Background and Video events
0,0,"d37f5ffc0056e09c22661723d558f01a.jpg",0,0
Video,-2083,"galaxy.avi"
//Break Periods
2,173462,181660
//Storyboard Layer 0 (Background)
//Storyboard Layer 1 (Fail)
//Storyboard Layer 2 (Pass)
//Storyboard Layer 3 (Foreground)
//Storyboard Sound Samples

[TimingPoints]
4306,722.89156626506,4,2,0,55,1,0
27438,-83.3333333333333,4,3,0,55,0,0
53462,-83.3333333333333,4,3,0,60,0,1
63402,-83.3333333333333,4,3,0,60,0,0
65028,-83.3333333333333,4,3,0,60,0,1
76595,-83.3333333333333,4,3,0,60,0,0
102619,-100,4,2,0,55,0,0
125751,-83.3333333333333,4,3,0,60,0,0
150330,722.89156626506,4,3,0,60,1,1
150330,-83.3333333333333,4,3,0,60,0,1
160269,-100,4,3,0,60,0,1
161896,-83.3333333333333,4,3,0,60,0,1
173462,-83.3333333333333,4,3,0,60,0,0
185028,-83.3333333333333,4,3,0,60,0,1
196595,-83.3333333333333,4,3,0,60,0,0

[Colours]
Combo1 : 155,92,163
Combo2 : 160,179,233
Combo3 : 200,147,147
Combo4 : 140,130,128
SliderBorder : 222,160,160
SliderTrackOverride : 50,50,110

[HitObjects]
140,328,4306,5,4,0:0:0:0:
104,264,4667,1,0,0:0:0:0:
64,200,5028,2,0,L|72:84,2,112.5,2|2|0,0:0|0:0|0:0,0:0:0:0:
172,96,6836,5,2,0:0:0:0:
172,96,7197,2,0,L|179:4,1,75,4|0,0:0|0:0,0:0:0:0:
252,4,7920,2,0,L|240:148,2,112.5,2|2|0,0:0|0:0|0:0,0:0:0:0:
320,36,9366,1,2,0:0:0:0:
176,80,10089,5,4,0:0:0:0:
288,180,10812,2,0,P|296:216|296:260,1,75,2|0,0:0|0:0,0:0:0:0:
256,316,11534,1,0,0:0:0:0:
368,216,12257,1,2,0:0:0:0:
232,156,12980,6,0,L|240:72,1,75,4|0,0:0|0:0,0:0:0:0:
200,16,13703,1,2,0:0:0:0:
108,136,14426,1,0,0:0:0:0:
172,272,15149,2,0,P|204:280|256:280,1,75,2|0,0:0|0:0,0:0:0:0:
312,248,15872,5,4,0:0:0:0:
448,184,16595,1,2,0:0:0:0:
360,64,17318,2,0,L|352:160,1,75,0|0,0:0|0:0,0:0:0:0:
284,172,18040,2,0,L|276:268,1,75,2|0,0:0|0:0,0:0:0:0:
330,299,18763,6,0,L|321:393,2,75,4|0|2,0:0|0:0|0:0,0:0:0:0:
192,120,20571,2,0,L|201:26,2,75,0|2|0,0:0|0:0|0:0,0:0:0:0:
132,168,21655,5,4,0:0:0:0:
276,124,22378,1,2,0:0:0:0:
412,184,23101,2,0,P|424:220|428:280,1,75,0|0,0:0|0:0,0:0:0:0:
376,312,23824,1,2,0:0:0:0:
320,264,24185,1,0,0:0:0:0:
264,312,24546,6,0,P|192:352|4:304,1,262.5,0|0,0:0|0:0,0:0:0:0:
35,172,26715,6,0,L|85:165,1,37.5,4|2,0:0|0:0,0:0:0:0:
152,60,27438,5,4,0:0:0:0:
240,216,28161,2,0,L|228:324,1,89.9999972534181,8|4,2:0|0:0,0:0:0:0:
256,344,28703,1,2,0:0:0:0:
348,340,29065,1,2,0:0:0:0:
320,304,29245,6,0,L|332:204,1,89.9999972534181,8|8,0:0|2:0,0:0:0:0:
376,208,29787,2,0,L|384:140,1,44.999998626709,4|0,0:0|0:0,0:0:0:0:
364,76,30330,6,0,P|316:84|264:68,1,89.9999972534181,4|8,0:0|0:0,0:0:0:0:
196,36,31052,2,0,L|204:132,2,89.9999972534181,8|4|0,2:0|0:0|0:0,0:0:0:0:
116,76,32137,6,0,L|96:180,1,89.9999972534181,8|8,0:0|2:0,0:0:0:0:
68,196,32679,2,0,L|56:248,1,44.999998626709,4|0,0:0|0:0,0:0:0:0:
124,300,33221,5,4,0:0:0:0:
208,256,33583,1,8,0:0:0:0:
296,272,33944,2,0,P|312:308|320:364,2,89.9999972534181,8|4|0,2:0|0:0|0:0,0:0:0:0:
320,236,34848,1,2,2:0:0:0:
292,200,35028,6,0,P|276:164|268:108,1,89.9999972534181,8|8,0:0|2:0,0:0:0:0:
280,72,35571,2,0,L|268:28,1,44.999998626709,4|0,0:0|0:0,0:0:0:0:
180,12,36113,5,4,0:0:0:0:
120,80,36474,1,0,0:0:0:0:
176,148,36836,2,0,P|208:204|220:252,1,89.9999972534181,0|0,0:0|0:0,0:0:0:0:
196,268,37378,1,2,2:0:0:0:
160,296,37559,1,8,0:0:0:0:
220,360,37920,6,0,L|320:352,1,89.9999972534181,8|8,0:0|2:0,0:0:0:0:
332,316,38462,2,0,L|392:311,1,44.999998626709,4|0,0:0|0:0,0:0:0:0:
456,352,39004,6,0,P|484:324|508:216,1,134.999995880127,4|0,0:0|0:0,0:0:0:0:
492,192,39727,2,0,P|480:160|480:104,1,89.9999972534181,8|4,2:0|0:0,0:0:0:0:
496,64,40269,1,2,0:0:0:0:
412,36,40631,1,2,2:0:0:0:
380,68,40812,6,0,L|388:168,1,89.9999972534181,8|8,0:0|2:0,0:0:0:0:
360,192,41354,2,0,L|364:256,1,44.999998626709,4|0,0:0|0:0,0:0:0:0:
396,320,41896,5,4,0:0:0:0:
308,300,42257,1,8,0:0:0:0:
220,316,42619,2,0,P|184:332|136:368,1,89.9999972534181,8|4,2:0|0:0,0:0:0:0:
100,352,43161,2,0,P|68:312|16:280,1,89.9999972534181,2|2,0:0|2:0,0:0:0:0:
16,248,43703,6,0,L|112:236,1,89.9999972534181,8|8,0:0|2:0,0:0:0:0:
124,196,44245,2,0,L|174:188,1,44.999998626709,4|0,0:0|0:0,0:0:0:0:
236,248,44787,6,0,P|264:196|260:116,1,134.999995880127,4|0,0:0|0:0,0:0:0:0:
304,108,45510,2,0,P|348:128|408:132,1,89.9999972534181,8|4,2:0|0:0,0:0:0:0:
424,104,46052,1,2,0:0:0:0:
384,24,46414,1,2,2:0:0:0:
340,32,46595,6,0,L|224:20,1,89.9999972534181,8|8,0:0|2:0,0:0:0:0:
208,36,47137,2,0,L|140:28,1,44.999998626709,4|0,0:0|0:0,0:0:0:0:
92,84,47679,6,0,L|-8:72,2,89.9999972534181,4|8|8,0:0|0:0|2:0,0:0:0:0:
124,168,48763,2,0,L|72:160,1,44.999998626709,4|2,0:0|0:0,0:0:0:0:
96,248,49305,1,2,2:0:0:0:
120,288,49486,2,0,L|219:300,2,89.9999972534181,8|8|0,0:0|2:0|0:0,0:0:0:0:
56,352,50571,5,2,0:0:0:0:
448,200,53462,6,0,P|424:168|356:144,1,89.9999972534181,4|2,0:0|0:0,0:0:0:0:
300,192,54185,2,0,L|288:344,2,134.999995880127,8|0|4,2:0|0:0|0:0,0:0:0:0:
276,152,55450,1,0,0:0:0:0:
252,112,55631,2,0,L|260:18,1,89.9999972534181,10|2,0:0|0:0,0:0:0:0:
176,52,56354,6,0,B|164:152,1,89.9999972534181,4|2,0:0|0:0,0:0:0:0:
212,220,57077,2,0,L|196:376,2,134.999995880127,8|0|4,2:0|0:0|0:0,0:0:0:0:
272,152,58522,5,8,2:0:0:0:
372,304,59245,1,4,0:0:0:0:
272,152,59968,5,8,2:0:0:0:
372,304,60691,1,8,0:0:0:0:
432,236,61052,5,4,0:0:0:0:
348,204,61414,1,8,2:0:0:0:
284,264,61775,1,2,0:0:0:0:
216,324,62137,2,0,P|156:352|44:296,1,179.999994506836,4|8,0:0|2:0,0:0:0:0:
56,268,63040,2,0,L|100:260,2,44.999998626709,2|2|8,0:0|0:0|0:0,0:0:0:0:
60,136,65028,6,0,P|96:148|168:144,1,89.9999972534181,4|2,0:0|0:0,0:0:0:0:
224,100,65751,2,0,L|364:116,2,134.999995880127,8|0|4,2:0|0:0|0:0,0:0:0:0:
204,60,67016,1,0,0:0:0:0:
184,20,67197,2,0,L|84:8,1,89.9999972534181,8|2,2:0|0:0,0:0:0:0:
48,84,67920,6,0,L|142:94,1,89.9999972534181,4|2,0:0|0:0,0:0:0:0:
196,160,68643,1,8,2:0:0:0:
200,248,69004,1,2,0:0:0:0:
152,324,69366,2,0,P|108:332|60:328,1,89.9999972534181,8|4,0:0|0:0,0:0:0:0:
12,252,70089,1,8,2:0:0:0:
156,144,70812,6,0,L|256:152,1,89.9999972534181,4|2,0:0|0:0,0:0:0:0:
328,188,71534,1,8,2:0:0:0:
316,100,71896,1,2,0:0:0:0:
304,12,72257,1,8,0:0:0:0:
232,68,72619,2,0,L|132:59,2,89.9999972534181,4|8|2,0:0|2:0|0:0,0:0:0:0:
316,100,73703,6,0,L|508:120,1,179.999994506836,4|8,0:0|2:0,0:0:0:0:
448,40,74787,1,2,0:0:0:0:
336,180,75510,2,0,L|348:288,1,89.9999972534181,4|8,0:0|2:0,0:0:0:0:
332,312,76052,1,8,0:0:0:0:
88,88,79486,6,0,P|132:92|200:208,1,179.999994506836,4|10,0:0|0:0,0:0:0:0:
132,256,80571,2,0,L|72:248,1,44.999998626709,2|0,0:0|0:0,0:0:0:0:
40,324,81113,2,0,L|100:333,1,44.999998626709,2|0,0:0|0:0,0:0:0:0:
172,344,81655,1,10,0:0:0:0:
292,208,82378,5,4,0:0:0:0:
364,260,82739,1,8,0:0:0:0:
368,352,83101,2,0,L|296:352,2,44.999998626709,10|0|0,0:0|0:0|0:0,0:0:0:0:
412,368,83643,1,2,0:0:0:0:
461,292,84004,2,0,L|514:294,2,44.999998626709,0|8|0,0:0|0:0|0:0,0:0:0:0:
440,252,84546,2,0,P|464:212|472:156,1,89.9999972534181,10|0,0:0|0:0,0:0:0:0:
444,84,85269,5,4,0:0:0:0:
360,48,85631,2,0,P|320:76|292:124,1,89.9999972534181,0|10,0:0|0:0,0:0:0:0:
212,88,86354,2,0,P|216:136|243:184,1,89.9999972534181,0|2,0:0|0:0,0:0:0:0:
176,240,87077,2,0,P|220:260|275:260,2,89.9999972534181,0|10|0,0:0|0:0|0:0,0:0:0:0:
116,172,88161,5,4,0:0:0:0:
116,172,88522,1,0,0:0:0:0:
116,172,88884,1,10,0:0:0:0:
48,340,89607,1,2,0:0:0:0:
48,340,89968,1,0,0:0:0:0:
48,340,90330,2,0,L|32:240,1,89.9999972534181,10|0,0:0|0:0,0:0:0:0:
92,180,91052,5,4,0:0:0:0:
216,312,91775,2,0,L|197:223,2,89.9999972534181,10|0|0,0:0|0:0|0:0,0:0:0:0:
256,328,92679,2,0,L|272:384,2,44.999998626709
288,296,93221,1,10,0:0:0:0:
424,180,93944,6,0,P|440:224|436:296,2,89.9999972534181,4|0|10,0:0|0:0|0:0,0:0:0:0:
364,112,95028,2,0,P|372:84|388:52,2,44.999998626709,0|0|2,0:0|0:0|0:0,0:0:0:0:
296,172,95751,1,0,0:0:0:0:
208,160,96113,2,0,P|180:120|160:68,1,89.9999972534181,10|0,0:0|0:0,0:0:0:0:
92,28,96836,6,0,P|80:72|52:112,2,89.9999972534181,4|0|10,0:0|0:0|0:0,0:0:0:0:
163,82,97920,1,0,0:0:0:0:
240,36,98281,1,2,0:0:0:0:
400,120,99004,2,0,L|452:112,2,44.999998626709,10|0|0,0:0|0:0|0:0,0:0:0:0:
368,204,99727,6,0,L|263:219,2,89.9999972534181,4|0|10,0:0|0:0|0:0,0:0:0:0:
444,252,100812,2,0,P|420:272|388:284,1,44.999998626709,0|0,0:0|0:0,0:0:0:0:
364,292,101173,1,2,0:0:0:0:
276,136,101896,2,0,L|288:24,1,89.9999972534181,10|0,0:0|0:0,0:0:0:0:
344,0,102619,5,4,0:0:0:0:
392,60,102980,1,2,0:0:0:0:
428,128,103342,2,0,L|416:240,2,112.5,8|2|2,0:0|0:0|0:0,0:0:0:0:
300,208,105149,1,0,0:0:0:0:
264,144,105510,6,0,L|272:64,1,75,4|2,0:0|0:0,0:0:0:0:
204,36,106233,2,0,L|185:196,1,150,8|2,0:0|0:0,0:0:0:0:
180,260,107318,2,0,P|192:296|192:336,2,75,2|8|2,0:0|0:0|0:0,0:0:0:0:
186,184,108402,6,0,P|174:148|174:108,1,75,4|2,0:0|0:0,0:0:0:0:
220,52,109125,2,0,P|256:60|344:44,2,112.5,8|2|2,0:0|0:0|2:0,0:0:0:0:
156,16,110571,1,8,0:0:0:0:
104,72,110932,1,2,0:0:0:0:
36,104,111293,6,0,L|24:184,1,75,4|2,0:0|0:0,0:0:0:0:
68,240,112016,2,0,L|48:368,2,112.5,8|2|4,0:0|0:0|3:0,0:0:0:0:
120,184,113462,1,8,0:0:0:0:
184,220,113824,1,2,0:0:0:0:
252,192,114185,6,0,L|264:108,2,75,4|2|0,0:0|0:0|0:0,0:0:0:0:
380,268,115631,2,0,L|368:368,1,75,0|2,0:0|0:0,0:0:0:0:
440,368,116354,2,0,L|456:264,1,75,8|2,0:0|0:0,0:0:0:0:
432,220,117077,1,4,0:0:0:0:
432,220,117799,1,0,0:0:0:0:
268,68,118884,5,2,0:0:0:0:
220,124,119245,1,10,0:0:0:0:
148,140,119607,1,2,0:0:0:0:
80,112,119968,5,4,0:0:0:0:
8,244,120691,2,0,P|8:284|20:332,1,75,8|0,0:0|0:0,0:0:0:0:
76,360,121414,1,2,0:0:0:0:
136,312,121775,1,4,3:0:0:0:
204,280,122137,2,8,P|264:296|336:372,2,150,10|4|0,0:0|3:0|0:0,0:0:0:0:
477,212,125028,6,0,L|427:219,1,37.5,4|2,0:0|0:0,0:0:0:0:
360,324,125751,5,4,0:0:0:0:
272,168,126474,2,0,L|284:60,1,89.9999972534181,10|4,0:0|0:0,0:0:0:0:
256,40,127016,1,2,0:0:0:0:
180,92,127378,2,0,L|174:140,1,44.999998626709,2|8,0:0|0:0,0:0:0:0:
132,152,127739,2,0,L|126:200,1,44.999998626709,0|10,0:0|0:0,0:0:0:0:
52,244,128281,1,0,0:0:0:0:
112,312,128643,6,0,P|160:304|212:320,1,89.9999972534181,4|8,0:0|0:0,0:0:0:0:
280,356,129366,2,0,L|272:256,2,89.9999972534181,10|4|0,0:0|0:0|0:0,0:0:0:0:
356,308,130450,6,0,L|376:204,1,89.9999972534181,8|10,0:0|0:0,0:0:0:0:
412,196,130992,2,0,L|424:144,1,44.999998626709,4|0,0:0|0:0,0:0:0:0:
376,76,131534,5,4,0:0:0:0:
304,128,131896,1,8,0:0:0:0:
216,112,132257,2,0,P|200:76|192:20,2,89.9999972534181,10|4|0,0:0|0:0|0:0,0:0:0:0:
192,148,133161,1,2,2:0:0:0:
220,184,133341,6,0,P|236:220|244:276,1,89.9999972534181,8|10,0:0|0:0,0:0:0:0:
232,312,133884,2,0,L|244:356,1,44.999998626709,4|0,0:0|0:0,0:0:0:0:
332,372,134426,5,4,0:0:0:0:
392,304,134787,1,0,0:0:0:0:
336,236,135149,2,0,P|304:180|292:132,1,89.9999972534181,0|0,0:0|0:0,0:0:0:0:
316,116,135691,1,2,0:0:0:0:
352,88,135872,1,8,0:0:0:0:
292,24,136233,6,0,L|192:32,1,89.9999972534181,8|10,0:0|0:0,0:0:0:0:
180,68,136775,2,0,L|120:73,1,44.999998626709,4|0,0:0|0:0,0:0:0:0:
56,32,137317,6,0,P|28:60|4:168,1,134.999995880127,4|0,0:0|0:0,0:0:0:0:
20,192,138040,2,0,P|32:224|32:280,1,89.9999972534181,10|4,0:0|0:0,0:0:0:0:
16,320,138582,1,2,0:0:0:0:
100,348,138944,1,2,2:0:0:0:
132,316,139125,6,0,L|124:216,1,89.9999972534181,8|10,0:0|0:0,0:0:0:0:
152,192,139667,2,0,L|148:128,1,44.999998626709,4|0,0:0|0:0,0:0:0:0:
116,64,140209,5,4,0:0:0:0:
204,84,140570,1,8,0:0:0:0:
292,68,140932,2,0,P|328:52|376:16,1,89.9999972534181,10|4,0:0|0:0,0:0:0:0:
412,32,141474,2,0,P|444:72|496:104,1,89.9999972534181,2|2,0:0|2:0,0:0:0:0:
496,136,142016,6,0,L|400:148,1,89.9999972534181,8|10,0:0|0:0,0:0:0:0:
388,188,142558,2,0,L|338:196,1,44.999998626709,4|0,0:0|0:0,0:0:0:0:
276,136,143100,6,0,P|248:188|252:268,1,134.999995880127,4|0,0:0|0:0,0:0:0:0:
208,276,143823,2,0,P|164:256|104:252,1,89.9999972534181,10|4,0:0|0:0,0:0:0:0:
88,280,144365,1,2,0:0:0:0:
128,360,144727,1,2,2:0:0:0:
172,352,144908,6,0,L|288:364,1,89.9999972534181,8|10,0:0|0:0,0:0:0:0:
304,348,145450,2,0,L|372:356,1,44.999998626709,4|0,0:0|0:0,0:0:0:0:
420,300,145992,6,0,L|520:312,2,89.9999972534181,4|8|10,0:0|0:0|0:0,0:0:0:0:
388,216,147076,2,0,L|440:224,1,44.999998626709,4|2,0:0|0:0,0:0:0:0:
416,136,147618,1,2,2:0:0:0:
392,96,147799,2,0,L|293:84,2,89.9999972534181,8|10|0,0:0|0:0|0:0,0:0:0:0:
456,32,148884,5,8,0:0:0:0:
64,184,150330,6,0,P|88:216|156:240,1,89.9999972534181,4|2,2:0|0:0,0:0:0:0:
212,192,151053,2,0,L|224:40,2,134.999995880127,8|0|4,2:0|0:0|0:0,0:0:0:0:
236,232,152318,1,0,0:0:0:0:
260,272,152499,2,0,L|252:366,1,89.9999972534181,8|2,2:0|0:0,0:0:0:0:
336,332,153222,6,0,B|348:232,1,89.9999972534181,4|2,0:0|0:0,0:0:0:0:
300,164,153945,2,0,L|316:8,2,134.999995880127,8|0|4,2:0|0:0|0:0,0:0:0:0:
240,232,155390,5,8,2:0:0:0:
156,72,156113,1,4,0:0:0:0:
240,232,156836,5,8,2:0:0:0:
156,72,157559,1,8,0:0:0:0:
96,136,157920,5,4,0:0:0:0:
176,176,158282,1,8,2:0:0:0:
240,112,158643,1,2,0:0:0:0:
304,48,159005,2,0,P|364:20|476:76,1,179.999994506836,4|8,0:0|2:0,0:0:0:0:
448,100,159908,2,0,L|404:108,2,44.999998626709,2|2|10,0:0|0:0|0:0,0:0:0:0:
452,248,161896,6,0,P|416:236|344:240,1,89.9999972534181,4|2,0:0|0:0,0:0:0:0:
288,284,162619,2,0,L|148:268,2,134.999995880127,8|0|4,2:0|0:0|0:0,0:0:0:0:
308,324,163884,1,0,0:0:0:0:
328,364,164065,2,0,L|428:376,1,89.9999972534181,8|2,2:0|0:0,0:0:0:0:
464,300,164788,6,0,L|370:290,1,89.9999972534181,4|2,0:0|0:0,0:0:0:0:
316,224,165511,1,8,2:0:0:0:
312,136,165872,1,2,0:0:0:0:
360,60,166234,2,0,P|404:52|452:56,1,89.9999972534181,8|4,0:0|0:0,0:0:0:0:
500,132,166957,1,8,2:0:0:0:
356,240,167680,6,0,L|256:232,1,89.9999972534181,4|2,0:0|0:0,0:0:0:0:
184,196,168402,1,8,2:0:0:0:
196,284,168764,1,2,0:0:0:0:
208,372,169125,1,8,0:0:0:0:
280,316,169487,2,0,L|380:325,2,89.9999972534181,4|8|2,0:0|2:0|0:0,0:0:0:0:
196,284,170571,6,0,L|4:264,1,179.999994506836,4|8,0:0|2:0,0:0:0:0:
64,344,171655,1,2,0:0:0:0:
176,204,172378,2,0,L|164:96,1,89.9999972534181,4|8,0:0|2:0,0:0:0:0:
180,72,172920,1,0,0:0:0:0:
132,168,182860,5,8,2:0:0:0:
156,204,183040,2,0,L|152:260,2,44.999998626709,2|4|8,0:0|0:0|0:0,0:0:0:0:
296,92,185028,6,0,L|280:284,2,179.999994506836,4|0|8,0:0|0:0|0:0,0:0:0:0:
460,16,187197,2,0,L|448:132,1,89.9999972534181,8|2,2:0|0:0,0:0:0:0:
496,184,187920,6,0,P|452:196|368:96,1,179.999994506836,4|8,0:0|2:0,0:0:0:0:
308,44,189004,1,0,0:0:0:0:
236,100,189366,2,0,L|244:208,1,89.9999972534181,8|0,0:0|0:0,0:0:0:0:
212,272,190089,5,8,2:0:0:0:
76,156,190811,1,4,0:0:0:0:
212,272,191534,5,8,2:0:0:0:
76,156,192257,1,8,0:0:0:0:
32,236,192619,1,4,0:0:0:0:
120,236,192980,1,8,2:0:0:0:
4,100,193703,6,0,P|52:72|168:136,1,179.999994506836,4|0,0:0|0:0,0:0:0:0:
184,204,194787,1,0,0:0:0:0:
320,88,195510,1,4,0:0:0:0:
388,148,195872,2,0,L|440:144,1,44.999998626709,8|0,2:0|0:0,0:0:0:0:
330,235,196595,5,4,0:0:0:0:
