osu file format v14

[General]
AudioFilename: audio.mp3
AudioLeadIn: 0
PreviewTime: 52378
Countdown: 0
SampleSet: None
StackLeniency: 0.7
Mode: 0
LetterboxInBreaks: 0
WidescreenStoryboard: 1

[Editor]
Bookmarks: 4306,7197,10089,12980,15872,18763,21655,24546,27438,30330,33221,36113,39004,41896,44787,47679,50571,53462,55631,59245,62137,65028,67920,70812,73703,76595,79486,82378,85269,88161,91052,93944,96836,99546,102619,105510,108402,111293,114185,117077,119968,122137,125751,128643,131534,134426,137318,140209,143101,145992,148884,150330,153221,155390,159004,161896,164787,167679,170570,173462,185028,187920,190811,193703,196595
DistanceSpacing: 1.21
BeatDivisor: 4
GridSize: 4
TimelineZoom: 1

[Metadata]
Title:Galaxy
TitleUnicode:우주를 줄게
Artist:Bolbbalgan4
ArtistUnicode:볼빨간사춘기
Creator:Bakari
Version:Love
Source:
Tags:kpop pilot Jiyoung Jiyoon Blushing Youth Bolbbalgan RED PLANET k-pop k-indie indie
BeatmapID:1375637
BeatmapSetID:649298

[Difficulty]
HPDrainRate:6
CircleSize:4.5
OverallDifficulty:6
ApproachRate:7
SliderMultiplier:1.9
SliderTickRate:2

[Events]
//Background and Video events
0,0,"d37f5ffc0056e09c22661723d558f01a.jpg",0,0
Video,-2083,"galaxy.avi"
//Break Periods
2,173462,181960
//Storyboard Layer 0 (Background)
//Storyboard Layer 1 (Fail)
//Storyboard Layer 2 (Pass)
//Storyboard Layer 3 (Foreground)
//Storyboard Sound Samples

[TimingPoints]
4306,722.89156626506,4,2,0,55,1,0
27438,-83.3333333333333,4,3,0,55,0,0
53462,-83.3333333333333,4,3,0,60,0,1
63402,-83.3333333333333,4,3,0,60,0,0
65028,-83.3333333333333,4,3,0,60,0,1
76595,-83.3333333333333,4,3,0,60,0,0
102619,-100,4,2,0,55,0,0
125751,-83.3333333333333,4,3,0,60,0,0
150330,722.89156626506,4,3,0,60,1,1
160269,-100,4,3,0,60,0,0
161896,-83.3333333333333,4,3,0,60,0,1
173462,-83.3333333333333,4,3,0,60,0,0
185028,-83.3333333333333,4,3,0,60,0,1
196595,-83.3333333333333,4,3,0,60,0,0

[Colours]
Combo1 : 155,92,163
Combo2 : 160,179,233
Combo3 : 200,147,147
Combo4 : 140,130,128
SliderBorder : 222,160,160
SliderTrackOverride : 50,50,110

[HitObjects]
72,176,4306,5,4,0:0:0:0:
152,108,4667,1,0,0:0:0:0:
236,168,5028,2,0,P|224:216|232:280,1,95,2|0,0:0|0:0,0:0:0:0:
256,304,5571,1,2,0:0:0:0:
164,356,5932,1,0,0:0:0:0:
44,136,6836,5,2,0:0:0:0:
40,144,7197,1,4,0:0:0:0:
116,216,7559,1,0,0:0:0:0:
188,144,7920,2,0,P|168:100|160:48,1,95,2|0,0:0|0:0,0:0:0:0:
184,8,8462,1,2,0:0:0:0:
272,136,9004,1,0,0:0:0:0:
204,216,9366,1,2,0:0:0:0:
184,320,9727,1,0,0:0:0:0:
93,201,10089,6,0,P|76:171|31:127,1,95,4|0,0:0|0:0,0:0:0:0:
136,116,10812,2,0,P|159:87|188:32,1,95,2|0,0:0|0:0,0:0:0:0:
160,0,11354,1,2,0:0:0:0:
256,40,11715,1,0,0:0:0:0:
412,12,12257,1,2,0:0:0:0:
372,108,12619,1,0,0:0:0:0:
429,200,12980,6,0,P|457:236|481:292,1,95,4|0,0:0|0:0,0:0:0:0:
416,364,13703,2,0,P|388:328|364:272,1,95,2|0,0:0|0:0,0:0:0:0:
352,232,14245,1,2,0:0:0:0:
456,100,15149,1,2,0:0:0:0:
360,136,15510,1,0,0:0:0:0:
212,126,15872,6,0,P|173:91|143:47,2,95,4|0|2,0:0|0:0|0:0,0:0:0:0:
368,96,17137,1,2,0:0:0:0:
404,132,17318,2,0,L|396:228,1,95
412,328,18040,1,2,0:0:0:0:
364,348,18222,2,0,P|320:324|268:316,1,95
228,336,18763,6,0,L|236:236,2,95,4|0|2,0:0|0:0|0:0,0:0:0:0:
76,368,20028,1,2,0:0:0:0:
8,220,20571,2,0,L|16:120,1,95,0|2,0:0|0:0,0:0:0:0:
92,52,21293,1,0,0:0:0:0:
171,141,21655,5,4,0:0:0:0:
340,20,22378,2,0,P|372:68|384:172,1,142.5,2|2,0:0|0:0,0:0:0:0:
372,200,23101,1,0,0:0:0:0:
272,168,23462,1,0,0:0:0:0:
204,248,23824,1,2,0:0:0:0:
269,349,24185,2,8,B|353:406|481:390|506:263|488:203|429:184|359:204|353:254,1,427.5,0|0,0:0|0:0,0:0:0:0:
80,268,26715,5,4,0:0:0:0:
60,175,26896,1,2,0:0:0:0:
32,360,27438,6,0,P|99:356|151:369,1,113.999996520996,4|8,0:0|0:0,0:0:0:0:
276,328,28161,1,8,2:0:0:0:
196,212,28522,1,4,0:0:0:0:
200,144,28703,1,2,0:0:0:0:
132,260,29065,1,2,0:0:0:0:
217,322,29245,6,0,P|255:307|335:302,1,113.999996520996,8|8,0:0|2:0,0:0:0:0:
388,336,29787,2,0,L|454:328,1,56.9999982604981,4|0,0:0|0:0,0:0:0:0:
512,312,30149,1,0,0:0:0:0:
494,380,30330,5,4,0:0:0:0:
512,240,30691,1,8,0:0:0:0:
384,292,31052,1,8,2:0:0:0:
252,352,31414,1,4,0:0:0:0:
184,336,31595,1,2,0:0:0:0:
104,228,31956,1,2,2:0:0:0:
202,144,32137,6,0,P|202:191|169:254,1,113.999996520996,8|8,0:0|2:0,0:0:0:0:
302,233,32679,2,0,P|271:253|229:267,1,56.9999982604981,4|0,0:0|0:0,0:0:0:0:
416,289,33221,6,0,P|431:322|439:366,1,56.9999982604981,4|0,0:0|0:0,0:0:0:0:
429,211,33583,2,0,P|450:180|483:152,1,56.9999982604981,8|0,0:0|0:0,0:0:0:0:
302,233,33944,2,0,P|329:239|358:241,1,56.9999982604981,8|0,2:0|0:0,0:0:0:0:
251,173,34305,1,4,0:0:0:0:
215,257,34486,1,2,0:0:0:0:
189,99,34848,1,2,2:0:0:0:
124,199,35028,6,0,P|80:212|-6:205,1,113.999996520996,8|8,0:0|2:0,0:0:0:0:
88,99,35571,2,0,P|64:122|22:142,1,56.9999982604981,4|0,0:0|0:0,0:0:0:0:
254,187,36113,5,4,0:0:0:0:
224,270,36293,1,2,2:0:0:0:
226,106,36655,1,2,2:0:0:0:
356,206,37016,1,2,2:0:0:0:
511,188,37378,1,2,2:0:0:0:
472,132,37559,2,0,P|472:116|476:72,1,56.9999982604981,8|2,0:0|2:0,0:0:0:0:
423,189,37920,6,0,P|433:239|432:322,1,113.999996520996,8|8,0:0|2:0,0:0:0:0:
311,265,38462,2,0,P|341:299|358:330,1,56.9999982604981,4|0,0:0|0:0,0:0:0:0:
176,214,39004,6,0,P|211:170|224:35,1,170.999994781494,4|0,0:0|0:0,0:0:0:0:
174,14,39727,1,8,2:0:0:0:
308,106,40089,1,4,0:0:0:0:
328,32,40269,1,2,0:0:0:0:
314,182,40631,1,2,2:0:0:0:
384,96,40812,6,0,P|434:90|499:103,1,113.999996520996,8|8,0:0|2:0,0:0:0:0:
394,188,41354,2,0,P|423:180|470:178,1,56.9999982604981,4|0,0:0|0:0,0:0:0:0:
260,274,41896,5,4,0:0:0:0:
164,176,42257,1,8,0:0:0:0:
28,208,42619,2,0,P|17:240|7:276,1,56.9999982604981,8|0,2:0|0:0,0:0:0:0:
56,312,42980,1,4,0:0:0:0:
120,288,43161,1,2,0:0:0:0:
247,355,43522,1,2,2:0:0:0:
318,290,43703,6,0,P|320:236|298:152,1,113.999996520996,8|8,0:0|2:0,0:0:0:0:
390,271,44245,2,0,P|411:237|422:211,1,56.9999982604981,4|0,0:0|0:0,0:0:0:0:
228,304,44787,6,0,P|273:351|393:358,1,170.999994781494,4|0,0:0|0:0,0:0:0:0:
432,324,45510,1,8,2:0:0:0:
344,208,45872,1,4,0:0:0:0:
384,148,46052,2,0,P|388:132|392:84,1,56.9999982604981,2|0,0:0|0:0,0:0:0:0:
336,44,46414,1,2,2:0:0:0:
246,112,46595,6,0,P|193:125|109:116,1,113.999996520996,8|8,0:0|2:0,0:0:0:0:
204,226,47137,2,0,P|167:214|128:193,1,56.9999982604981,4|0,0:0|0:0,0:0:0:0:
299,314,47679,6,0,P|323:293|366:272,1,56.9999982604981,4|0,0:0|0:0,0:0:0:0:
416,268,48040,1,8,0:0:0:0:
480,304,48221,1,0,0:0:0:0:
504,372,48402,1,8,2:0:0:0:
368,328,48763,1,4,0:0:0:0:
416,268,48944,1,2,0:0:0:0:
344,140,49305,1,2,2:0:0:0:
256,222,49486,6,0,P|318:225|376:201,1,113.999996520996,8|8,0:0|2:0,0:0:0:0:
124,72,50571,1,2,0:0:0:0:
272,300,53462,6,0,L|148:286,1,113.999996520996,4|2,0:0|0:0,0:0:0:0:
360,200,54185,2,0,P|338:235|324:276,2,56.9999982604981,8|0|2,2:0|0:0|0:0,0:0:0:0:
503,275,54727,2,0,P|465:322|410:253,1,170.999994781494,0|4,0:0|0:0,0:0:0:0:
429,92,55450,1,0,0:0:0:0:
440,100,55631,6,0,P|460:148|464:219,1,113.999996520996,10|2,0:0|0:0,0:0:0:0:
338,257,56173,1,0,0:0:0:0:
268,146,56354,2,0,L|392:160,1,113.999996520996,4|2,0:0|0:0,0:0:0:0:
178,146,57077,2,0,P|143:114|115:102,1,56.9999982604981,8|0,2:0|0:0,0:0:0:0:
214,262,57438,2,0,P|212:215|200:186,1,56.9999982604981,2|0,0:0|0:0,0:0:0:0:
168,373,57799,2,0,P|199:338|211:310,1,56.9999982604981,8|0,0:0|0:0,0:0:0:0:
81,352,58161,1,4,0:0:0:0:
305,363,58522,6,0,L|298:223,1,113.999996520996,8|2,2:0|0:0,0:0:0:0:
357,124,59065,2,0,L|350:201,1,56.9999982604981,0|4,0:0|0:0,0:0:0:0:
295,383,59968,6,0,L|288:243,1,113.999996520996,8|2,2:0|0:0,0:0:0:0:
374,116,60511,2,0,L|367:193,1,56.9999982604981,0|8,0:0|0:0,0:0:0:0:
289,269,61052,1,4,0:0:0:0:
140,164,61414,1,8,2:0:0:0:
300,80,61775,1,2,0:0:0:0:
288,172,61956,1,0,0:0:0:0:
190,110,62137,6,0,P|211:59|218:-2,2,113.999996520996,4|2|8,0:0|0:0|2:0,0:0:0:0:
66,83,63040,5,2,0:0:0:0:
90,207,63221,1,2,0:0:0:0:
113,329,63402,1,8,0:0:0:0:
338,241,65028,6,0,L|325:372,1,113.999996520996,4|2,0:0|0:0,0:0:0:0:
406,133,65751,2,0,P|407:163|398:206,2,56.9999982604981,8|0|2,2:0|0:0|0:0,0:0:0:0:
250,215,66293,2,0,P|230:153|319:159,1,170.999994781494,0|4,0:0|0:0,0:0:0:0:
339,228,67016,1,0,0:0:0:0:
291,354,67197,2,0,L|286:298,1,56.9999982604981,8|0,2:0|0:0,0:0:0:0:
173,247,67559,2,0,L|180:336,1,56.9999982604981,2|0,0:0|0:0,0:0:0:0:
224,143,67920,6,0,L|212:16,1,113.999996520996,4|2,0:0|0:0,0:0:0:0:
292,140,68643,1,8,2:0:0:0:
260,288,68824,2,0,P|253:266|253:216,1,56.9999982604981,0|2,0:0|0:0,0:0:0:0:
351,380,69185,2,0,P|330:369|295:334,2,56.9999982604981,0|8|0,0:0|0:0|0:0,0:0:0:0:
434,372,69727,1,4,0:0:0:0:
387,232,70089,2,0,L|376:152,1,56.9999982604981,8|0,2:0|0:0,0:0:0:0:
61,227,70812,6,0,P|96:209|196:207,1,113.999996520996,4|2,0:0|0:0,0:0:0:0:
340,264,71534,2,0,P|360:248|408:224,2,56.9999982604981,8|0|2,2:0|0:0|0:0,0:0:0:0:
320,352,72077,1,0,0:0:0:0:
412,364,72257,1,8,0:0:0:0:
256,268,72619,1,4,0:0:0:0:
96,356,72980,2,0,P|56:364|8:360,1,56.9999982604981,8|0,2:0|0:0,0:0:0:0:
109,244,73342,2,0,P|83:261|33:282,1,56.9999982604981,2|0,0:0|0:0,0:0:0:0:
131,139,73703,5,4,0:0:0:0:
39,364,74065,1,2,0:0:0:0:
131,139,74426,2,0,P|108:176|84:204,1,56.9999982604981,8|0,2:0|0:0,0:0:0:0:
157,311,74787,6,0,P|200:311|314:253,1,170.999994781494,2|0,0:0|0:0,0:0:0:0:
446,370,75510,2,0,P|404:368|327:316,1,113.999996520996,4|8,0:0|2:0,0:0:0:0:
330,160,76052,1,8,0:0:0:0:
334,174,76595,5,4,0:0:0:0:
336,183,78763,6,0,L|332:123,1,56.9999982604981,4|2,2:0|2:0,0:0:0:0:
64,64,79486,6,0,P|80:116|84:236,1,170.999994781494,4|0,0:0|0:0,0:0:0:0:
40,284,80209,1,10,0:0:0:0:
156,356,80571,2,0,L|148:292,1,56.9999982604981,2|0,0:0|0:0,0:0:0:0:
260,216,81113,2,0,L|269:285,2,56.9999982604981,2|0|0,0:0|0:0|0:0,0:0:0:0:
292,156,81655,1,10,0:0:0:0:
224,326,82016,1,0,0:0:0:0:
268,272,82197,1,0,0:0:0:0:
336,280,82378,6,0,P|360:304|380:336,1,56.9999982604981,4|0,0:0|0:0,0:0:0:0:
455,282,82739,2,0,P|462:317|458:363,1,56.9999982604981,8|0,0:0|0:0,0:0:0:0:
384,221,83101,1,10,0:0:0:0:
446,34,83462,1,0,0:0:0:0:
428,100,83643,2,0,L|436:176,1,56.9999982604981,2|0,0:0|0:0,0:0:0:0:
485,208,84004,1,0,0:0:0:0:
485,208,84185,2,0,L|492:278,1,56.9999982604981,8|0,0:0|0:0,0:0:0:0:
482,352,84546,1,10,0:0:0:0:
446,34,85269,5,4,0:0:0:0:
359,226,85631,2,0,L|366:164,1,56.9999982604981,0|0,0:0|0:0,0:0:0:0:
279,253,85992,2,0,L|286:191,1,56.9999982604981,10|0,0:0|0:0,0:0:0:0:
216,308,86354,1,0,0:0:0:0:
365,169,86715,1,2,0:0:0:0:
420,212,86896,1,0,0:0:0:0:
436,280,87077,2,0,P|432:304|412:352,1,56.9999982604981,0|0,0:0|0:0,0:0:0:0:
320,335,87438,2,0,P|300:349|252:368,1,56.9999982604981,10|0,0:0|0:0,0:0:0:0:
193,296,87799,2,0,P|168:292|120:272,1,56.9999982604981,0|0,0:0|0:0,0:0:0:0:
100,189,88161,5,4,0:0:0:0:
19,361,88522,1,0,0:0:0:0:
100,189,88884,1,10,0:0:0:0:
188,296,89245,2,0,P|216:292|256:296,1,56.9999982604981,0|0,0:0|0:0,0:0:0:0:
304,332,89607,1,2,0:0:0:0:
122,355,89968,2,0,L|118:294,1,56.9999982604981,0|0,0:0|0:0,0:0:0:0:
166,220,90330,2,0,L|162:150,1,56.9999982604981,10|0,0:0|0:0,0:0:0:0:
219,97,90691,2,0,L|215:27,1,56.9999982604981,0|0,0:0|0:0,0:0:0:0:
162,163,91052,5,4,0:0:0:0:
282,299,91414,1,0,0:0:0:0:
162,163,91775,1,10,0:0:0:0:
108,208,91956,1,0,0:0:0:0:
68,268,92137,1,0,0:0:0:0:
64,340,92318,1,0,0:0:0:0:
279,212,92679,2,0,P|245:187|215:175,1,56.9999982604981,0|0,0:0|0:0,0:0:0:0:
312,288,93040,1,0,0:0:0:0:
407,252,93221,1,10,0:0:0:0:
77,208,93944,6,0,P|96:277|97:286,1,56.9999982604981,4|0,0:0|0:0,0:0:0:0:
113,110,94305,2,0,P|141:140|162:173,1,56.9999982604981,0|0,0:0|0:0,0:0:0:0:
88,16,94667,1,10,0:0:0:0:
212,80,95028,1,0,0:0:0:0:
280,64,95209,1,0,0:0:0:0:
312,0,95390,1,2,0:0:0:0:
296,140,95751,1,0,0:0:0:0:
400,236,96113,2,0,P|436:240|476:236,1,56.9999982604981,10|0,0:0|0:0,0:0:0:0:
169,346,96836,6,0,P|133:342|93:346,1,56.9999982604981,4|0,0:0|0:0,0:0:0:0:
20,374,97197,1,0,0:0:0:0:
48,312,97378,1,0,0:0:0:0:
56,244,97559,1,10,0:0:0:0:
85,112,97920,2,0,L|71:56,1,56.9999982604981,2|0,0:0|0:0,0:0:0:0:
151,135,98281,1,0,0:0:0:0:
300,342,99004,2,0,L|283:282,1,56.9999982604981,10|0,0:0|0:0,0:0:0:0:
332,208,99366,2,0,L|315:148,1,56.9999982604981,0|0,0:0|0:0,0:0:0:0:
408,250,99727,5,4,0:0:0:0:
228,224,100089,1,0,0:0:0:0:
408,250,100450,2,0,L|427:314,1,56.9999982604981,10|0,0:0|0:0,0:0:0:0:
440,184,100812,1,0,0:0:0:0:
370,184,100992,1,0,0:0:0:0:
310,144,101173,1,2,0:0:0:0:
76,244,101896,1,10,0:0:0:0:
32,300,102077,1,0,0:0:0:0:
24,368,102257,1,0,0:0:0:0:
156,259,102619,5,4,0:0:0:0:
128,144,102980,1,2,0:0:0:0:
136,28,103342,2,0,P|92:12|32:12,1,95,8|0,0:0|0:0,0:0:0:0:
0,72,103884,1,2,0:0:0:0:
47,176,104245,2,0,L|39:236,1,47.5,2|2,2:0|0:0,0:0:0:0:
388,260,105510,5,4,0:0:0:0:
448,160,105872,1,2,0:0:0:0:
332,176,106233,2,0,P|300:168|240:128,1,95,8|0,0:0|0:0,0:0:0:0:
227,68,106775,1,2,0:0:0:0:
227,68,107318,1,2,0:0:0:0:
207,192,107679,1,8,0:0:0:0:
192,312,108040,1,2,0:0:0:0:
55,369,108402,6,0,P|38:333|-12:283,1,95,4|2,0:0|0:0,0:0:0:0:
28,180,109125,2,0,L|36:252,2,47.5,8|0|0,0:0|0:0|0:0,0:0:0:0:
74,121,109667,2,0,L|68:73,2,47.5,2|0|8,0:0|3:0|0:0,0:0:0:0:
129,181,110209,1,2,2:0:0:0:
251,205,110571,1,8,0:0:0:0:
320,112,110932,1,2,0:0:0:0:
320,112,111293,5,4,0:0:0:0:
251,205,111655,1,2,0:0:0:0:
108,172,112016,2,0,P|88:136|72:72,1,95,8|0,0:0|0:0,0:0:0:0:
61,179,112559,2,0,P|55:213|29:282,1,95,2|8,0:0|0:0,0:0:0:0:
18,161,113101,1,4,3:0:0:0:
144,230,113462,1,8,0:0:0:0:
264,161,113824,1,2,0:0:0:0:
400,236,114185,6,0,L|507:230,1,95,4|2,0:0|0:0,0:0:0:0:
315,331,115450,1,2,0:0:0:0:
328,318,115631,2,0,L|387:315,1,47.5
295,245,115992,2,0,L|354:242,1,47.5,2|0,0:0|0:0,0:0:0:0:
240,308,116354,2,0,L|145:313,1,95,8|2,0:0|0:0,0:0:0:0:
135,125,117077,6,0,B|160:124|185:136|185:136|187:160|196:180|196:180|220:180|242:190|242:190|244:216|253:236|253:236|276:240|303:248|303:248|308:272|317:287|317:287|344:288|372:301,1,332.5,4|2,0:0|0:0,0:0:0:0:
183,251,118884,5,2,0:0:0:0:
313,173,119245,1,10,0:0:0:0:
183,251,119607,1,2,0:0:0:0:
313,173,119968,6,0,P|329:119|327:67,1,95,4|2,0:0|0:0,0:0:0:0:
365,249,120691,1,8,0:0:0:0:
490,153,121052,1,0,0:0:0:0:
365,249,121414,1,2,0:0:0:0:
490,153,121775,1,4,3:0:0:0:
417,341,122137,5,10,0:0:0:0:
268,316,122498,1,2,0:0:0:0:
126,281,122860,2,8,B|49:240|8:134|96:63|150:52|189:90|202:152|166:177,1,332.5,4|0,3:0|0:0,0:0:0:0:
432,268,125028,5,4,0:0:0:0:
452,175,125209,1,2,0:0:0:0:
480,360,125751,6,0,P|413:356|361:369,1,113.999996520996,4|8,0:0|0:0,0:0:0:0:
236,328,126474,1,10,0:0:0:0:
316,212,126835,1,4,0:0:0:0:
312,144,127016,1,2,0:0:0:0:
380,260,127378,1,2,0:0:0:0:
295,322,127558,6,0,P|257:307|177:302,1,113.999996520996,8|10,0:0|0:0,0:0:0:0:
124,336,128100,2,0,L|58:328,1,56.9999982604981,4|0,0:0|0:0,0:0:0:0:
0,312,128462,1,0,0:0:0:0:
18,380,128643,5,4,0:0:0:0:
0,240,129004,1,8,0:0:0:0:
128,292,129365,1,10,0:0:0:0:
260,352,129727,1,4,0:0:0:0:
328,336,129908,1,2,0:0:0:0:
408,228,130269,1,2,2:0:0:0:
310,144,130450,6,0,P|310:191|343:254,1,113.999996520996,8|10,0:0|0:0,0:0:0:0:
210,233,130992,2,0,P|241:253|283:267,1,56.9999982604981,4|0,0:0|0:0,0:0:0:0:
96,289,131534,6,0,P|81:322|73:366,1,56.9999982604981,4|0,0:0|0:0,0:0:0:0:
83,211,131896,2,0,P|62:180|29:152,1,56.9999982604981,8|0,0:0|0:0,0:0:0:0:
210,233,132257,2,0,P|183:239|154:241,1,56.9999982604981,10|0,0:0|0:0,0:0:0:0:
261,173,132618,1,4,0:0:0:0:
297,257,132799,1,2,0:0:0:0:
323,99,133161,1,2,2:0:0:0:
388,199,133341,6,0,P|432:212|518:205,1,113.999996520996,8|10,0:0|0:0,0:0:0:0:
424,99,133884,2,0,P|448:122|490:142,1,56.9999982604981,4|0,0:0|0:0,0:0:0:0:
258,187,134426,5,4,0:0:0:0:
288,270,134606,1,0,0:0:0:0:
286,106,134968,1,0,0:0:0:0:
156,206,135329,1,0,0:0:0:0:
1,188,135691,1,2,0:0:0:0:
40,132,135872,2,0,P|40:116|36:72,1,56.9999982604981,8|2,0:0|2:0,0:0:0:0:
89,189,136233,6,0,P|79:239|80:322,1,113.999996520996,8|10,0:0|0:0,0:0:0:0:
201,265,136775,2,0,P|171:299|154:330,1,56.9999982604981,4|0,0:0|0:0,0:0:0:0:
336,214,137317,6,0,P|301:170|288:35,1,170.999994781494,4|0,0:0|0:0,0:0:0:0:
338,14,138040,1,10,0:0:0:0:
204,106,138402,1,4,0:0:0:0:
184,32,138582,1,2,0:0:0:0:
198,182,138944,1,2,2:0:0:0:
128,96,139125,6,0,P|78:90|13:103,1,113.999996520996,8|10,0:0|0:0,0:0:0:0:
118,188,139667,2,0,P|89:180|42:178,1,56.9999982604981,4|0,0:0|0:0,0:0:0:0:
252,274,140209,5,4,0:0:0:0:
348,176,140570,1,8,0:0:0:0:
484,208,140932,2,0,P|495:240|505:276,1,56.9999982604981,10|0,0:0|0:0,0:0:0:0:
445,337,141293,1,4,0:0:0:0:
376,305,141474,1,2,0:0:0:0:
260,372,141835,1,2,2:0:0:0:
194,290,142016,6,0,P|192:236|214:152,1,113.999996520996,8|10,0:0|0:0,0:0:0:0:
122,271,142558,2,0,P|101:237|90:211,1,56.9999982604981,4|0,0:0|0:0,0:0:0:0:
284,304,143100,6,0,P|239:351|119:358,1,170.999994781494,4|0,0:0|0:0,0:0:0:0:
80,324,143823,1,10,0:0:0:0:
168,208,144185,1,4,0:0:0:0:
128,148,144365,2,0,P|124:132|120:84,1,56.9999982604981,2|8,0:0|0:0,0:0:0:0:
176,44,144727,1,2,2:0:0:0:
266,112,144908,6,0,P|319:125|403:116,1,113.999996520996,8|10,0:0|0:0,0:0:0:0:
308,226,145450,2,0,P|345:214|384:193,1,56.9999982604981,4|0,0:0|0:0,0:0:0:0:
213,314,145992,6,0,P|189:293|146:272,1,56.9999982604981,4|0,0:0|0:0,0:0:0:0:
96,268,146353,1,8,0:0:0:0:
32,304,146534,1,0,0:0:0:0:
8,372,146715,1,10,0:0:0:0:
144,328,147076,1,4,0:0:0:0:
96,268,147257,1,2,0:0:0:0:
168,140,147618,1,2,2:0:0:0:
256,222,147799,6,0,P|194:225|136:201,1,113.999996520996,8|10,0:0|0:0,0:0:0:0:
361,85,148884,1,8,0:0:0:0:
411,230,150330,6,0,P|395:266|388:339,1,95,4|2,2:0|0:0,0:0:0:0:
440,85,151052,2,0,P|447:124|445:156,2,47.5,8|0|2,2:0|0:0|0:0,0:0:0:0:
325,173,151595,2,0,P|327:128|374:30,1,142.5,0|4,0:0|0:0,0:0:0:0:
396,187,152317,1,0,0:0:0:0:
331,301,152498,2,0,L|219:292,1,95,8|2,2:0|0:0,0:0:0:0:
331,227,153040,1,0,0:0:0:0:
438,314,153221,6,0,P|406:338|377:385,1,95,4|2,0:0|0:0,0:0:0:0:
484,189,153944,2,0,P|495:216|502:255,1,47.5,8|0,2:0|0:0,0:0:0:0:
374,199,154305,2,0,P|397:216|422:247,1,47.5,2|0,0:0|0:0,0:0:0:0:
286,268,154667,2,0,P|314:271|352:285,1,47.5,8|0,0:0|0:0,0:0:0:0:
213,343,155028,1,4,0:0:0:0:
28,193,155390,6,0,P|72:181|35:227,1,142.5,8|0,2:0|0:0,0:0:0:0:
127,118,156113,2,0,P|131:92|126:51,1,47.5,4|0,0:0|0:0,0:0:0:0:
28,193,156836,6,0,P|73:174|65:256,1,142.5,8|0,2:0|0:0,0:0:0:0:
175,69,157558,2,0,P|184:45|187:3,1,47.5,8|0,0:0|0:0,0:0:0:0:
101,105,157920,1,4,0:0:0:0:
212,200,158281,1,8,2:0:0:0:
308,104,158643,1,2,0:0:0:0:
451,214,159004,6,0,P|437:261|435:328,2,95,4|2|8,0:0|0:0|2:0,0:0:0:0:
291,207,159908,5,2,0:0:0:0:
162,190,160089,1,2,0:0:0:0:
31,171,160269,1,10,0:0:0:0:
352,296,161896,6,0,L|232:307,1,113.999996520996,4|2,0:0|0:0,0:0:0:0:
440,231,162619,2,0,P|426:199|418:161,2,56.9999982604981,8|0|2,2:0|0:0|0:0,0:0:0:0:
314,201,163161,2,0,P|340:144|351:24,1,170.999994781494,0|4,0:0|0:0,0:0:0:0:
245,160,163884,1,0,0:0:0:0:
241,242,164064,2,0,L|253:313,1,56.9999982604981,8|0,2:0|0:0,0:0:0:0:
336,354,164426,2,0,L|326:297,1,56.9999982604981,2|0,0:0|0:0,0:0:0:0:
189,351,164787,6,0,P|148:352|56:323,1,113.999996520996,4|2,0:0|0:0,0:0:0:0:
241,242,165510,1,8,2:0:0:0:
212,128,165691,2,0,P|197:152|190:179,1,56.9999982604981,0|2,0:0|0:0,0:0:0:0:
314,79,166052,2,0,P|302:114|285:139,2,56.9999982604981,0|8|0,0:0|0:0|0:0,0:0:0:0:
276,1,166595,1,4,0:0:0:0:
372,155,166956,1,8,2:0:0:0:
168,374,167679,6,0,P|175:317|196:264,1,113.999996520996,4|2,0:0|0:0,0:0:0:0:
388,215,168402,2,0,P|380:271|359:324,1,113.999996520996,8|2,2:0|0:0,0:0:0:0:
280,296,168944,1,0,0:0:0:0:
196,264,169125,1,8,0:0:0:0:
388,215,169486,1,4,0:0:0:0:
198,364,169848,1,8,2:0:0:0:
135,155,170209,1,2,0:0:0:0:
249,99,170390,1,0,0:0:0:0:
221,240,170570,6,0,L|211:309,1,56.9999982604981,4|0,0:0|0:0,0:0:0:0:
284,187,170932,1,2,0:0:0:0:
136,348,171293,1,8,2:0:0:0:
11,160,171655,2,0,P|52:170|176:249,1,170.999994781494,2|0,0:0|0:0,0:0:0:0:
177,110,172378,2,0,P|225:89|309:79,1,113.999996520996,4|8,0:0|2:0,0:0:0:0:
398,185,172920,1,0,0:0:0:0:
118,174,182860,5,8,2:0:0:0:
107,187,183040,1,2,0:0:0:0:
240,176,183221,1,4,0:0:0:0:
384,163,183402,1,8,0:0:0:0:
118,174,183944,5,12,0:0:0:0:
225,371,184305,2,0,L|217:313,1,56.9999982604981,8|0,2:0|0:0,0:0:0:0:
306,289,185028,6,0,B|332:281|359:253|360:192|320:164|259:187|259:187|215:169|181:164|136:221|161:281|218:291|248:312|231:368,1,455.999986083985,4|8,0:0|0:0,0:0:0:0:
440,206,187197,5,8,2:0:0:0:
364,52,187558,1,2,0:0:0:0:
148,52,187920,1,4,0:0:0:0:
72,206,188281,1,2,0:0:0:0:
256,349,188643,2,0,B|294:298|256:250|256:250|213:198|256:141,1,227.999993041992,8|8,2:0|0:0,0:0:0:0:
256,140,190089,5,8,2:0:0:0:
328,192,190269,1,0,0:0:0:0:
300,278,190450,1,2,0:0:0:0:
208,278,190631,1,0,0:0:0:0:
180,191,190811,1,4,0:0:0:0:
253,130,191534,5,8,2:0:0:0:
339,192,191714,1,0,0:0:0:0:
307,292,191895,1,2,0:0:0:0:
201,292,192076,1,0,0:0:0:0:
167,190,192256,1,8,0:0:0:0:
374,101,192619,5,4,0:0:0:0:
254,355,192980,1,8,2:0:0:0:
138,101,193342,1,2,0:0:0:0:
391,352,193703,6,0,P|256:152|116:352,1,569.999982604981,4|4,0:0|0:0,0:0:0:0:
371,336,195872,2,0,P|378:303|370:250,1,56.9999982604981,8|0,2:0|0:0,0:0:0:0:
136,302,196595,5,4,0:0:0:0:
