osu file format v14

[General]
AudioFilename: audio.mp3
AudioLeadIn: 0
PreviewTime: -1
Countdown: 1
SampleSet: Normal
StackLeniency: 0.7
Mode: 0
LetterboxInBreaks: 0
WidescreenStoryboard: 0

[Editor]
Bookmarks: 123791,123956,124450,124615,124945,125109,125274,125934,126593,127912,128076,128241,128571,128901,129065,129230,129395,129560,129725,129890,130054,130219,130549,130879,131208,131703,132032,132197,132527,133186,133516,133846,134340,134670,134835,135164,135824,136153,136483,136977,137307,137472,137802,138461,138791,139120,139615,139945,140109,140439,140604,140769,140934,141098
DistanceSpacing: 1.4
BeatDivisor: 4
GridSize: 8
TimelineZoom: 1

[Metadata]
Title:Fix Me
TitleUnicode:고쳐주세요
Artist:Bolbbalgan4
ArtistUnicode:볼빨간사춘기
Creator:Aker
Version:Hard
Source:볼빨간사춘기
Tags:볼빨간사춘기, Bolbbalgan4, kpop, korea, korean, 고쳐주세요, 안지영, 우지윤
BeatmapID:1518332
BeatmapSetID:718937

[Difficulty]
HPDrainRate:5
CircleSize:4
OverallDifficulty:5
ApproachRate:8
SliderMultiplier:1.4
SliderTickRate:1

[Events]
//Background and Video events
//Break Periods
2,64781,73227
//Storyboard Layer 0 (Background)
//Storyboard Layer 1 (Fail)
//Storyboard Layer 2 (Pass)
//Storyboard Layer 3 (Foreground)
//Storyboard Layer 4 (Overlay)
//Storyboard Sound Samples

[TimingPoints]
1284.98408091554,659.340659340659,4,1,0,100,1,0
32967,-100,4,1,0,100,0,1
54065,-100,4,1,0,100,0,0
96263,-100,4,1,0,100,0,1
117362,-100,4,1,0,100,0,0
141098,-100,4,1,0,100,0,1
162197,-100,4,1,0,100,0,0

[HitObjects]
400,128,1284,5,0,0:0:0:0:
312,88,1614,1,0,0:0:0:0:
216,72,1944,2,0,P|152:72|128:104,1,105
136,200,2768,1,0,0:0:0:0:
168,240,2933,1,0,0:0:0:0:
240,312,3263,2,0,P|328:344|392:336,1,140
440,272,4252,5,0,0:0:0:0:
456,176,4581,2,0,P|432:112|376:88,1,105
312,48,5405,1,0,0:0:0:0:
288,96,5570,2,0,P|320:136|312:176,1,70
288,256,6230,1,0,0:0:0:0:
152,256,6559,6,0,P|104:224|112:208,1,70
88,128,7219,1,0,0:0:0:0:
112,56,7713,2,0,P|168:40|200:48,1,70
216,64,8208,1,0,0:0:0:0:
288,128,8537,2,0,P|336:160|336:192,2,70
192,112,9526,5,0,0:0:0:0:
104,152,9856,2,0,P|80:240|96:280,1,105
144,328,10680,1,0,0:0:0:0:
216,320,10845,2,0,L|280:296,2,35
208,208,11339,1,0,0:0:0:0:
328,344,11504,1,0,0:0:0:0:
336,216,11669,1,0,0:0:0:0:
200,320,11834,6,0,P|136:304|136:280,1,70
96,184,12493,2,0,P|80:128|112:72,1,105
296,96,13317,1,0,0:0:0:0:
192,184,13482,1,0,0:0:0:0:
216,32,13647,1,0,0:0:0:0:
96,86,13812,1,0,0:0:0:0:
288,96,13977,1,0,0:0:0:0:
192,176,14142,2,0,L|160:152,1,35
312,96,14471,6,0,P|360:128|376:144,2,70
248,192,15625,1,0,0:0:0:0:
208,328,16120,1,0,0:0:0:0:
88,272,16284,2,0,P|56:224|56:192,1,70
56,176,16944,1,0,0:0:0:0:
72,128,17109,5,0,0:0:0:0:
152,80,17438,2,0,P|192:64|216:72,1,70
312,80,18098,1,0,0:0:0:0:
352,56,18263,1,0,0:0:0:0:
360,168,18592,1,0,0:0:0:0:
400,144,18757,1,0,0:0:0:0:
400,232,19087,2,0,P|392:280|376:288,1,70
256,304,19746,6,0,P|200:304|184:288,2,70
112,272,20900,2,0,P|72:240|72:216,1,70
80,96,21394,1,0,0:0:0:0:
176,144,21559,1,0,0:0:0:0:
70,224,21724,1,0,0:0:0:0:
224,224,21889,1,0,0:0:0:0:
160,88,22054,2,0,L|168:48,1,35
368,104,22383,6,0,P|408:112|440:136,1,70
408,224,23043,2,0,P|384:288|368:296,1,70
264,312,23537,1,0,0:0:0:0:
128,184,23867,2,0,P|112:152|120:144,2,35
136,32,24361,1,0,0:0:0:0:
48,136,24526,1,0,0:0:0:0:
208,88,24691,1,0,0:0:0:0:
128,184,24856,1,0,0:0:0:0:
302,120,25021,6,0,P|302:168|310:168,1,70
424,152,25680,2,0,P|376:136|368:160,1,70
240,232,26175,1,0,0:0:0:0:
280,328,26669,1,0,0:0:0:0:
328,304,26834,2,0,P|344:256|304:248,1,70
240,232,27493,1,0,0:0:0:0:
208,192,27658,6,0,P|176:136|184:104,1,70
240,56,28317,1,0,0:0:0:0:
384,72,28812,2,0,P|432:120|440:144,1,70
432,168,29306,2,0,P|432:232|408:240,1,70
352,176,29966,5,0,0:0:0:0:
248,184,30295,1,0,0:0:0:0:
192,264,30625,1,0,0:0:0:0:
360,280,31284,5,0,0:0:0:0:
416,208,31449,1,0,0:0:0:0:
312,192,31614,1,0,0:0:0:0:
320,96,31779,2,0,L|416:128,1,70
312,192,32273,1,0,0:0:0:0:
224,112,32438,1,0,0:0:0:0:
136,168,32603,2,0,L|96:184,2,35
224,112,33263,5,0,0:0:0:0:
304,72,33592,2,0,P|360:64|376:80,1,70
400,128,34087,1,0,0:0:0:0:
416,200,34416,1,0,0:0:0:0:
408,208,34581,1,0,0:0:0:0:
360,264,34911,2,0,P|312:304|280:304,2,70
408,200,35900,1,0,0:0:0:0:
312,200,36230,6,0,P|328:144|352:112,1,70
336,32,36724,1,0,0:0:0:0:
216,32,36889,1,0,0:0:0:0:
256,152,37054,1,0,0:0:0:0:
104,96,37219,1,0,0:0:0:0:
176,200,37548,2,0,L|248:136,1,70
240,104,38043,1,0,0:0:0:0:
144,128,38208,5,0,0:0:0:0:
104,216,38537,1,0,0:0:0:0:
208,304,38867,2,0,P|288:320|336:296,1,105
384,176,39691,1,0,0:0:0:0:
376,144,39856,2,0,P|360:112|307:83,1,70
232,64,40515,1,0,0:0:0:0:
144,104,40845,5,0,0:0:0:0:
112,200,41175,2,0,P|104:240|128:264,1,70
208,216,41834,1,0,0:0:0:0:
208,224,41999,1,0,0:0:0:0:
248,296,42328,1,0,0:0:0:0:
224,304,42493,2,0,P|160:288|160:272,1,70
120,208,43153,5,0,0:0:0:0:
144,168,43317,1,0,0:0:0:0:
184,136,43482,2,0,P|232:112|264:120,1,70
344,120,44142,1,0,0:0:0:0:
384,152,44306,2,0,P|432:192|432:208,1,70
432,296,44966,1,0,0:0:0:0:
392,328,45131,2,0,P|328:336|304:328,1,70
224,328,45790,2,0,P|176:312|168:296,1,70
88,240,46449,5,0,0:0:0:0:
104,120,46779,2,0,P|128:80|160:80,1,70
272,40,47273,1,0,0:0:0:0:
248,168,47438,1,0,0:0:0:0:
360,104,47603,1,0,0:0:0:0:
248,168,47768,2,0,P|288:200|296:224,1,70
384,256,48427,5,0,0:0:0:0:
400,304,48592,1,0,0:0:0:0:
368,344,48757,2,0,P|328:360|288:344,1,70
208,328,49416,1,0,0:0:0:0:
128,280,49746,1,0,0:0:0:0:
96,240,49911,2,0,P|72:192|72:176,1,70
72,128,50405,2,0,P|96:96|128:96,1,70
224,104,51065,5,0,0:0:0:0:
176,208,51230,1,0,0:0:0:0:
320,128,51394,2,0,P|376:152|376:176,1,70
400,248,52054,1,0,0:0:0:0:
320,304,52383,1,0,0:0:0:0:
264,296,52548,2,0,L|224:288,2,35
168,256,53043,1,0,0:0:0:0:
88,232,53372,6,0,L|64:200,2,35
64,184,53867,1,0,0:0:0:0:
80,144,54032,1,0,0:0:0:0:
192,192,54361,1,0,0:0:0:0:
240,296,54691,2,0,P|296:264|296:216,1,105
256,144,55515,1,0,0:0:0:0:
248,96,55680,2,0,P|200:64|160:64,1,70
104,144,56339,5,0,0:0:0:0:
248,96,56504,1,0,0:0:0:0:
192,168,56669,1,0,0:0:0:0:
320,248,56999,1,0,0:0:0:0:
400,160,57328,2,0,L|424:128,1,35
432,104,57658,1,0,0:0:0:0:
416,72,57823,1,0,0:0:0:0:
320,112,58153,1,0,0:0:0:0:
304,160,58317,2,0,P|288:224|304:248,1,70
352,296,58977,1,0,0:0:0:0:
160,320,59306,6,0,P|216:344|240:344,1,70
216,240,59966,2,0,P|128:224|112:208,1,105
72,128,60790,1,0,0:0:0:0:
104,96,60955,2,0,P|144:56|176:48,1,70
200,136,61614,1,0,0:0:0:0:
296,104,61944,6,0,P|344:120|336:152,1,70
248,160,62603,2,0,P|208:192|232:248,1,105
312,256,63427,1,0,0:0:0:0:
312,256,63592,1,0,0:0:0:0:
344,176,63922,2,0,P|392:208|392:224,1,70
392,240,64416,1,0,0:0:0:0:
384,272,64581,1,0,0:0:0:0:
368,312,73977,6,0,L|408:280,2,35
440,208,74471,2,0,L|416:168,2,35
344,128,74966,1,0,0:0:0:0:
264,112,75131,2,0,P|208:112|192:128,1,70
152,208,75790,2,0,P|184:240|184:264,1,70
136,264,76284,1,0,0:0:0:0:
80,96,76614,5,0,0:0:0:0:
128,232,76779,1,0,0:0:0:0:
216,160,76944,1,0,0:0:0:0:
96,168,77109,2,0,L|152:144,2,35
184,88,77603,1,0,0:0:0:0:
128,232,77768,2,0,P|168:232|192:248,1,70
216,152,78427,2,0,P|192:112|208:104,1,70
248,80,78922,1,0,0:0:0:0:
416,40,79416,5,0,0:0:0:0:
352,80,79581,2,0,P|336:112|352:144,1,70
440,176,80241,1,0,0:0:0:0:
432,224,80405,2,0,P|400:256|368:264,1,70
280,248,81065,2,0,P|216:248|200:232,1,70
184,208,81559,1,0,0:0:0:0:
128,288,81889,1,0,0:0:0:0:
88,256,82054,2,0,P|96:208|112:200,1,70
152,112,82713,5,0,0:0:0:0:
240,64,83043,2,0,P|296:64|312:80,1,70
328,112,83537,2,0,P|336:168|320:184,1,70
304,70,84197,1,0,0:0:0:0:
328,144,84526,5,0,0:0:0:0:
464,176,84691,1,0,0:0:0:0:
360,224,84856,1,0,0:0:0:0:
440,88,85021,1,0,0:0:0:0:
288,56,85186,1,0,0:0:0:0:
456,152,85350,1,0,0:0:0:0:
344,160,85515,1,0,0:0:0:0:
400,56,85680,2,0,P|352:32|328:40,1,70
248,64,86339,6,0,P|192:64|176:80,1,70
224,104,86834,1,0,0:0:0:0:
80,152,87164,1,0,0:0:0:0:
184,184,87328,1,0,0:0:0:0:
48,192,87493,1,0,0:0:0:0:
160,224,87658,1,0,0:0:0:0:
16,232,87823,1,0,0:0:0:0:
136,264,87988,1,0,0:0:0:0:
48,336,88153,1,0,0:0:0:0:
160,344,88317,2,0,P|192:304|176:288,1,70
144,208,88977,6,0,P|104:160|120:112,1,105
248,64,89966,1,0,0:0:0:0:
296,88,90131,2,0,P|320:128|312:152,1,70
272,240,90790,1,0,0:0:0:0:
272,288,90955,2,0,P|296:344|320:344,1,70
392,344,91614,5,0,0:0:0:0:
424,312,91779,2,0,P|448:272|440:240,1,70
392,168,92438,1,0,0:0:0:0:
352,136,92603,1,0,0:0:0:0:
256,112,92933,2,0,P|208:136|208:192,1,105
232,224,93592,5,0,0:0:0:0:
384,240,94087,1,0,0:0:0:0:
416,208,94252,1,0,0:0:0:0:
136,64,94746,1,0,0:0:0:0:
112,88,94911,1,0,0:0:0:0:
200,328,95405,1,0,0:0:0:0:
176,312,95570,1,0,0:0:0:0:
176,184,95735,2,0,L|208:160,2,35
80,128,96230,6,0,P|48:104|56:72,1,70
136,32,96889,1,0,0:0:0:0:
184,24,97054,2,0,P|232:32|240:56,1,70
232,144,97713,1,0,0:0:0:0:
224,192,97878,2,0,P|256:248|288:248,1,70
352,256,98537,1,0,0:0:0:0:
432,200,98867,2,0,P|424:136|400:120,1,70
344,80,99526,6,0,L|296:72,1,35
280,168,99856,1,0,0:0:0:0:
344,80,100021,1,0,0:0:0:0:
400,160,100186,1,0,0:0:0:0:
344,80,100350,1,0,0:0:0:0:
224,72,100515,2,0,P|176:88|176:104,1,70
144,184,101175,1,0,0:0:0:0:
144,280,101504,6,0,P|176:320|200:320,1,70
264,224,102164,1,0,0:0:0:0:
144,184,102328,1,0,0:0:0:0:
152,304,102493,1,0,0:0:0:0:
264,224,102658,2,0,L|296:200,2,35
152,304,103153,1,0,0:0:0:0:
288,320,103482,1,0,0:0:0:0:
384,264,103812,2,0,P|400:224|376:192,1,70
368,160,104306,5,0,0:0:0:0:
336,120,104471,1,0,0:0:0:0:
248,80,104801,2,0,P|192:96|168:136,1,105
152,232,105625,1,0,0:0:0:0:
88,176,105790,2,0,P|56:128|64:104,1,70
184,72,106449,1,0,0:0:0:0:
88,176,106614,1,0,0:0:0:0:
48,56,106779,6,0,P|48:112|64:144,1,70
80,208,107438,2,0,L|104:240,1,35
160,288,107933,1,0,0:0:0:0:
224,312,108263,1,0,0:0:0:0:
272,320,108427,2,0,P|312:304|320:280,1,70
352,192,109087,1,0,0:0:0:0:
320,96,109416,6,0,P|272:64|256:72,2,70
216,72,110570,1,0,0:0:0:0:
296,176,110735,1,0,0:0:0:0:
200,160,110900,1,0,0:0:0:0:
320,88,111065,2,0,P|288:56|256:56,1,70
104,88,111724,1,0,0:0:0:0:
136,200,111889,1,0,0:0:0:0:
232,288,112054,6,0,P|264:312|296:312,1,70
400,272,112713,1,0,0:0:0:0:
320,200,113043,1,0,0:0:0:0:
292,312,113208,1,0,0:0:0:0:
400,272,113372,1,0,0:0:0:0:
292,312,113537,1,0,0:0:0:0:
184,248,113702,1,0,0:0:0:0:
320,200,114032,1,0,0:0:0:0:
448,248,114361,6,0,L|464:200,1,35
472,168,114691,1,0,0:0:0:0:
400,104,115021,1,0,0:0:0:0:
312,64,115350,2,0,P|240:48|208:56,1,105
128,128,116175,1,0,0:0:0:0:
104,184,116339,2,0,P|112:232|144:248,1,70
192,280,116999,1,0,0:0:0:0:
248,304,117164,2,0,P|272:304|280:296,1,35
256,192,117988,5,0,0:0:0:0:
256,192,118647,1,0,0:0:0:0:
256,192,119306,1,0,0:0:0:0:
152,64,119966,6,0,B|128:80|120:96|112:120,1,70
120,168,120460,1,0,0:0:0:0:
176,224,120625,2,0,B|200:248|248:248|280:240,1,105
344,216,121284,2,0,P|344:264|312:288,1,70
432,176,121944,1,0,0:0:0:0:
240,56,122273,2,0,B|232:64|232:72|240:88,1,35
328,104,122603,2,0,B|336:112|344:120|336:136,1,35
224,160,122933,2,0,B|216:168|224:184|232:200,1,35
304,208,123263,2,0,L|280:240,1,35
216,304,123757,5,0,0:0:0:0:
176,280,123922,2,0,B|152:248|136:208|144:184,1,105
160,136,124581,1,0,0:0:0:0:
248,88,124911,2,0,B|256:88|264:104|264:120,1,35
256,192,125241,5,0,0:0:0:0:
256,192,125900,1,0,0:0:0:0:
256,192,126559,1,0,0:0:0:0:
192,72,127878,6,0,L|224:104,1,35
288,144,128208,2,0,L|256:176,1,35
192,232,128537,1,0,0:0:0:0:
304,320,128867,1,0,0:0:0:0:
416,280,129032,1,0,0:0:0:0:
304,328,129197,1,0,0:0:0:0:
312,224,129361,1,0,0:0:0:0:
304,328,129526,1,0,0:0:0:0:
208,272,129691,1,0,0:0:0:0:
312,224,129856,2,0,P|344:208|344:176,1,70
328,128,130350,5,0,0:0:0:0:
296,88,130515,2,0,P|256:64|224:64,1,70
144,96,131175,2,0,P|112:144|128:192,1,105
184,264,131999,1,0,0:0:0:0:
224,288,132164,2,0,P|272:304|304:304,2,70
160,248,133153,1,0,0:0:0:0:
264,80,133812,6,0,L|304:88,1,35
376,144,134306,2,0,P|400:176|392:208,1,70
376,272,134801,1,0,0:0:0:0:
288,312,135131,2,0,P|232:320|192:304,2,70
360,264,136120,1,0,0:0:0:0:
424,192,136449,6,0,P|440:144|416:96,1,105
320,72,137273,1,0,0:0:0:0:
288,104,137438,2,0,P|272:144|304:160,1,70
392,208,138098,1,0,0:0:0:0:
472,256,138427,2,0,P|448:296|416:296,1,70
328,312,139087,1,0,0:0:0:0:
184,296,139581,6,0,P|128:304|120:296,1,70
96,256,140076,1,0,0:0:0:0:
168,192,140405,1,0,0:0:0:0:
296,128,140570,1,0,0:0:0:0:
208,96,140735,1,0,0:0:0:0:
176,192,140900,1,0,0:0:0:0:
264,224,141065,1,0,0:0:0:0:
264,224,141394,5,0,0:0:0:0:
208,312,141724,2,0,P|152:320|136:304,1,70
112,256,142219,1,0,0:0:0:0:
96,184,142548,1,0,0:0:0:0:
104,176,142713,1,0,0:0:0:0:
152,120,143043,2,0,P|200:80|232:80,2,70
104,184,144032,1,0,0:0:0:0:
200,184,144361,6,0,P|184:240|160:272,1,70
176,352,144856,1,0,0:0:0:0:
296,352,145021,1,0,0:0:0:0:
256,232,145186,1,0,0:0:0:0:
408,288,145350,1,0,0:0:0:0:
336,184,145680,2,0,L|264:248,1,70
272,280,146175,1,0,0:0:0:0:
368,256,146339,1,0,0:0:0:0:
408,168,146669,5,0,0:0:0:0:
304,80,146999,2,0,P|224:64|176:88,1,105
128,208,147823,1,0,0:0:0:0:
136,240,147988,2,0,P|152:272|205:301,1,70
280,320,148647,1,0,0:0:0:0:
368,280,148977,5,0,0:0:0:0:
400,184,149306,2,0,P|408:144|384:120,1,70
304,168,149966,1,0,0:0:0:0:
304,160,150131,1,0,0:0:0:0:
264,88,150460,1,0,0:0:0:0:
288,80,150625,2,0,P|352:96|352:112,1,70
392,128,151120,1,0,0:0:0:0:
392,176,151284,1,0,0:0:0:0:
328,248,151614,6,0,P|280:272|248:264,1,70
168,264,152273,1,0,0:0:0:0:
128,232,152438,2,0,P|80:192|80:176,1,70
80,88,153098,1,0,0:0:0:0:
120,56,153263,2,0,P|184:48|208:56,1,70
344,88,153922,2,0,P|384:136|384:168,2,70
408,264,154911,6,0,P|384:304|352:304,1,70
240,344,155405,1,0,0:0:0:0:
264,216,155570,1,0,0:0:0:0:
152,280,155735,1,0,0:0:0:0:
264,216,155900,2,0,P|224:184|216:160,1,70
128,128,156559,1,0,0:0:0:0:
112,80,156724,1,0,0:0:0:0:
144,40,156889,2,0,P|184:24|224:40,1,70
304,56,157548,5,0,0:0:0:0:
384,104,157878,1,0,0:0:0:0:
416,144,158043,2,0,P|440:192|440:208,1,70
440,256,158537,2,0,P|416:288|384:288,1,70
288,280,159197,5,0,0:0:0:0:
336,176,159361,1,0,0:0:0:0:
192,256,159526,2,0,P|136:232|136:208,1,70
104,192,160021,1,0,0:0:0:0:
112,136,160186,1,0,0:0:0:0:
272,88,160680,5,0,0:0:0:0:
296,104,160845,1,0,0:0:0:0:
232,240,161339,5,0,0:0:0:0:
256,232,161504,2,0,L|288:216,3,35
336,208,162164,6,0,P|368:208|368:248,1,70
376,352,162823,1,0,0:0:0:0:
328,360,162988,2,0,P|280:352|272:328,1,70
280,240,163647,1,0,0:0:0:0:
288,192,163812,2,0,P|256:136|224:136,1,70
160,128,164471,1,0,0:0:0:0:
80,184,164801,6,0,P|88:248|112:264,1,70
184,272,165460,2,0,P|152:232|160:208,1,70
184,176,165955,1,0,0:0:0:0:
264,120,166284,1,0,0:0:0:0:
312,112,166449,2,0,P|352:128|360:160,1,70
368,200,166944,1,0,0:0:0:0:
368,200,167109,1,0,0:0:0:0:
368,104,167438,6,0,P|336:64|312:64,1,70
224,56,168098,2,0,P|192:80|176:112,1,70
184,144,168592,1,0,0:0:0:0:
232,176,168922,1,0,0:0:0:0:
240,128,169087,2,0,P|240:96|208:96,1,70
128,120,169746,2,0,P|112:160|136:192,1,70
176,264,170405,5,0,0:0:0:0:
272,272,170735,2,0,L|288:240,1,35
320,168,171065,1,0,0:0:0:0:
368,160,171230,1,0,0:0:0:0:
424,200,171394,2,0,L|456:224,2,35
416,280,171889,1,0,0:0:0:0:
296,264,172054,2,0,L|336:240,2,35
416,280,172548,1,0,0:0:0:0:
472,328,172713,6,0,P|488:256|480:232,1,70
432,176,173372,2,0,L|408:144,1,35
352,96,173867,1,0,0:0:0:0:
288,72,174197,1,0,0:0:0:0:
240,64,174361,2,0,P|200:80|192:104,1,70
160,192,175021,1,0,0:0:0:0:
192,288,175350,2,0,P|240:320|256:312,2,70
256,320,176339,5,0,0:0:0:0:
296,312,176504,1,0,0:0:0:0:
312,224,176834,1,0,0:0:0:0:
192,296,176999,2,0,P|224:328|256:328,1,70
320,216,177823,1,0,0:0:0:0:
280,96,177988,2,0,P|248:72|216:72,1,70
112,112,178647,5,0,0:0:0:0:
96,160,178812,1,0,0:0:0:0:
104,208,178977,1,0,0:0:0:0:
128,248,179142,2,0,P|168:288|184:288,1,70
224,296,179636,1,0,0:0:0:0:
320,304,179966,2,0,L|336:288,8,17.5
256,192,180790,12,0,184581,0:0:0:0:
