osu file format v14

[General]
AudioFilename: audio.mp3
AudioLeadIn: 0
PreviewTime: 61743
Countdown: 0
SampleSet: Normal
StackLeniency: 0.7
Mode: 1
LetterboxInBreaks: 0
WidescreenStoryboard: 1

[Editor]
DistanceSpacing: 1
BeatDivisor: 4
GridSize: 32
TimelineZoom: 1.6

[Metadata]
Title:Asayake to Nettaigyo (Speed Up ver.)
TitleUnicode:朝焼けと熱帯魚 (Speed Up ver.)
Artist:Boku no Lyric no Bouyomi
ArtistUnicode:ぼくのりりっくのぼうよみ
Creator:EdamaMe411
Version:Oni
Source:刻刻
Tags:Kokkoku Ending ED
BeatmapID:1795674
BeatmapSetID:858818

[Difficulty]
HPDrainRate:6
CircleSize:5
OverallDifficulty:5.5
ApproachRate:5
SliderMultiplier:1.4
SliderTickRate:1

[Events]
//Background and Video events
0,0,"2b42752d0a78b7e49603a53a9001a8bd.png",0,0
//Break Periods
//Storyboard Layer 0 (Background)
//Storyboard Layer 1 (Fail)
//Storyboard Layer 2 (Pass)
//Storyboard Layer 3 (Foreground)
//Storyboard Sound Samples

[TimingPoints]
77,333.333333333333,4,1,0,70,1,0
26660,-100,4,1,0,35,0,0
27243,-111.111111111111,4,1,0,35,0,0
27993,-111.111111111111,4,1,0,70,0,0
48076,-100,4,1,0,70,0,0
59410,-100,4,1,0,5,0,0
60076,-111.111111111111,4,1,0,5,0,0
61410,-125,4,1,0,5,0,0
61993,-125,4,1,0,70,0,0
62743,-100,4,1,0,80,0,1
71910,-100,4,1,0,80,0,0
73410,-100,4,1,0,80,0,1
82576,-100,4,1,0,80,0,0
82743,-100,4,1,0,70,0,0

[HitObjects]
256,192,77,5,0,0:0:0:0:
256,192,410,1,0,0:0:0:0:
256,192,743,1,2,0:0:0:0:
248,155,910,1,2,0:0:0:0:
256,192,1243,1,0,0:0:0:0:
256,192,1577,1,2,0:0:0:0:
256,192,1910,1,0,0:0:0:0:
256,160,2076,1,2,0:0:0:0:
256,192,2743,1,0,0:0:0:0:
256,192,3076,1,0,0:0:0:0:
256,192,3410,1,2,0:0:0:0:
255,178,3576,1,0,0:0:0:0:
256,192,3910,1,2,0:0:0:0:
256,192,4577,1,2,0:0:0:0:
256,192,4743,1,2,0:0:0:0:
288,160,4910,1,0,0:0:0:0:
256,192,5077,1,0,0:0:0:0:
256,224,5410,1,0,0:0:0:0:
256,192,5743,1,2,0:0:0:0:
288,192,5910,1,0,0:0:0:0:
256,192,6077,1,0,0:0:0:0:
256,192,6410,1,2,0:0:0:0:
256,192,6576,1,0,0:0:0:0:
256,192,6743,1,2,0:0:0:0:
256,192,6910,1,0,0:0:0:0:
256,192,6993,1,0,0:0:0:0:
256,192,7076,1,0,0:0:0:0:
256,192,7243,1,0,0:0:0:0:
256,192,7410,1,2,0:0:0:0:
256,192,7743,1,2,0:0:0:0:
256,192,7910,1,0,0:0:0:0:
256,192,8076,1,2,0:0:0:0:
256,192,8326,1,0,0:0:0:0:
253,175,8410,1,2,0:0:0:0:
256,160,8576,1,0,0:0:0:0:
256,192,8743,1,2,0:0:0:0:
256,192,8910,1,0,0:0:0:0:
256,192,8993,1,0,0:0:0:0:
256,160,9243,1,2,0:0:0:0:
256,189,9410,1,2,0:0:0:0:
256,160,9576,1,0,0:0:0:0:
256,192,9743,1,0,0:0:0:0:
256,192,9910,1,0,0:0:0:0:
256,192,9993,1,0,0:0:0:0:
256,192,10076,1,2,0:0:0:0:
256,192,10410,1,0,0:0:0:0:
256,224,10576,1,2,0:0:0:0:
256,192,10743,1,0,0:0:0:0:
256,160,10993,1,2,0:0:0:0:
224,192,11076,1,0,0:0:0:0:
256,192,11243,1,0,0:0:0:0:
256,192,11410,1,2,0:0:0:0:
256,192,11576,1,0,0:0:0:0:
256,192,11660,1,0,0:0:0:0:
256,192,11743,1,2,0:0:0:0:
256,192,11910,1,2,0:0:0:0:
256,192,12076,1,0,0:0:0:0:
256,192,12326,1,2,0:0:0:0:
256,192,12410,1,0,0:0:0:0:
256,192,12576,1,2,0:0:0:0:
256,192,12743,1,2,0:0:0:0:
256,192,12910,1,0,0:0:0:0:
256,192,12993,1,0,0:0:0:0:
256,192,13076,1,0,0:0:0:0:
256,192,13243,1,2,0:0:0:0:
256,192,13410,1,0,0:0:0:0:
256,192,13743,1,0,0:0:0:0:
256,192,13910,1,2,0:0:0:0:
256,192,14243,1,2,0:0:0:0:
256,192,14410,1,0,0:0:0:0:
256,192,14576,1,2,0:0:0:0:
256,160,14743,1,0,0:0:0:0:
256,192,14910,1,0,0:0:0:0:
256,160,15076,1,2,0:0:0:0:
256,192,15243,1,0,0:0:0:0:
256,160,15326,1,0,0:0:0:0:
256,192,15410,1,2,0:0:0:0:
256,160,15576,1,0,0:0:0:0:
256,160,15743,1,2,0:0:0:0:
256,160,16076,1,0,0:0:0:0:
256,192,16160,1,0,0:0:0:0:
256,160,16326,1,0,0:0:0:0:
256,160,16410,1,0,0:0:0:0:
256,160,16577,1,2,0:0:0:0:
256,160,16743,1,0,0:0:0:0:
256,160,17077,1,0,0:0:0:0:
256,192,17243,1,2,0:0:0:0:
256,160,17410,1,2,0:0:0:0:
256,160,17493,1,0,0:0:0:0:
256,160,17660,1,0,0:0:0:0:
256,160,17743,1,2,0:0:0:0:
256,128,17910,1,2,0:0:0:0:
288,160,18076,1,0,0:0:0:0:
256,160,18410,1,2,0:0:0:0:
256,160,18576,1,0,0:0:0:0:
256,160,18743,1,2,0:0:0:0:
256,160,19077,1,0,0:0:0:0:
256,160,19243,1,2,0:0:0:0:
256,160,19577,1,0,0:0:0:0:
256,128,19743,1,2,0:0:0:0:
256,192,19910,1,2,0:0:0:0:
224,96,20077,1,0,0:0:0:0:
256,128,20243,1,2,0:0:0:0:
224,96,20326,1,2,0:0:0:0:
224,64,20410,1,0,0:0:0:0:
256,192,20577,1,2,0:0:0:0:
256,192,20743,1,0,0:0:0:0:
256,192,20910,1,0,0:0:0:0:
224,128,21077,1,2,0:0:0:0:
256,192,21410,1,0,0:0:0:0:
256,192,21493,1,0,0:0:0:0:
256,160,21660,1,0,0:0:0:0:
224,128,21743,1,0,0:0:0:0:
224,128,21910,1,2,0:0:0:0:
224,128,22077,1,0,0:0:0:0:
224,128,22410,1,0,0:0:0:0:
256,160,22577,1,2,0:0:0:0:
256,160,22743,1,2,0:0:0:0:
224,128,22826,1,0,0:0:0:0:
256,160,22993,1,0,0:0:0:0:
256,160,23077,1,2,0:0:0:0:
256,160,23243,1,2,0:0:0:0:
256,160,23410,1,0,0:0:0:0:
256,160,23743,1,0,0:0:0:0:
256,160,23910,1,0,0:0:0:0:
256,160,24076,1,2,0:0:0:0:
256,160,24410,1,0,0:0:0:0:
256,160,24577,1,2,0:0:0:0:
256,160,24910,1,0,0:0:0:0:
288,224,25076,1,0,0:0:0:0:
256,160,25243,1,2,0:0:0:0:
256,192,25410,1,0,0:0:0:0:
256,192,25576,1,0,0:0:0:0:
256,192,25660,1,0,0:0:0:0:
256,192,25743,1,0,0:0:0:0:
256,192,25910,1,2,0:0:0:0:
256,192,26077,1,2,0:0:0:0:
256,192,26243,1,0,0:0:0:0:
256,192,26410,1,2,0:0:0:0:
256,192,26743,1,0,0:0:0:0:
224,192,27243,1,0,0:0:0:0:
256,192,27326,1,0,0:0:0:0:
256,192,27410,1,0,0:0:0:0:
288,160,27577,1,0,0:0:0:0:
288,160,27743,1,2,0:0:0:0:
288,160,28077,1,4,0:0:0:0:
256,192,28577,1,0,0:0:0:0:
256,192,28743,1,2,0:0:0:0:
256,192,29076,1,2,0:0:0:0:
256,192,29243,1,0,0:0:0:0:
256,192,29577,1,0,0:0:0:0:
256,192,29743,1,2,0:0:0:0:
256,192,29910,1,2,0:0:0:0:
256,192,29993,1,2,0:0:0:0:
256,192,30077,1,0,0:0:0:0:
256,192,30243,1,0,0:0:0:0:
256,192,30410,1,2,0:0:0:0:
256,192,30743,1,0,0:0:0:0:
256,192,30910,1,2,0:0:0:0:
256,192,31077,1,0,0:0:0:0:
256,192,31243,1,0,0:0:0:0:
256,192,31410,1,2,0:0:0:0:
256,192,31743,1,2,0:0:0:0:
224,192,31910,1,0,0:0:0:0:
224,192,32077,1,2,0:0:0:0:
224,192,32243,1,0,0:0:0:0:
224,192,32327,1,2,0:0:0:0:
224,192,32410,1,2,0:0:0:0:
224,192,32576,1,0,0:0:0:0:
224,192,32743,1,2,0:0:0:0:
224,192,33076,1,2,0:0:0:0:
224,160,33410,1,0,0:0:0:0:
256,192,33743,1,0,0:0:0:0:
256,192,33910,1,0,0:0:0:0:
256,192,34076,1,2,0:0:0:0:
256,224,34410,1,2,0:0:0:0:
288,224,34576,1,0,0:0:0:0:
288,224,34743,1,2,0:0:0:0:
224,192,34910,1,2,0:0:0:0:
256,192,35076,1,0,0:0:0:0:
288,224,35410,1,2,0:0:0:0:
256,224,35576,1,0,0:0:0:0:
256,224,35660,1,0,0:0:0:0:
256,224,35743,1,2,0:0:0:0:
256,192,35910,1,2,0:0:0:0:
256,192,36076,1,0,0:0:0:0:
288,192,36410,1,0,0:0:0:0:
256,192,36576,1,0,0:0:0:0:
256,192,36743,1,2,0:0:0:0:
256,192,36910,1,2,0:0:0:0:
256,192,36993,1,2,0:0:0:0:
256,192,37076,1,2,0:0:0:0:
256,192,37243,1,0,0:0:0:0:
256,192,37409,1,2,0:0:0:0:
256,192,37576,1,0,0:0:0:0:
256,192,37743,1,2,0:0:0:0:
256,192,37826,1,2,0:0:0:0:
256,192,37909,1,0,0:0:0:0:
256,192,38076,1,2,0:0:0:0:
256,192,38243,1,0,0:0:0:0:
256,192,38410,1,4,0:0:0:0:
256,192,38743,1,2,0:0:0:0:
256,192,39076,1,0,0:0:0:0:
256,192,39243,1,0,0:0:0:0:
256,192,39410,1,2,0:0:0:0:
256,192,39576,1,2,0:0:0:0:
256,192,39660,1,2,0:0:0:0:
256,192,39743,1,2,0:0:0:0:
256,192,39910,1,0,0:0:0:0:
256,192,40243,1,2,0:0:0:0:
256,192,40410,1,0,0:0:0:0:
256,192,40576,1,0,0:0:0:0:
256,192,40743,1,2,0:0:0:0:
256,192,41076,1,2,0:0:0:0:
256,192,41243,1,0,0:0:0:0:
256,192,41410,1,0,0:0:0:0:
256,192,41743,1,2,0:0:0:0:
256,192,41910,1,0,0:0:0:0:
256,192,42076,1,2,0:0:0:0:
256,224,42243,1,0,0:0:0:0:
256,224,42326,1,2,0:0:0:0:
256,224,42410,1,2,0:0:0:0:
256,224,42576,1,0,0:0:0:0:
256,192,42743,1,2,0:0:0:0:
256,192,43076,1,2,0:0:0:0:
256,224,43243,1,0,0:0:0:0:
256,224,43410,1,2,0:0:0:0:
256,192,43493,1,2,0:0:0:0:
256,192,43576,1,0,0:0:0:0:
256,192,43743,1,2,0:0:0:0:
256,192,43910,1,2,0:0:0:0:
256,192,44076,1,0,0:0:0:0:
256,192,44243,1,2,0:0:0:0:
256,192,44576,1,0,0:0:0:0:
256,192,44743,1,2,0:0:0:0:
256,128,44910,1,2,0:0:0:0:
256,160,45076,1,0,0:0:0:0:
256,160,45243,1,2,0:0:0:0:
256,160,45326,1,2,0:0:0:0:
288,160,45410,1,2,0:0:0:0:
288,160,45576,1,0,0:0:0:0:
288,160,45743,1,2,0:0:0:0:
256,192,46076,1,2,0:0:0:0:
256,160,46243,1,0,0:0:0:0:
224,160,46326,1,0,0:0:0:0:
256,192,46410,1,2,0:0:0:0:
256,192,46576,1,2,0:0:0:0:
256,192,46743,1,0,0:0:0:0:
256,192,47076,1,2,0:0:0:0:
256,192,47243,1,0,0:0:0:0:
256,160,47410,1,2,0:0:0:0:
256,192,47493,1,2,0:0:0:0:
256,192,47576,1,0,0:0:0:0:
256,192,47743,1,0,0:0:0:0:
256,192,47910,1,2,0:0:0:0:
288,192,48576,1,2,0:0:0:0:
288,192,48743,1,2,0:0:0:0:
288,192,48910,1,0,0:0:0:0:
288,192,49076,1,0,0:0:0:0:
288,192,49410,1,4,0:0:0:0:
288,192,49910,1,0,0:0:0:0:
288,192,50076,1,2,0:0:0:0:
288,224,50576,1,0,0:0:0:0:
256,192,50910,1,2,0:0:0:0:
288,160,51076,1,2,0:0:0:0:
288,192,51243,1,0,0:0:0:0:
320,192,51576,1,0,0:0:0:0:
245,191,51743,1,2,0:0:0:0:
256,192,51910,1,4,0:0:0:0:
288,128,52243,1,2,0:0:0:0:
288,192,52410,1,2,0:0:0:0:
256,192,52576,1,4,0:0:0:0:
288,192,52910,1,2,0:0:0:0:
288,192,53243,1,4,0:0:0:0:
288,192,53576,1,2,0:0:0:0:
256,160,53743,1,2,0:0:0:0:
256,192,53910,1,0,0:0:0:0:
288,192,54243,1,0,0:0:0:0:
256,192,54410,1,2,0:0:0:0:
288,192,54576,1,0,0:0:0:0:
288,192,54743,1,0,0:0:0:0:
288,192,55243,1,0,0:0:0:0:
288,192,55410,1,2,0:0:0:0:
288,192,55743,1,2,0:0:0:0:
288,192,55910,1,0,0:0:0:0:
288,192,56243,1,0,0:0:0:0:
288,192,56410,1,0,0:0:0:0:
288,192,56576,1,2,0:0:0:0:
288,192,56910,1,2,0:0:0:0:
288,192,57076,1,2,0:0:0:0:
288,192,57243,1,4,0:0:0:0:
256,192,57576,1,0,0:0:0:0:
288,192,57910,1,4,0:0:0:0:
256,192,58243,1,0,0:0:0:0:
288,192,58576,5,6,0:0:0:0:
256,160,58910,1,2,0:0:0:0:
256,160,59076,1,0,0:0:0:0:
256,192,59243,1,6,0:0:0:0:
256,256,62076,1,2,0:0:0:0:
256,256,62410,1,0,0:0:0:0:
256,192,62743,1,4,0:0:0:0:
224,192,63076,1,0,0:0:0:0:
224,192,63410,1,2,0:0:0:0:
224,192,63576,1,0,0:0:0:0:
224,192,63910,1,0,0:0:0:0:
224,192,64076,1,2,0:0:0:0:
224,192,64243,1,0,0:0:0:0:
224,192,64326,1,0,0:0:0:0:
224,192,64410,1,0,0:0:0:0:
256,192,64576,1,0,0:0:0:0:
256,192,64743,1,2,0:0:0:0:
224,192,65076,1,0,0:0:0:0:
256,192,65243,1,2,0:0:0:0:
224,192,65410,1,2,0:0:0:0:
256,192,65743,1,2,0:0:0:0:
256,192,65910,1,0,0:0:0:0:
256,192,66076,1,2,0:0:0:0:
256,192,66243,1,0,0:0:0:0:
256,192,66326,1,0,0:0:0:0:
256,192,66410,1,0,0:0:0:0:
256,192,66576,1,0,0:0:0:0:
256,160,66743,1,2,0:0:0:0:
256,192,67243,1,0,0:0:0:0:
256,192,67410,1,2,0:0:0:0:
256,192,67576,1,0,0:0:0:0:
256,192,67743,1,0,0:0:0:0:
256,192,67910,1,2,0:0:0:0:
256,192,68076,1,0,0:0:0:0:
256,192,68243,1,2,0:0:0:0:
256,192,68576,1,0,0:0:0:0:
256,192,68743,1,2,0:0:0:0:
256,192,68910,1,2,0:0:0:0:
288,224,68993,1,2,0:0:0:0:
256,192,69076,1,0,0:0:0:0:
256,192,69243,1,0,0:0:0:0:
256,224,69410,1,2,0:0:0:0:
256,192,69576,1,2,0:0:0:0:
256,224,69743,1,0,0:0:0:0:
256,224,70076,1,2,0:0:0:0:
256,224,70243,1,0,0:0:0:0:
256,224,70326,1,0,0:0:0:0:
256,224,70410,1,0,0:0:0:0:
256,224,70576,1,0,0:0:0:0:
256,224,70743,1,2,0:0:0:0:
224,128,71076,1,2,0:0:0:0:
224,160,71243,1,0,0:0:0:0:
256,224,71410,1,2,0:0:0:0:
256,224,71576,1,0,0:0:0:0:
224,128,71743,1,0,0:0:0:0:
256,224,71910,1,2,0:0:0:0:
256,192,72576,1,2,0:0:0:0:
256,192,72743,1,0,0:0:0:0:
256,192,72910,1,0,0:0:0:0:
256,192,73076,1,2,0:0:0:0:
256,192,73410,1,0,0:0:0:0:
256,192,73576,1,0,0:0:0:0:
256,192,73660,1,0,0:0:0:0:
256,192,73743,1,0,0:0:0:0:
256,192,73910,1,0,0:0:0:0:
256,192,74076,1,2,0:0:0:0:
256,192,74326,1,2,0:0:0:0:
256,192,74576,1,2,0:0:0:0:
256,160,74743,1,0,0:0:0:0:
256,192,74910,1,2,0:0:0:0:
256,192,75076,1,0,0:0:0:0:
256,192,75243,1,0,0:0:0:0:
256,192,75326,1,0,0:0:0:0:
256,192,75410,1,2,0:0:0:0:
256,192,75660,1,0,0:0:0:0:
256,192,75910,1,2,0:0:0:0:
256,192,76076,1,0,0:0:0:0:
256,192,76243,1,0,0:0:0:0:
256,192,76326,1,0,0:0:0:0:
256,192,76410,1,0,0:0:0:0:
256,192,76576,1,0,0:0:0:0:
256,192,76743,1,2,0:0:0:0:
256,160,76993,1,2,0:0:0:0:
256,192,77243,1,0,0:0:0:0:
256,192,77410,1,2,0:0:0:0:
288,224,77493,1,2,0:0:0:0:
256,192,77576,1,0,0:0:0:0:
256,192,77660,1,0,0:0:0:0:
256,192,77743,1,2,0:0:0:0:
256,192,77910,1,0,0:0:0:0:
256,192,78076,1,2,0:0:0:0:
256,160,78326,1,2,0:0:0:0:
256,192,78410,1,0,0:0:0:0:
256,192,78576,1,2,0:0:0:0:
256,160,78743,1,0,0:0:0:0:
256,192,79076,1,2,0:0:0:0:
256,192,79243,1,0,0:0:0:0:
256,160,79410,1,2,0:0:0:0:
256,192,79576,1,0,0:0:0:0:
288,224,79660,1,2,0:0:0:0:
256,192,79910,1,2,0:0:0:0:
256,192,80076,1,0,0:0:0:0:
256,192,80243,1,0,0:0:0:0:
256,192,80326,1,0,0:0:0:0:
256,192,80410,1,0,0:0:0:0:
256,192,80576,1,0,0:0:0:0:
256,192,80743,1,2,0:0:0:0:
256,192,80993,1,2,0:0:0:0:
256,192,81076,1,0,0:0:0:0:
256,192,81243,1,2,0:0:0:0:
224,192,81410,1,0,0:0:0:0:
288,192,81743,1,2,0:0:0:0:
288,192,82076,1,0,0:0:0:0:
288,192,82243,1,0,0:0:0:0:
288,192,82410,1,0,0:0:0:0:
256,128,82576,1,2,0:0:0:0:
256,192,83243,5,2,0:0:0:0:
256,192,83410,1,2,0:0:0:0:
256,192,83576,1,0,0:0:0:0:
256,192,83743,1,2,0:0:0:0:
256,192,84076,5,4,0:0:0:0:
