osu file format v14

[General]
AudioFilename: audio.mp3
AudioLeadIn: 0
PreviewTime: 61743
Countdown: 0
SampleSet: Normal
StackLeniency: 0.7
Mode: 1
LetterboxInBreaks: 0
WidescreenStoryboard: 1

[Editor]
DistanceSpacing: 1
BeatDivisor: 4
GridSize: 32
TimelineZoom: 0.8999999

[Metadata]
Title:Asayake to Nettaigyo (Speed Up ver.)
TitleUnicode:朝焼けと熱帯魚 (Speed Up ver.)
Artist:Boku no Lyric no Bouyomi
ArtistUnicode:ぼくのりりっくのぼうよみ
Creator:EdamaMe411
Version:Kantan
Source:刻刻
Tags:Kokkoku Ending ED
BeatmapID:1795865
BeatmapSetID:858818

[Difficulty]
HPDrainRate:8
CircleSize:5
OverallDifficulty:3
ApproachRate:5
SliderMultiplier:1.4
SliderTickRate:1

[Events]
//Background and Video events
0,0,"2b42752d0a78b7e49603a53a9001a8bd.png",0,0
//Break Periods
//Storyboard Layer 0 (Background)
//Storyboard Layer 1 (Fail)
//Storyboard Layer 2 (Pass)
//Storyboard Layer 3 (Foreground)
//Storyboard Sound Samples

[TimingPoints]
77,333.333333333333,4,1,0,70,1,0
26660,-100,4,1,0,35,0,0
27993,-100,4,1,0,60,0,0
48076,-100,4,1,0,70,0,0
59410,-100,4,1,0,5,0,0
60076,-111.111111111111,4,1,0,5,0,0
61410,-125,4,1,0,5,0,0
61993,-125,4,1,0,70,0,0
62743,-100,4,1,0,70,0,1
71910,-100,4,1,0,70,0,0
73410,-100,4,1,0,70,0,1
82576,-100,4,1,0,70,0,0

[HitObjects]
256,192,77,5,0,0:0:0:0:
256,192,743,1,2,0:0:0:0:
256,192,1410,1,0,0:0:0:0:
272,151,1743,1,0,0:0:0:0:
256,160,2076,1,2,0:0:0:0:
256,192,2743,1,0,0:0:0:0:
256,192,3410,1,2,0:0:0:0:
256,192,3910,1,2,0:0:0:0:
288,160,4743,1,2,0:0:0:0:
256,224,5076,1,0,0:0:0:0:
256,224,5410,1,0,0:0:0:0:
256,192,6076,1,0,0:0:0:0:
256,192,6743,1,2,0:0:0:0:
256,192,8076,1,2,0:0:0:0:
256,192,8743,1,2,0:0:0:0:
256,160,9410,1,0,0:0:0:0:
256,224,10743,1,2,0:0:0:0:
256,192,11410,1,0,0:0:0:0:
256,192,12076,1,2,0:0:0:0:
256,192,13410,1,0,0:0:0:0:
256,192,14076,1,2,0:0:0:0:
256,160,14743,1,0,0:0:0:0:
256,192,15076,1,0,0:0:0:0:
256,192,15410,1,2,0:0:0:0:
256,160,16076,1,0,0:0:0:0:
256,160,17410,1,2,0:0:0:0:
256,160,18743,1,0,0:0:0:0:
256,160,19410,1,2,0:0:0:0:
256,128,20076,1,0,0:0:0:0:
224,128,20743,1,2,0:0:0:0:
256,192,21410,1,0,0:0:0:0:
256,160,22743,1,2,0:0:0:0:
256,160,24076,1,0,0:0:0:0:
280,206,24743,1,2,0:0:0:0:
256,192,25410,1,0,0:0:0:0:
256,192,25743,1,2,0:0:0:0:
256,192,26076,1,0,0:0:0:0:
224,192,26743,1,0,0:0:0:0:
288,160,28076,1,4,0:0:0:0:
256,192,28743,1,2,0:0:0:0:
256,192,29410,1,2,0:0:0:0:
256,192,30743,1,0,0:0:0:0:
256,192,31410,1,2,0:0:0:0:
224,192,32077,1,0,0:0:0:0:
224,192,32743,1,2,0:0:0:0:
224,160,33410,1,0,0:0:0:0:
288,224,34743,1,2,0:0:0:0:
288,224,35410,1,2,0:0:0:0:
256,192,36076,1,0,0:0:0:0:
256,192,36743,1,2,0:0:0:0:
288,256,37076,1,2,0:0:0:0:
256,192,37410,1,0,0:0:0:0:
256,192,38743,1,4,0:0:0:0:
256,192,39410,1,2,0:0:0:0:
256,192,40076,1,2,0:0:0:0:
256,192,40410,1,0,0:0:0:0:
256,192,40743,1,2,0:0:0:0:
256,192,41410,1,0,0:0:0:0:
288,256,42076,1,2,0:0:0:0:
281,211,42743,1,0,0:0:0:0:
256,192,43410,1,2,0:0:0:0:
224,192,43743,1,2,0:0:0:0:
224,192,44076,1,0,0:0:0:0:
288,160,45410,1,2,0:0:0:0:
256,192,46076,1,2,0:0:0:0:
256,192,46410,1,0,0:0:0:0:
256,192,46743,1,2,0:0:0:0:
256,160,47410,1,0,0:0:0:0:
256,192,47910,1,2,0:0:0:0:
288,192,48743,1,2,0:0:0:0:
288,192,49076,1,0,0:0:0:0:
288,192,49410,1,4,0:0:0:0:
288,192,50076,1,2,0:0:0:0:
288,224,50576,1,0,0:0:0:0:
256,192,51910,1,0,0:0:0:0:
256,192,52576,1,0,0:0:0:0:
288,180,53243,1,0,0:0:0:0:
256,192,53910,1,0,0:0:0:0:
288,192,54743,1,4,0:0:0:0:
256,160,55410,1,2,0:0:0:0:
288,192,55910,1,0,0:0:0:0:
288,192,57243,1,0,0:0:0:0:
288,192,57910,1,0,0:0:0:0:
288,192,58576,5,2,0:0:0:0:
256,192,59243,1,2,0:0:0:0:
256,256,62076,1,2,0:0:0:0:
256,256,62410,1,0,0:0:0:0:
256,192,62743,1,4,0:0:0:0:
224,192,63410,1,2,0:0:0:0:
224,192,64076,1,0,0:0:0:0:
294,195,64410,1,0,0:0:0:0:
256,192,64743,1,2,0:0:0:0:
294,195,65410,1,2,0:0:0:0:
294,195,66076,1,0,0:0:0:0:
256,192,66743,1,2,0:0:0:0:
256,192,68076,1,2,0:0:0:0:
256,192,68743,1,0,0:0:0:0:
256,192,69410,1,2,0:0:0:0:
288,192,69743,1,2,0:0:0:0:
256,224,70076,1,0,0:0:0:0:
256,224,70743,1,0,0:0:0:0:
256,256,71410,1,0,0:0:0:0:
256,224,71910,1,2,0:0:0:0:
256,192,72743,1,0,0:0:0:0:
256,192,73076,1,2,0:0:0:0:
256,192,73410,1,0,0:0:0:0:
256,192,74743,1,0,0:0:0:0:
256,192,75410,1,2,0:0:0:0:
256,192,76076,1,0,0:0:0:0:
256,160,76743,1,0,0:0:0:0:
256,192,77410,1,2,0:0:0:0:
256,192,77743,1,0,0:0:0:0:
256,192,78076,1,2,0:0:0:0:
270,198,78743,1,0,0:0:0:0:
255,206,80076,1,0,0:0:0:0:
255,206,80743,1,2,0:0:0:0:
236,175,81076,1,2,0:0:0:0:
224,192,81410,1,0,0:0:0:0:
288,192,82076,1,0,0:0:0:0:
265,160,82576,1,2,0:0:0:0:
256,192,83410,1,2,0:0:0:0:
256,192,83743,1,2,0:0:0:0:
256,192,84076,5,4,0:0:0:0:
