osu file format v14

[General]
AudioFilename: audio.mp3
AudioLeadIn: 0
PreviewTime: -1
Countdown: 1
SampleSet: Normal
StackLeniency: 0.2
Mode: 0
LetterboxInBreaks: 0
WidescreenStoryboard: 0

[Editor]
DistanceSpacing: 1.1
BeatDivisor: 4
GridSize: 16
TimelineZoom: 1.700001

[Metadata]
Title:Asayake to Nettaigyo
TitleUnicode:Asayake to Nettaigyo
Artist:Boku no Lyric no Bouyomi
ArtistUnicode:Boku no Lyric no Bouyomi
Creator:Ghosty52
Version:Insane
Source:
Tags:Kokkoku, Ending, Anime, Japanese.
BeatmapID:1569852
BeatmapSetID:744566

[Difficulty]
HPDrainRate:6
CircleSize:4.2
OverallDifficulty:6
ApproachRate:9
SliderMultiplier:1.2
SliderTickRate:1

[Events]
//Background and Video events
0,0,"116955.jpg",0,0
//Break Periods
//Storyboard Layer 0 (Background)
//Storyboard Layer 1 (Fail)
//Storyboard Layer 2 (Pass)
//Storyboard Layer 3 (Foreground)
//Storyboard Sound Samples

[TimingPoints]
460,400,4,1,0,30,1,0
460,-100,4,2,0,50,0,0
11660,-100,4,1,0,30,0,0
13260,-133.333333333333,4,1,0,30,0,0
14060,-100,4,1,0,30,0,0
51660,-66.6666666666667,4,1,0,30,0,0

[HitObjects]
128,192,460,5,0,0:0:0:0:
256,64,860,2,0,B|304:80|336:112|336:112|304:112,1,120
304,112,1460,1,0,0:0:0:0:
304,304,1860,2,0,P|333:303|354:283,2,60
176,288,2860,1,0,0:0:0:0:
176,96,3260,1,0,0:0:0:0:
96,144,3660,2,0,P|64:192|96:240,1,120
336,272,4460,1,0,0:0:0:0:
336,272,4660,6,0,B|384:256|400:208|400:208|368:224,1,120
352,64,5460,1,0,0:0:0:0:
160,272,6060,5,0,0:0:0:0:
160,112,6260,1,0,0:0:0:0:
80,192,6460,1,0,0:0:0:0:
240,192,6660,1,0,0:0:0:0:
352,192,6860,6,0,B|397:107|397:107|367:127,1,120
352,192,7660,1,0,0:0:0:0:
272,320,7860,2,0,B|224:352|224:352|160:352,1,120
272,320,8660,1,0,0:0:0:0:
192,192,9060,5,0,0:0:0:0:
160,192,9160,1,0,0:0:0:0:
128,192,9260,1,0,0:0:0:0:
384,192,9660,1,0,0:0:0:0:
256,320,10060,6,0,B|160:320|160:320|208:304,1,120
240,288,10660,1,0,0:0:0:0:
272,272,10860,1,0,0:0:0:0:
304,256,11060,1,0,0:0:0:0:
416,208,11460,1,0,0:0:0:0:
160,272,12260,5,0,0:0:0:0:
192,112,12460,1,0,0:0:0:0:
128,256,12660,1,0,0:0:0:0:
224,128,12860,1,0,0:0:0:0:
104,224,13060,1,0,0:0:0:0:
96,192,13260,2,0,P|144:112|224:64,1,180.000006866455
456,104,14260,2,0,P|433:76|398:68,2,60
336,160,14860,5,0,0:0:0:0:
296,328,15060,1,0,0:0:0:0:
400,280,15260,1,0,0:0:0:0:
264,224,15460,1,0,0:0:0:0:
80,136,15660,5,0,0:0:0:0:
184,120,15860,1,0,0:0:0:0:
112,216,16060,1,0,0:0:0:0:
112,288,16260,2,0,P|128:320|208:304,1,120
208,304,16760,1,0,0:0:0:0:
224,288,16860,1,0,0:0:0:0:
240,272,16960,1,0,0:0:0:0:
256,256,17060,2,0,P|310:239|345:283,1,120
384,176,17660,5,0,0:0:0:0:
400,176,17760,1,0,0:0:0:0:
416,176,17860,2,0,L|480:176,2,60
368,248,18460,1,0,0:0:0:0:
232,64,18660,5,0,0:0:0:0:
152,240,18860,1,0,0:0:0:0:
296,200,19060,2,0,P|320:232|344:240,1,60
360,248,19360,1,0,0:0:0:0:
384,256,19460,2,0,P|424:264|456:256,1,60
408,64,19860,1,0,0:0:0:0:
272,48,20060,5,0,1:0:0:0:
246,49,20160,1,0,1:0:0:0:
226,60,20260,2,0,P|194:84|179:105,1,60,0|0,1:0|1:0,1:0:0:0:
104,208,20660,1,0,0:0:0:0:
240,152,20860,2,0,P|240:192|224:216,1,60
296,304,21260,1,0,0:0:0:0:
304,312,21360,2,0,P|343:328|332:295,1,90
352,144,21860,5,0,0:0:0:0:
256,240,22060,1,0,0:0:0:0:
160,144,22260,1,0,0:0:0:0:
256,48,22460,1,0,0:0:0:0:
352,144,22660,1,0,0:0:0:0:
352,288,22860,6,0,L|432:288,1,60
256,288,23260,1,0,0:0:0:0:
208,96,23460,2,0,L|144:128,1,60
64,64,23860,1,0,0:0:0:0:
192,240,24060,1,0,0:0:0:0:
320,112,24260,2,0,P|352:128|336:144,1,60
368,192,25060,5,0,0:0:0:0:
128,192,25260,1,0,0:0:0:0:
368,192,25460,1,0,0:0:0:0:
128,192,25660,1,0,0:0:0:0:
176,80,25860,1,0,0:0:0:0:
256,192,26060,1,0,0:0:0:0:
352,304,26260,5,0,0:0:0:0:
320,320,26360,1,0,0:0:0:0:
288,320,26460,2,0,L|224:320,1,60
192,320,26760,1,0,0:0:0:0:
160,304,26860,1,0,0:0:0:0:
128,192,27060,5,0,0:0:0:0:
332,88,27260,1,0,0:0:0:0:
176,56,27460,1,0,0:0:0:0:
316,236,27660,1,0,0:0:0:0:
200,320,27860,5,0,0:0:0:0:
168,320,27960,1,0,0:0:0:0:
144,312,28060,2,0,P|113:292|97:265,1,60
80,168,28360,1,0,0:0:0:0:
80,152,28460,2,0,P|91:121|118:100,1,60
232,96,28860,1,0,0:0:0:0:
392,176,29060,1,0,0:0:0:0:
136,192,29260,1,0,0:0:0:0:
152,336,29460,5,0,0:0:0:0:
168,336,29560,1,0,0:0:0:0:
184,328,29660,1,0,0:0:0:0:
320,264,29860,5,0,0:0:0:0:
304,264,29960,1,0,0:0:0:0:
288,264,30060,2,0,P|240:248|224:232,1,60
284,136,30360,1,0,0:0:0:0:
272,128,30460,2,0,L|208:128,1,60
148,224,30860,5,0,0:0:0:0:
148,232,30960,1,0,0:0:0:0:
152,240,31060,1,0,0:0:0:0:
160,248,31160,1,0,0:0:0:0:
168,256,31260,2,0,P|196:268|232:268,1,60
352,248,31560,1,0,0:0:0:0:
364,244,31660,2,0,P|404:232|440:192,1,90
440,192,32060,5,0,0:0:0:0:
296,56,32260,1,0,0:0:0:0:
160,192,32460,1,0,0:0:0:0:
308,164,32660,5,0,0:0:0:0:
312,176,32760,1,0,0:0:0:0:
312,188,32860,2,0,P|312:220|304:256,1,60
176,256,33160,1,0,0:0:0:0:
172,248,33260,2,0,P|160:216|160:188,1,60
260,80,33660,1,0,0:0:0:0:
360,192,33860,1,0,0:0:0:0:
244,196,34060,1,0,0:0:0:0:
336,308,34260,5,0,0:0:0:0:
176,300,34460,1,0,0:0:0:0:
160,288,34560,1,0,0:0:0:0:
144,272,34660,1,0,0:0:0:0:
128,256,34760,1,0,0:0:0:0:
112,240,34860,2,0,P|136:208|168:192,1,60
208,160,35160,2,0,P|184:128|152:112,1,60
112,80,35460,2,0,P|136:48|168:32,1,60
312,56,35860,5,0,0:0:0:0:
336,64,35960,1,0,0:0:0:0:
360,80,36060,1,0,0:0:0:0:
376,248,36260,1,0,0:0:0:0:
200,352,36460,2,0,P|152:344|136:328,1,60
112,128,36860,1,0,0:0:0:0:
208,264,37060,1,0,0:0:0:0:
392,312,37260,1,0,0:0:0:0:
328,184,37460,2,0,P|320:224|304:240,2,60
296,56,37960,5,0,0:0:0:0:
272,40,38060,2,0,P|232:32|192:40,1,60
192,160,38460,2,0,P|152:168|120:160,1,60
408,280,38860,6,0,B|408:176|408:176|384:208,1,120
256,336,39460,1,0,0:0:0:0:
336,168,39660,1,0,0:0:0:0:
168,216,39860,1,0,0:0:0:0:
256,48,40060,1,0,0:0:0:0:
440,168,40260,6,0,P|449:218|441:232,1,60
432,256,40560,1,0,0:0:0:0:
440,240,40660,1,0,0:0:0:0:
264,336,40860,1,0,0:0:0:0:
128,304,41060,1,0,0:0:0:0:
112,272,41160,1,0,0:0:0:0:
104,248,41260,2,0,P|112:208|128:184,1,60
256,192,41660,1,0,0:0:0:0:
256,320,41860,1,0,0:0:0:0:
248,96,42060,6,0,B|248:200|248:200|272:168,1,120
344,96,42660,1,0,0:0:0:0:
480,96,42860,1,0,0:0:0:0:
400,208,43060,1,0,0:0:0:0:
400,240,43160,1,0,0:0:0:0:
400,272,43260,1,0,0:0:0:0:
400,304,43360,1,0,0:0:0:0:
400,336,43460,2,0,B|328:264|328:264|352:264,1,120
480,256,44060,5,0,0:0:0:0:
352,264,44260,1,0,0:0:0:0:
232,256,44460,2,0,P|200:240|192:208,1,60
184,192,44760,1,0,0:0:0:0:
184,160,44860,1,0,0:0:0:0:
192,128,44960,1,0,0:0:0:0:
216,104,45060,1,0,0:0:0:0:
376,80,45260,6,0,B|432:96|464:128|464:128|432:128,1,120
445,128,45860,1,0,0:0:0:0:
376,80,46060,1,0,0:0:0:0:
256,64,46260,1,0,0:0:0:0:
224,64,46360,1,0,0:0:0:0:
200,80,46460,1,0,0:0:0:0:
184,112,46560,1,0,0:0:0:0:
176,144,46660,2,0,B|170:201|214:232|214:232|216:203,1,120
256,64,47260,5,0,0:0:0:0:
384,192,47460,1,0,0:0:0:0:
208,240,47660,1,0,0:0:0:0:
304,64,47860,1,0,0:0:0:0:
368,224,48060,1,0,0:0:0:0:
176,208,48260,1,0,0:0:0:0:
336,64,48460,6,0,B|432:64|432:64|400:80,1,120
256,160,49060,1,0,0:0:0:0:
144,64,49260,2,0,P|112:96|112:112,1,60
112,144,49560,1,0,0:0:0:0:
112,176,49660,1,0,0:0:0:0:
256,192,49860,1,0,0:0:0:0:
144,288,50660,5,0,0:0:0:0:
352,96,50860,1,0,0:0:0:0:
144,96,51060,1,0,0:0:0:0:
352,288,51260,1,0,0:0:0:0:
64,192,51660,5,0,0:0:0:0:
208,48,51860,2,0,P|226:95|232:152,2,90.0000034332277
240,240,52360,1,0,0:0:0:0:
256,256,52460,2,0,P|336:256|384:224,2,135.000005149841
128,128,53260,5,0,0:0:0:0:
160,128,53360,2,0,P|208:144|224:192,1,90.0000034332277
176,288,53760,1,0,0:0:0:0:
192,304,53860,1,0,0:0:0:0:
208,304,53960,2,0,B|304:304|304:304|336:256,1,135.000005149841
336,144,54360,1,0,0:0:0:0:
304,144,54460,2,0,L|256:144,2,45.0000017166138
368,272,54860,5,0,0:0:0:0:
336,288,54960,2,0,L|288:288,1,45.0000017166138
192,224,55160,1,0,0:0:0:0:
176,208,55260,2,0,P|128:208|96:176,1,90.0000034332277
96,160,55560,1,0,0:0:0:0:
96,128,55660,1,0,0:0:0:0:
96,96,55760,1,0,0:0:0:0:
208,32,55960,1,0,0:0:0:0:
288,192,56260,1,0,0:0:0:0:
176,304,56460,6,0,B|112:304|112:304|144:288,1,90.0000034332277
176,256,56760,2,0,B|208:240|208:240|144:240,1,90.0000034332277
48,176,57060,1,0,0:0:0:0:
48,144,57160,2,0,P|48:96|96:64,1,90.0000034332277
96,64,57460,1,0,0:0:0:0:
176,192,57660,1,0,0:0:0:0:
256,64,57860,1,0,0:0:0:0:
432,192,58060,6,0,P|432:236|402:268,1,90.0000034332277
432,192,58460,1,0,0:0:0:0:
272,112,58660,1,0,0:0:0:0:
288,256,58860,1,0,0:0:0:0:
384,96,59060,1,0,0:0:0:0:
160,80,59260,1,0,0:0:0:0:
192,128,59360,1,0,0:0:0:0:
224,176,59460,1,0,0:0:0:0:
