osu file format v14

[General]
AudioFilename: audio.mp3
AudioLeadIn: 0
PreviewTime: 150542
Countdown: 0
SampleSet: Normal
StackLeniency: 0.7
Mode: 1
LetterboxInBreaks: 0
WidescreenStoryboard: 0

[Editor]
DistanceSpacing: 2.2
BeatDivisor: 4
GridSize: 32
TimelineZoom: 3.599999

[Metadata]
Title:Why? Why?
TitleUnicode:ワイワイ!!
Artist:Bogdan Raczynski
ArtistUnicode:Bogdan Raczynski
Creator:Horiiizon
Version:Stay With Me
Source:
Tags:Samurai Math Beats drill and bass breakcore idm intelligent dance music drum and bass d&b dnb electronic instrumental
BeatmapID:4068078
BeatmapSetID:1962817

[Difficulty]
HPDrainRate:5
CircleSize:5
OverallDifficulty:7
ApproachRate:5
SliderMultiplier:1.4
SliderTickRate:1

[Events]
//Background and Video events
0,0,"math beat.jpg",0,-140
//Break Periods
//Storyboard Layer 0 (Background)
//Storyboard Layer 1 (Fail)
//Storyboard Layer 2 (Pass)
//Storyboard Layer 3 (Foreground)
//Storyboard Layer 4 (Overlay)
//Storyboard Sound Samples

[TimingPoints]
130,264.842198190245,4,1,0,60,1,0
8589,-100,4,1,0,70,0,0
17329,-100,4,1,0,80,0,0
29777,-100,4,1,0,50,0,0
55202,-100,4,1,0,80,0,0
76389,-100,4,1,0,90,0,0
89101,-100,4,1,0,70,0,0
106051,-100,4,1,0,60,0,0
131491,264.842198190245,529,1,0,0,1,8
131491,-10,4,1,0,0,0,0
135728,264.842198190245,4,1,0,64,1,0
135830,-100,4,1,0,65,0,0
135962,-100,4,1,0,66,0,0
136094,-100,4,1,0,67,0,0
136227,-100,4,1,0,68,0,0
136359,-100,4,1,0,69,0,0
136492,-100,4,1,0,70,0,0
136624,-100,4,1,0,71,0,0
136757,-100,4,1,0,72,0,0
136889,-100,4,1,0,73,0,0
137021,-100,4,1,0,74,0,0
137154,-100,4,1,0,75,0,0
137286,-100,4,1,0,76,0,0
137419,-100,4,1,0,77,0,0
137551,-100,4,1,0,78,0,0
137683,-100,4,1,0,79,0,0
137832,-100,4,1,0,80,0,0
148426,-100,4,1,0,64,0,0
148542,-100,4,1,0,65,0,0
148674,-100,4,1,0,66,0,0
148806,-100,4,1,0,67,0,0
148939,-100,4,1,0,68,0,0
149071,-100,4,1,0,69,0,0
149204,-100,4,1,0,70,0,0
149336,-100,4,1,0,71,0,0
149469,-100,4,1,0,72,0,0
149601,-100,4,1,0,73,0,0
149733,-100,4,1,0,74,0,0
149866,-100,4,1,0,75,0,0
149998,-100,4,1,0,76,0,0
150131,-100,4,1,0,77,0,0
150263,-100,4,1,0,78,0,0
150395,-100,4,1,0,79,0,0
150542,-100,4,1,0,90,0,0
153723,-100,4,1,0,70,0,0
154782,-100,4,1,0,90,0,0
163257,-100,4,1,0,80,0,0
167495,-100,4,1,0,70,0,0
175970,-100,4,1,0,80,0,0
184445,-100,4,1,0,90,0,0
187623,-100,4,1,0,100,0,0
188682,-100,4,1,0,90,0,0
190801,-100,4,1,0,70,0,0
191860,-100,4,1,0,50,0,0
192933,264.842198190245,863,1,0,0,1,8
192933,-10000,863,1,0,0,0,8
194652,-100,4,1,0,60,0,0
194667,264.842198190245,4,1,0,60,1,0
203126,-100,4,1,0,70,0,0
215839,-100,4,1,0,60,0,0
224314,-100,4,1,0,50,0,0
237571,-100,4,1,0,60,0,0
241279,-100,4,1,0,60,0,0
245898,-100,4,1,0,50,0,0
258214,-100,4,1,0,45,0,0
258623,-100.468199025863,4,1,0,45,0,0
259020,-100.940802881653,4,1,0,45,0,0
259153,-101.100126983373,4,1,0,45,0,0
259285,-101.258751233196,4,1,0,45,0,0
259550,-101.578708892757,4,1,0,45,0,0
259682,-101.73883965892,4,1,0,45,0,0
259815,-101.900694967764,4,1,0,45,0,0
260080,-102.224728808678,4,1,0,45,0,0
260345,-102.550830012881,4,1,0,45,0,0
260609,-102.877776033427,4,1,0,45,0,0
260874,-103.208063773594,4,1,0,45,0,0
261139,-103.540479113239,4,1,0,45,0,0
261404,-103.875042676681,4,1,0,45,0,0
261669,-104.211775355671,4,1,0,45,0,0
261934,-104.550698313738,4,1,0,45,0,0
262066,-104.720344191764,4,1,0,45,0,0
262198,-104.890541505578,4,1,0,45,0,0
262331,-105.062588641549,4,1,0,45,0,0
262451,-100,4,1,0,40,0,0
262463,-105.233901152521,4,1,0,40,0,0
262860,-105.752519986097,4,1,0,40,0,0
263257,-106.276275901645,4,1,0,40,0,0
263390,-106.452902806588,4,1,0,40,0,0
263522,-106.628783137657,4,1,0,40,0,0
263787,-106.983636614801,4,1,0,40,0,0
263919,-107.161276526158,4,1,0,40,0,0
264052,-107.340859835694,4,1,0,40,0,0
264317,-107.700476617909,4,1,0,40,0,0
264582,-108.062511099272,4,1,0,40,0,0
264846,-108.425607738323,4,1,0,40,0,0
265111,-108.792541983271,4,1,0,40,0,0
265376,-109.161968221425,4,1,0,40,0,0
265641,-109.533911925426,4,1,0,40,0,0
265906,-109.908398916269,4,1,0,40,0,0
266171,-110.28545536928,4,1,0,40,0,0
266303,-110.474239103653,4,1,0,40,0,0
266435,-110.663670256297,4,1,0,40,0,0
266568,-110.855194669998,4,1,0,40,0,0
266689,-100,4,1,0,35,0,0
266700,-111.045935658793,4,1,0,35,0,0
267098,-111.625042584973,4,1,0,35,0,0
267495,-112.208743298955,4,1,0,35,0,0
267628,-112.405657887792,4,1,0,35,0,0
267760,-112.60177646188,4,1,0,35,0,0
268025,-112.997572654561,4,1,0,35,0,0
268157,-113.195763961785,4,1,0,35,0,0
268290,-113.396161115992,4,1,0,35,0,0
268555,-113.797571499178,4,1,0,35,0,0
268820,-114.201833878492,4,1,0,35,0,0
269084,-114.607436904698,4,1,0,35,0,0
269349,-115.017484169738,4,1,0,35,0,0
269614,-115.430476138858,4,1,0,35,0,0
269879,-115.846444646912,4,1,0,35,0,0
270144,-116.2654219893,4,1,0,35,0,0
270409,-116.687440930322,4,1,0,35,0,0
270541,-116.898799313894,4,1,0,35,0,0
270673,-117.11092476252,4,1,0,35,0,0
270806,-117.325437267594,4,1,0,35,0,0
270926,-100,4,1,0,30,0,0
270938,-117.539115317752,4,1,0,30,0,0
271335,-118.186484649214,4,1,0,30,0,0
271732,-118.841024496401,4,1,0,30,0,0
271865,-119.061927855655,4,1,0,30,0,0
271997,-119.281983785827,4,1,0,30,0,0
272262,-119.726227618967,4,1,0,30,0,0
272394,-119.948748275182,4,1,0,30,0,0
272527,-120.173792831046,4,1,0,30,0,0
272792,-120.62471681015,4,1,0,30,0,0
273057,-121.079037507639,4,1,0,30,0,0
273321,-121.535059562023,4,1,0,30,0,0
273586,-121.996276671918,4,1,0,30,0,0
273851,-122.461007690649,4,1,0,30,0,0
274116,-122.929292929293,4,1,0,30,0,0
274381,-123.401173317882,4,1,0,30,0,0
274646,-123.876690417333,4,1,0,30,0,0
274778,-124.114921763455,4,1,0,30,0,0
274910,-124.354071176247,4,1,0,30,0,0
275043,-124.595966243985,4,1,0,30,0,0
275164,-100,4,1,0,25,0,0
275175,-124.836974839173,4,1,0,25,0,0
275573,-125.569329186504,4,1,0,25,0,0
275970,-126.308454170744,4,1,0,25,0,0
276103,-126.558019996137,4,1,0,25,0,0
276235,-126.806686414314,4,1,0,25,0,0
276500,-127.308864845478,4,1,0,25,0,0
276632,-127.560493531385,4,1,0,25,0,0
276765,-127.815036533585,4,1,0,25,0,0
277030,-128.325249299551,4,1,0,25,0,0
277295,-128.839551730918,4,1,0,25,0,0
277559,-129.356028971863,4,1,0,25,0,0
277824,-129.878643737041,4,1,0,25,0,0
278089,-130.405498492201,4,1,0,25,0,0
278354,-130.936645046264,4,1,0,25,0,0
278619,-131.472136055682,4,1,0,25,0,0
278884,-132.01202504184,4,1,0,25,0,0
279015,-132.280554649773,4,1,0,25,0,0
279148,-132.554303852617,4,1,0,25,0,0
279281,-132.829188430654,4,1,0,25,0,0
279401,-100,4,1,0,20,0,0
279413,-133.10313579051,4,1,0,20,0,0
279810,-133.933905606389,4,1,0,20,0,0
280207,-134.775111139237,4,1,0,20,0,0
280340,-135.059293550637,4,1,0,20,0,0
280472,-135.342526690391,4,1,0,20,0,0
280737,-135.914740184113,4,1,0,20,0,0
280869,-136.201576414536,4,1,0,20,0,0
281002,-136.491812734322,4,1,0,20,0,0
281267,-137.073806497289,4,1,0,20,0,0
281532,-137.660784693944,4,1,0,20,0,0
281796,-138.250567997403,4,1,0,20,0,0
282061,-138.847689674843,4,1,0,20,0,0
282326,-139.449991815354,4,1,0,20,0,0
282591,-140.057542129059,4,1,0,20,0,0
282856,-140.670409511229,4,1,0,20,0,0
283121,-141.288664068331,4,1,0,20,0,0
283253,-141.598656981866,4,1,0,20,0,0
283385,-141.910013159867,4,1,0,20,0,0
283518,-142.225116030585,4,1,0,20,0,0
283650,-142.539236355118,4,1,0,20,0,0
283771,-144.927536231884,4,1,0,15,0,0
283783,-142.857142857143,4,1,0,15,0,0
284713,-166.666666666667,4,1,0,15,0,0
285772,-200,4,1,0,15,0,0
286832,-250,4,1,0,15,0,0
287876,-333.333333333333,4,1,0,15,0,0

[HitObjects]
213,274,130,5,0,0:0:0:0:
160,264,394,1,8,0:0:0:0:
163,287,527,1,0,0:0:0:0:
144,255,792,1,8,0:0:0:0:
141,255,924,1,0,0:0:0:0:
126,261,1189,1,0,0:0:0:0:
126,262,1454,1,8,0:0:0:0:
108,260,1586,1,0,0:0:0:0:
151,198,1851,1,0,0:0:0:0:
141,223,1983,1,8,0:0:0:0:
213,274,2248,1,0,0:0:0:0:
160,264,2512,1,8,0:0:0:0:
163,287,2645,1,0,0:0:0:0:
144,255,2910,1,8,0:0:0:0:
141,255,3042,1,0,0:0:0:0:
126,261,3307,1,0,0:0:0:0:
126,262,3572,1,8,0:0:0:0:
108,260,3704,1,0,0:0:0:0:
151,198,3969,1,0,0:0:0:0:
141,223,4101,1,8,0:0:0:0:
161,189,4367,1,0,0:0:0:0:
147,220,4632,1,8,0:0:0:0:
156,213,4764,1,0,0:0:0:0:
149,212,5029,1,0,0:0:0:0:
147,210,5162,1,0,0:0:0:0:
144,216,5426,1,0,0:0:0:0:
147,220,5691,1,8,0:0:0:0:
153,193,5824,1,0,0:0:0:0:
150,197,6088,1,0,0:0:0:0:
146,196,6221,1,8,0:0:0:0:
161,189,6486,1,0,0:0:0:0:
161,189,6751,1,8,0:0:0:0:
156,213,6883,1,0,0:0:0:0:
149,212,7148,1,0,0:0:0:0:
147,210,7281,1,0,0:0:0:0:
144,216,7545,1,0,0:0:0:0:
135,209,7810,1,8,0:0:0:0:
153,193,7943,1,0,0:0:0:0:
159,189,8207,1,0,0:0:0:0:
146,196,8340,1,8,0:0:0:0:
152,225,8604,1,0,0:0:0:0:
180,281,8671,1,0,0:0:0:0:
152,226,8737,1,0,0:0:0:0:
150,228,8869,1,8,0:0:0:0:
152,225,9002,1,0,0:0:0:0:
142,223,9267,1,0,0:0:0:0:
142,223,9399,1,8,0:0:0:0:
146,197,9531,1,8,0:0:0:0:
142,202,9664,1,0,0:0:0:0:
151,193,9730,1,0,0:0:0:0:
146,197,9796,1,0,0:0:0:0:
154,210,9929,1,8,0:0:0:0:
146,197,10061,1,0,0:0:0:0:
166,213,10326,1,0,0:0:0:0:
152,232,10458,1,8,0:0:0:0:
150,209,10723,1,0,0:0:0:0:
127,189,10789,1,0,0:0:0:0:
151,245,10856,1,0,0:0:0:0:
152,249,10988,1,8,0:0:0:0:
162,247,11120,1,0,0:0:0:0:
156,214,11385,1,8,0:0:0:0:
146,222,11518,1,0,0:0:0:0:
168,273,11650,1,8,0:0:0:0:
150,209,11783,1,8,0:0:0:0:
155,247,11849,1,0,0:0:0:0:
152,249,11915,1,0,0:0:0:0:
172,217,12047,1,8,0:0:0:0:
155,247,12180,1,0,0:0:0:0:
136,191,12445,1,0,0:0:0:0:
136,191,12577,1,8,0:0:0:0:
152,225,12842,1,0,0:0:0:0:
180,281,12909,1,0,0:0:0:0:
152,226,12975,1,0,0:0:0:0:
150,228,13107,1,8,0:0:0:0:
152,225,13240,1,0,0:0:0:0:
142,223,13505,1,0,0:0:0:0:
142,223,13637,1,8,0:0:0:0:
146,197,13769,1,8,0:0:0:0:
142,202,13902,1,0,0:0:0:0:
151,193,13968,1,0,0:0:0:0:
146,197,14034,1,0,0:0:0:0:
154,210,14167,1,8,0:0:0:0:
146,197,14299,1,0,0:0:0:0:
166,213,14564,1,0,0:0:0:0:
152,232,14696,1,8,0:0:0:0:
150,209,14961,1,0,0:0:0:0:
127,189,15027,1,0,0:0:0:0:
151,245,15094,1,0,0:0:0:0:
152,249,15226,1,8,0:0:0:0:
162,247,15358,1,0,0:0:0:0:
156,214,15623,1,8,0:0:0:0:
145,242,15755,1,0,0:0:0:0:
151,245,15888,1,8,0:0:0:0:
150,209,16021,1,8,0:0:0:0:
155,247,16087,1,0,0:0:0:0:
152,249,16153,1,0,0:0:0:0:
172,217,16285,1,8,0:0:0:0:
155,247,16418,1,0,0:0:0:0:
136,191,16683,1,0,0:0:0:0:
136,191,16815,1,8,0:0:0:0:
144,242,17079,1,0,0:0:0:0:
145,249,17146,1,0,0:0:0:0:
143,243,17212,1,0,0:0:0:0:
134,241,17344,1,8,0:0:0:0:
153,223,17477,1,0,0:0:0:0:
138,230,17609,1,8,0:0:0:0:
136,207,17742,1,8,0:0:0:0:
136,207,17874,1,0,0:0:0:0:
136,207,18139,1,8,0:0:0:0:
158,200,18205,1,8,0:0:0:0:
154,198,18271,1,0,0:0:0:0:
155,186,18404,1,8,0:0:0:0:
155,204,18536,1,0,0:0:0:0:
155,204,18668,1,8,0:0:0:0:
136,177,18801,1,0,0:0:0:0:
136,176,18933,1,0,0:0:0:0:
151,216,19198,1,8,0:0:0:0:
135,215,19264,1,0,0:0:0:0:
131,217,19331,1,0,0:0:0:0:
123,209,19463,1,8,0:0:0:0:
122,212,19595,1,0,0:0:0:0:
160,236,19728,1,0,0:0:0:0:
157,208,19860,1,8,0:0:0:0:
151,204,19993,1,0,0:0:0:0:
143,207,20059,1,0,0:0:0:0:
141,207,20125,1,8,0:0:0:0:
146,239,20258,1,0,0:0:0:0:
153,246,20324,1,0,0:0:0:0:
142,238,20390,1,0,0:0:0:0:
141,265,20522,1,8,0:0:0:0:
134,196,20655,1,0,0:0:0:0:
139,209,20787,1,8,0:0:0:0:
135,205,20920,1,8,0:0:0:0:
135,226,21052,1,0,0:0:0:0:
134,196,21184,1,0,0:0:0:0:
140,230,21317,1,8,0:0:0:0:
142,238,21383,1,8,0:0:0:0:
146,235,21449,1,0,0:0:0:0:
129,231,21582,1,8,0:0:0:0:
153,223,21715,1,0,0:0:0:0:
138,230,21847,1,8,0:0:0:0:
136,207,21980,1,8,0:0:0:0:
136,207,22112,1,0,0:0:0:0:
136,207,22377,1,8,0:0:0:0:
158,200,22443,1,8,0:0:0:0:
154,198,22509,1,0,0:0:0:0:
155,186,22642,1,8,0:0:0:0:
155,204,22774,1,0,0:0:0:0:
155,204,22906,1,8,0:0:0:0:
136,177,23039,1,0,0:0:0:0:
136,176,23171,1,0,0:0:0:0:
151,216,23436,1,8,0:0:0:0:
135,215,23502,1,0,0:0:0:0:
131,217,23569,1,0,0:0:0:0:
123,209,23701,1,8,0:0:0:0:
122,212,23833,1,0,0:0:0:0:
160,236,23966,1,0,0:0:0:0:
157,208,24098,1,8,0:0:0:0:
151,204,24231,1,0,0:0:0:0:
143,207,24297,1,0,0:0:0:0:
141,207,24363,1,8,0:0:0:0:
146,239,24496,1,0,0:0:0:0:
153,246,24562,1,0,0:0:0:0:
142,238,24628,1,0,0:0:0:0:
141,265,24760,1,8,0:0:0:0:
134,196,24893,1,0,0:0:0:0:
139,209,25025,1,8,0:0:0:0:
135,205,25158,1,8,0:0:0:0:
135,226,25290,1,0,0:0:0:0:
134,196,25422,1,0,0:0:0:0:
140,230,25554,1,8,0:0:0:0:
142,238,25620,1,8,0:0:0:0:
146,235,25686,1,0,0:0:0:0:
129,231,25819,1,8,0:0:0:0:
153,223,25952,1,0,0:0:0:0:
138,230,26084,1,8,0:0:0:0:
136,207,26217,1,8,0:0:0:0:
136,207,26349,1,0,0:0:0:0:
136,207,26614,1,8,0:0:0:0:
158,200,26680,1,8,0:0:0:0:
154,198,26746,1,0,0:0:0:0:
155,186,26879,1,8,0:0:0:0:
155,204,27011,1,0,0:0:0:0:
155,204,27143,1,8,0:0:0:0:
136,177,27276,1,0,0:0:0:0:
136,176,27408,1,0,0:0:0:0:
151,216,27673,1,8,0:0:0:0:
135,215,27739,1,0,0:0:0:0:
131,217,27806,1,0,0:0:0:0:
123,209,27938,1,8,0:0:0:0:
122,212,28070,1,0,0:0:0:0:
160,236,28203,1,0,0:0:0:0:
157,208,28335,1,8,0:0:0:0:
151,204,28468,1,0,0:0:0:0:
143,207,28534,1,0,0:0:0:0:
141,207,28600,1,8,0:0:0:0:
146,239,28733,1,0,0:0:0:0:
153,246,28799,1,0,0:0:0:0:
142,238,28865,1,0,0:0:0:0:
141,265,28997,1,8,0:0:0:0:
134,196,29130,1,0,0:0:0:0:
139,209,29262,1,8,0:0:0:0:
135,205,29395,1,8,0:0:0:0:
135,226,29527,1,0,0:0:0:0:
134,196,29659,1,0,0:0:0:0:
162,177,29792,1,8,0:0:0:0:
161,236,30189,1,0,0:0:0:0:
149,267,30586,1,8,0:0:0:0:
151,167,30719,1,0,0:0:0:0:
159,207,31116,1,8,0:0:0:0:
149,212,31248,1,8,0:0:0:0:
141,185,31381,1,0,0:0:0:0:
146,209,31646,1,0,0:0:0:0:
146,237,31911,1,8,0:0:0:0:
136,214,32175,1,8,0:0:0:0:
138,234,32440,1,0,0:0:0:0:
133,216,32705,1,0,0:0:0:0:
147,200,32970,1,8,0:0:0:0:
149,216,33235,1,0,0:0:0:0:
148,230,33500,1,8,0:0:0:0:
150,148,33632,1,0,0:0:0:0:
143,172,33764,1,8,0:0:0:0:
143,172,33897,1,0,0:0:0:0:
151,209,34029,1,8,0:0:0:0:
161,236,34427,1,0,0:0:0:0:
149,267,34824,1,8,0:0:0:0:
151,167,34957,1,0,0:0:0:0:
159,207,35354,1,8,0:0:0:0:
149,212,35486,1,8,0:0:0:0:
141,185,35619,1,0,0:0:0:0:
146,209,35884,1,0,0:0:0:0:
146,237,36149,1,8,0:0:0:0:
136,214,36413,1,8,0:0:0:0:
138,234,36678,1,0,0:0:0:0:
133,216,36943,1,0,0:0:0:0:
147,200,37208,1,8,0:0:0:0:
149,216,37473,1,0,0:0:0:0:
148,230,37738,1,8,0:0:0:0:
138,219,37870,1,8,0:0:0:0:
130,245,38002,1,0,0:0:0:0:
143,172,38135,1,0,0:0:0:0:
151,209,38267,1,8,0:0:0:0:
161,236,38664,1,0,0:0:0:0:
149,267,39061,1,8,0:0:0:0:
144,183,39194,1,8,0:0:0:0:
156,196,39591,1,0,0:0:0:0:
149,212,39723,1,8,0:0:0:0:
141,185,39856,1,0,0:0:0:0:
146,209,40121,1,0,0:0:0:0:
146,237,40386,1,8,0:0:0:0:
136,214,40650,1,8,0:0:0:0:
138,234,40915,1,0,0:0:0:0:
148,180,41180,1,8,0:0:0:0:
154,190,41445,1,0,0:0:0:0:
149,216,41710,1,0,0:0:0:0:
164,204,41975,1,0,0:0:0:0:
157,210,42107,1,0,0:0:0:0:
143,172,42239,1,8,0:0:0:0:
155,195,42372,1,0,0:0:0:0:
151,209,42504,1,8,0:0:0:0:
161,236,42902,1,0,0:0:0:0:
149,267,43299,1,8,0:0:0:0:
144,183,43432,1,8,0:0:0:0:
156,196,43829,1,0,0:0:0:0:
149,212,43961,1,8,0:0:0:0:
141,185,44094,1,0,0:0:0:0:
146,209,44359,1,0,0:0:0:0:
146,237,44624,1,8,0:0:0:0:
136,214,44888,1,8,0:0:0:0:
138,234,45153,1,0,0:0:0:0:
148,180,45418,1,8,0:0:0:0:
154,190,45683,1,0,0:0:0:0:
149,216,45948,1,0,0:0:0:0:
164,204,46213,1,0,0:0:0:0:
157,188,46344,1,8,0:0:0:0:
143,192,46477,1,0,0:0:0:0:
155,195,46610,1,0,0:0:0:0:
151,209,46742,1,8,0:0:0:0:
161,236,47139,1,0,0:0:0:0:
149,267,47536,1,8,0:0:0:0:
151,167,47669,1,0,0:0:0:0:
159,207,48066,1,8,0:0:0:0:
149,212,48198,1,8,0:0:0:0:
141,185,48331,1,0,0:0:0:0:
146,209,48596,1,0,0:0:0:0:
146,237,48861,1,8,0:0:0:0:
136,214,49125,1,8,0:0:0:0:
138,234,49390,1,0,0:0:0:0:
133,216,49655,1,0,0:0:0:0:
147,200,49920,1,8,0:0:0:0:
149,216,50185,1,0,0:0:0:0:
148,230,50450,1,8,0:0:0:0:
150,148,50582,1,0,0:0:0:0:
143,172,50714,1,8,0:0:0:0:
143,172,50847,1,0,0:0:0:0:
151,209,50979,1,8,0:0:0:0:
161,236,51377,1,0,0:0:0:0:
149,267,51774,1,8,0:0:0:0:
151,167,51907,1,0,0:0:0:0:
159,207,52304,1,8,0:0:0:0:
149,212,52436,1,8,0:0:0:0:
141,185,52569,1,0,0:0:0:0:
146,209,52834,1,0,0:0:0:0:
146,237,53099,1,8,0:0:0:0:
136,214,53363,1,8,0:0:0:0:
138,234,53628,1,0,0:0:0:0:
133,216,53893,1,0,0:0:0:0:
147,200,54158,1,8,0:0:0:0:
148,230,54688,1,8,0:0:0:0:
138,219,54820,1,8,0:0:0:0:
130,245,54952,1,0,0:0:0:0:
143,172,55085,1,0,0:0:0:0:
145,210,55217,1,8,0:0:0:0:
156,217,55283,1,8,0:0:0:0:
149,216,55349,1,0,0:0:0:0:
168,194,55482,1,8,0:0:0:0:
166,195,55614,1,0,0:0:0:0:
161,188,55879,1,0,0:0:0:0:
160,189,56011,1,8,0:0:0:0:
142,195,56144,1,8,0:0:0:0:
152,182,56276,1,0,0:0:0:0:
156,199,56342,1,0,0:0:0:0:
149,180,56408,1,0,0:0:0:0:
141,196,56541,1,8,0:0:0:0:
139,193,56673,1,0,0:0:0:0:
163,174,56938,1,0,0:0:0:0:
151,200,57071,1,0,0:0:0:0:
144,212,57335,1,8,0:0:0:0:
134,204,57402,1,0,0:0:0:0:
134,204,57468,1,0,0:0:0:0:
140,249,57600,1,8,0:0:0:0:
179,237,57733,1,0,0:0:0:0:
149,210,57865,1,8,0:0:0:0:
149,211,57998,1,8,0:0:0:0:
146,206,58130,1,0,0:0:0:0:
171,177,58395,1,0,0:0:0:0:
147,237,58461,1,8,0:0:0:0:
147,237,58527,1,8,0:0:0:0:
140,249,58660,1,0,0:0:0:0:
139,248,58792,1,0,0:0:0:0:
134,203,58924,1,8,0:0:0:0:
140,201,59057,1,0,0:0:0:0:
144,218,59189,1,8,0:0:0:0:
129,226,59322,1,0,0:0:0:0:
145,210,59454,1,8,0:0:0:0:
156,217,59520,1,8,0:0:0:0:
149,216,59586,1,0,0:0:0:0:
168,194,59719,1,8,0:0:0:0:
166,195,59851,1,0,0:0:0:0:
161,188,60116,1,0,0:0:0:0:
160,189,60248,1,8,0:0:0:0:
142,195,60381,1,8,0:0:0:0:
152,182,60513,1,0,0:0:0:0:
156,199,60579,1,0,0:0:0:0:
149,180,60645,1,0,0:0:0:0:
141,196,60778,1,8,0:0:0:0:
139,193,60910,1,0,0:0:0:0:
163,174,61175,1,0,0:0:0:0:
151,200,61308,1,0,0:0:0:0:
144,212,61572,1,8,0:0:0:0:
134,204,61639,1,0,0:0:0:0:
134,204,61705,1,0,0:0:0:0:
140,249,61837,1,8,0:0:0:0:
179,237,61970,1,0,0:0:0:0:
149,210,62102,1,8,0:0:0:0:
149,211,62235,1,8,0:0:0:0:
146,206,62367,1,0,0:0:0:0:
171,177,62632,1,0,0:0:0:0:
147,237,62698,1,8,0:0:0:0:
147,237,62764,1,8,0:0:0:0:
140,249,62897,1,0,0:0:0:0:
139,248,63029,1,0,0:0:0:0:
134,203,63161,1,8,0:0:0:0:
163,203,63294,1,8,0:0:0:0:
157,236,63427,1,0,0:0:0:0:
129,226,63559,1,0,0:0:0:0:
145,210,63692,1,8,0:0:0:0:
156,217,63758,1,8,0:0:0:0:
149,216,63824,1,0,0:0:0:0:
168,194,63957,1,8,0:0:0:0:
166,195,64089,1,0,0:0:0:0:
161,188,64354,1,0,0:0:0:0:
160,189,64486,1,8,0:0:0:0:
142,195,64619,1,8,0:0:0:0:
152,182,64751,1,0,0:0:0:0:
156,199,64817,1,0,0:0:0:0:
149,180,64883,1,0,0:0:0:0:
141,196,65016,1,8,0:0:0:0:
139,193,65148,1,0,0:0:0:0:
163,174,65413,1,0,0:0:0:0:
151,200,65546,1,0,0:0:0:0:
144,212,65810,1,8,0:0:0:0:
134,204,65877,1,0,0:0:0:0:
134,204,65943,1,0,0:0:0:0:
140,249,66075,1,8,0:0:0:0:
179,237,66208,1,0,0:0:0:0:
149,210,66340,1,8,0:0:0:0:
149,211,66473,1,8,0:0:0:0:
146,206,66605,1,0,0:0:0:0:
171,177,66870,1,0,0:0:0:0:
147,237,66936,1,8,0:0:0:0:
149,210,67002,1,0,0:0:0:0:
150,214,67135,1,8,0:0:0:0:
163,235,67267,1,8,0:0:0:0:
161,267,67399,1,0,0:0:0:0:
140,201,67532,1,0,0:0:0:0:
144,218,67664,1,8,0:0:0:0:
129,226,67797,1,0,0:0:0:0:
145,210,67929,1,8,0:0:0:0:
156,217,67995,1,8,0:0:0:0:
149,216,68061,1,0,0:0:0:0:
168,194,68194,1,8,0:0:0:0:
166,195,68326,1,0,0:0:0:0:
161,188,68591,1,0,0:0:0:0:
160,189,68723,1,8,0:0:0:0:
142,195,68856,1,8,0:0:0:0:
152,182,68988,1,0,0:0:0:0:
156,199,69054,1,0,0:0:0:0:
149,180,69120,1,0,0:0:0:0:
141,196,69253,1,8,0:0:0:0:
139,193,69385,1,0,0:0:0:0:
163,174,69650,1,0,0:0:0:0:
151,200,69783,1,0,0:0:0:0:
144,212,70047,1,8,0:0:0:0:
134,204,70114,1,0,0:0:0:0:
134,204,70180,1,0,0:0:0:0:
140,249,70312,1,8,0:0:0:0:
179,237,70445,1,0,0:0:0:0:
149,210,70577,1,8,0:0:0:0:
149,211,70710,1,8,0:0:0:0:
146,206,70842,1,0,0:0:0:0:
171,177,71107,1,0,0:0:0:0:
147,237,71173,1,8,0:0:0:0:
170,212,71240,1,0,0:0:0:0:
172,224,71372,1,8,0:0:0:0:
159,247,71504,1,8,0:0:0:0:
144,225,71637,1,0,0:0:0:0:
124,248,71769,1,8,0:0:0:0:
160,199,71902,1,0,0:0:0:0:
129,226,72034,1,0,0:0:0:0:
157,277,72167,1,8,0:0:0:0:
157,277,72233,1,8,0:0:0:0:
157,277,72299,1,0,0:0:0:0:
157,277,72365,1,0,0:0:0:0:
155,272,72431,1,8,0:0:0:0:
143,234,72564,1,0,0:0:0:0:
126,206,72696,1,0,0:0:0:0:
178,250,72829,1,0,0:0:0:0:
178,243,72961,1,8,0:0:0:0:
132,219,73226,1,0,0:0:0:0:
136,227,73292,1,0,0:0:0:0:
135,180,73358,1,0,0:0:0:0:
135,180,73425,1,0,0:0:0:0:
142,181,73491,1,8,0:0:0:0:
144,248,73623,1,0,0:0:0:0:
135,190,73756,1,8,0:0:0:0:
133,203,73888,1,0,0:0:0:0:
146,202,74020,1,8,0:0:0:0:
124,237,74285,1,8,0:0:0:0:
124,237,74418,1,0,0:0:0:0:
127,264,74550,1,8,0:0:0:0:
126,263,74616,1,8,0:0:0:0:
126,263,74683,1,0,0:0:0:0:
131,263,74815,1,8,0:0:0:0:
150,244,74947,1,0,0:0:0:0:
147,238,75014,1,0,0:0:0:0:
149,274,75080,1,8,0:0:0:0:
132,259,75212,1,0,0:0:0:0:
136,257,75345,1,8,0:0:0:0:
134,182,75477,1,0,0:0:0:0:
136,234,75543,1,8,0:0:0:0:
140,228,75610,1,8,0:0:0:0:
127,236,75676,1,0,0:0:0:0:
127,219,75742,1,0,0:0:0:0:
146,197,75874,1,8,0:0:0:0:
143,198,76007,1,0,0:0:0:0:
136,197,76139,1,8,0:0:0:0:
134,196,76272,1,0,0:0:0:0:
156,235,76404,1,8,0:0:0:0:
151,220,76470,1,8,0:0:0:0:
156,236,76536,1,0,0:0:0:0:
148,212,76669,1,8,0:0:0:0:
148,212,76801,1,0,0:0:0:0:
156,196,76934,1,8,0:0:0:0:
172,217,77000,1,8,0:0:0:0:
157,197,77066,1,8,0:0:0:0:
146,249,77199,1,0,0:0:0:0:
146,249,77331,1,8,0:0:0:0:
141,216,77463,1,0,0:0:0:0:
148,214,77530,1,0,0:0:0:0:
147,218,77596,1,0,0:0:0:0:
152,203,77728,1,8,0:0:0:0:
152,204,77861,1,0,0:0:0:0:
141,213,77993,1,8,0:0:0:0:
150,196,78059,1,0,0:0:0:0:
146,228,78126,1,8,0:0:0:0:
118,177,78258,1,8,0:0:0:0:
148,214,78523,1,0,0:0:0:0:
147,237,78589,1,8,0:0:0:0:
147,237,78655,1,0,0:0:0:0:
144,173,78788,1,8,0:0:0:0:
143,174,78920,1,0,0:0:0:0:
145,219,79052,1,8,0:0:0:0:
146,228,79119,1,8,0:0:0:0:
141,221,79185,1,8,0:0:0:0:
144,173,79317,1,0,0:0:0:0:
144,167,79450,1,8,0:0:0:0:
140,166,79582,1,0,0:0:0:0:
139,166,79648,1,0,0:0:0:0:
138,213,79715,1,8,0:0:0:0:
136,235,79847,1,0,0:0:0:0:
152,249,79979,1,0,0:0:0:0:
146,228,80112,1,8,0:0:0:0:
149,211,80178,1,0,0:0:0:0:
150,170,80244,1,0,0:0:0:0:
136,174,80377,1,8,0:0:0:0:
118,177,80509,1,0,0:0:0:0:
161,192,80642,1,8,0:0:0:0:
157,191,80708,1,8,0:0:0:0:
153,192,80774,1,8,0:0:0:0:
161,219,80906,1,0,0:0:0:0:
138,192,80973,1,8,0:0:0:0:
158,230,81039,1,0,0:0:0:0:
158,199,81171,1,8,0:0:0:0:
153,198,81237,1,8,0:0:0:0:
156,198,81304,1,0,0:0:0:0:
168,182,81436,1,8,0:0:0:0:
148,213,81568,1,8,0:0:0:0:
148,213,81701,1,0,0:0:0:0:
161,228,81767,1,0,0:0:0:0:
153,256,81833,1,0,0:0:0:0:
155,188,81966,1,8,0:0:0:0:
136,213,82032,1,8,0:0:0:0:
144,201,82098,1,0,0:0:0:0:
141,212,82231,1,0,0:0:0:0:
141,212,82297,1,0,0:0:0:0:
144,193,82363,1,8,0:0:0:0:
135,183,82495,1,0,0:0:0:0:
163,207,82760,1,0,0:0:0:0:
153,256,82826,1,8,0:0:0:0:
153,256,82893,1,0,0:0:0:0:
166,202,83025,1,8,0:0:0:0:
138,192,83091,1,8,0:0:0:0:
158,230,83157,1,0,0:0:0:0:
141,235,83290,1,8,0:0:0:0:
141,235,83356,1,0,0:0:0:0:
156,198,83422,1,0,0:0:0:0:
168,182,83554,1,8,0:0:0:0:
148,213,83686,1,8,0:0:0:0:
148,213,83819,1,0,0:0:0:0:
161,228,83885,1,0,0:0:0:0:
153,256,83951,1,0,0:0:0:0:
155,188,84084,1,8,0:0:0:0:
168,205,84151,1,0,0:0:0:0:
141,235,84217,1,8,0:0:0:0:
139,241,84349,1,0,0:0:0:0:
137,185,84482,1,0,0:0:0:0:
147,161,84614,1,8,0:0:0:0:
153,256,84747,1,0,0:0:0:0:
161,192,84879,1,8,0:0:0:0:
157,191,84945,1,8,0:0:0:0:
153,192,85011,1,8,0:0:0:0:
161,219,85143,1,0,0:0:0:0:
138,192,85210,1,8,0:0:0:0:
158,230,85276,1,0,0:0:0:0:
158,199,85408,1,8,0:0:0:0:
153,198,85474,1,8,0:0:0:0:
156,198,85541,1,0,0:0:0:0:
168,182,85673,1,8,0:0:0:0:
148,213,85805,1,8,0:0:0:0:
148,213,85938,1,0,0:0:0:0:
140,258,86005,1,0,0:0:0:0:
153,256,86070,1,0,0:0:0:0:
135,226,86203,1,8,0:0:0:0:
137,243,86269,1,8,0:0:0:0:
144,201,86335,1,0,0:0:0:0:
148,224,86468,1,0,0:0:0:0:
148,213,86534,1,0,0:0:0:0:
144,193,86600,1,8,0:0:0:0:
135,183,86732,1,0,0:0:0:0:
163,207,86997,1,0,0:0:0:0:
153,256,87063,1,8,0:0:0:0:
153,256,87130,1,0,0:0:0:0:
166,202,87262,1,8,0:0:0:0:
138,192,87328,1,8,0:0:0:0:
158,230,87394,1,0,0:0:0:0:
141,235,87527,1,8,0:0:0:0:
141,235,87593,1,0,0:0:0:0:
156,198,87659,1,0,0:0:0:0:
168,182,87791,1,8,0:0:0:0:
148,213,87925,1,8,0:0:0:0:
148,213,88056,1,0,0:0:0:0:
161,228,88122,1,0,0:0:0:0:
153,256,88190,1,0,0:0:0:0:
155,188,88321,1,8,0:0:0:0:
138,178,88388,1,0,0:0:0:0:
141,235,88454,1,8,0:0:0:0:
139,241,88586,1,0,0:0:0:0:
144,239,88719,1,8,0:0:0:0:
147,200,88852,1,0,0:0:0:0:
153,256,88984,1,0,0:0:0:0:
153,256,89116,1,8,0:0:0:0:
161,205,89381,1,8,0:0:0:0:
141,172,89514,1,0,0:0:0:0:
147,200,89646,1,8,0:0:0:0:
147,200,89779,1,0,0:0:0:0:
164,212,89911,1,8,0:0:0:0:
154,232,90043,1,8,0:0:0:0:
136,236,90176,1,0,0:0:0:0:
146,191,90441,1,8,0:0:0:0:
143,190,90573,1,0,0:0:0:0:
152,217,90838,1,0,0:0:0:0:
152,217,90970,1,8,0:0:0:0:
152,217,91235,1,0,0:0:0:0:
148,232,91500,1,8,0:0:0:0:
146,231,91765,1,8,0:0:0:0:
159,217,92030,1,8,0:0:0:0:
126,219,92295,1,0,0:0:0:0:
138,207,92427,1,8,0:0:0:0:
137,210,92559,1,8,0:0:0:0:
137,230,92692,1,8,0:0:0:0:
137,231,92824,1,0,0:0:0:0:
129,207,92957,1,0,0:0:0:0:
131,222,93089,1,8,0:0:0:0:
172,243,93354,1,0,0:0:0:0:
160,167,93619,1,8,0:0:0:0:
160,167,93751,1,0,0:0:0:0:
150,186,93884,1,8,0:0:0:0:
150,213,94016,1,8,0:0:0:0:
150,213,94148,1,0,0:0:0:0:
136,173,94281,1,8,0:0:0:0:
153,220,94413,1,0,0:0:0:0:
143,207,94678,1,8,0:0:0:0:
143,207,94811,1,0,0:0:0:0:
145,221,95075,1,0,0:0:0:0:
143,219,95208,1,8,0:0:0:0:
142,221,95473,1,0,0:0:0:0:
143,207,95738,1,8,0:0:0:0:
143,202,96002,1,8,0:0:0:0:
143,202,96267,1,8,0:0:0:0:
156,225,96532,1,0,0:0:0:0:
161,224,96664,1,0,0:0:0:0:
147,239,96797,1,8,0:0:0:0:
147,239,96929,1,8,0:0:0:0:
133,218,97062,1,0,0:0:0:0:
134,189,97194,1,8,0:0:0:0:
134,189,97327,1,0,0:0:0:0:
164,207,97591,1,8,0:0:0:0:
161,205,97856,1,8,0:0:0:0:
141,172,97989,1,0,0:0:0:0:
147,200,98121,1,8,0:0:0:0:
147,200,98254,1,0,0:0:0:0:
164,212,98386,1,8,0:0:0:0:
154,232,98518,1,8,0:0:0:0:
136,236,98651,1,0,0:0:0:0:
146,191,98916,1,8,0:0:0:0:
143,190,99048,1,0,0:0:0:0:
152,217,99313,1,0,0:0:0:0:
152,217,99445,1,8,0:0:0:0:
152,217,99710,1,0,0:0:0:0:
148,232,99975,1,8,0:0:0:0:
146,231,100240,1,8,0:0:0:0:
159,217,100505,1,8,0:0:0:0:
126,219,100770,1,0,0:0:0:0:
138,207,100902,1,8,0:0:0:0:
137,210,101034,1,8,0:0:0:0:
137,230,101167,1,8,0:0:0:0:
137,231,101299,1,0,0:0:0:0:
129,207,101432,1,0,0:0:0:0:
131,222,101564,1,8,0:0:0:0:
152,186,101829,1,8,0:0:0:0:
160,167,102094,1,8,0:0:0:0:
160,167,102226,1,0,0:0:0:0:
150,186,102359,1,8,0:0:0:0:
150,213,102491,1,8,0:0:0:0:
150,213,102623,1,0,0:0:0:0:
136,173,102756,1,8,0:0:0:0:
153,220,102888,1,0,0:0:0:0:
143,207,103153,1,8,0:0:0:0:
143,207,103286,1,0,0:0:0:0:
145,221,103550,1,0,0:0:0:0:
143,219,103683,1,8,0:0:0:0:
142,221,103948,1,0,0:0:0:0:
143,207,104213,1,8,0:0:0:0:
143,202,104477,1,8,0:0:0:0:
143,202,104742,1,8,0:0:0:0:
156,225,105007,1,0,0:0:0:0:
161,224,105139,1,0,0:0:0:0:
147,239,105272,1,8,0:0:0:0:
147,239,105404,1,8,0:0:0:0:
133,218,105537,1,0,0:0:0:0:
134,189,105669,1,8,0:0:0:0:
134,189,105802,1,0,0:0:0:0:
164,206,106066,1,8,0:0:0:0:
142,216,106331,1,8,0:0:0:0:
142,216,106464,1,0,0:0:0:0:
162,222,106596,1,8,0:0:0:0:
141,229,106728,1,8,0:0:0:0:
163,224,106861,1,0,0:0:0:0:
162,222,107391,1,0,0:0:0:0:
163,224,107655,1,8,0:0:0:0:
152,233,108185,1,0,0:0:0:0:
151,233,108450,1,0,0:0:0:0:
152,233,108715,1,8,0:0:0:0:
152,233,108980,1,0,0:0:0:0:
149,202,109244,1,8,0:0:0:0:
166,235,109509,1,0,0:0:0:0:
166,235,109774,1,8,0:0:0:0:
159,255,110039,1,8,0:0:0:0:
126,222,110304,1,8,0:0:0:0:
162,157,110569,1,0,0:0:0:0:
163,163,110701,1,0,0:0:0:0:
145,217,110834,1,8,0:0:0:0:
156,176,110966,1,8,0:0:0:0:
154,177,111098,1,0,0:0:0:0:
157,197,111628,1,0,0:0:0:0:
158,196,111893,1,8,0:0:0:0:
165,215,112423,1,0,0:0:0:0:
152,184,112687,1,0,0:0:0:0:
166,221,112952,1,8,0:0:0:0:
165,215,113217,1,8,0:0:0:0:
152,184,113482,1,8,0:0:0:0:
159,218,113747,1,0,0:0:0:0:
159,216,114012,1,8,0:0:0:0:
166,209,114276,1,8,0:0:0:0:
138,267,114541,1,0,0:0:0:0:
165,203,114806,1,8,0:0:0:0:
166,203,114939,1,8,0:0:0:0:
157,240,115071,1,8,0:0:0:0:
149,212,115203,1,8,0:0:0:0:
150,243,115336,1,0,0:0:0:0:
151,254,115866,1,0,0:0:0:0:
148,259,116130,1,8,0:0:0:0:
152,233,116660,1,0,0:0:0:0:
152,190,116925,1,8,0:0:0:0:
152,233,117190,1,8,0:0:0:0:
152,233,117455,1,0,0:0:0:0:
149,202,117719,1,8,0:0:0:0:
166,235,117984,1,0,0:0:0:0:
146,257,118249,1,0,0:0:0:0:
152,247,118514,1,0,0:0:0:0:
160,207,118779,1,8,0:0:0:0:
155,174,119044,1,0,0:0:0:0:
156,197,119176,1,0,0:0:0:0:
155,174,119308,1,0,0:0:0:0:
156,176,119441,1,8,0:0:0:0:
151,190,119573,1,0,0:0:0:0:
157,197,120103,1,0,0:0:0:0:
158,196,120368,1,8,0:0:0:0:
165,215,120898,1,0,0:0:0:0:
156,190,121162,1,8,0:0:0:0:
157,217,121427,1,0,0:0:0:0:
157,217,121692,1,8,0:0:0:0:
152,184,121957,1,8,0:0:0:0:
145,212,122222,1,0,0:0:0:0:
151,263,122487,1,8,0:0:0:0:
139,200,122751,1,0,0:0:0:0:
132,215,123016,1,8,0:0:0:0:
142,216,123281,1,8,0:0:0:0:
142,216,123414,1,0,0:0:0:0:
162,222,123546,1,8,0:0:0:0:
141,229,123678,1,8,0:0:0:0:
163,224,123811,1,0,0:0:0:0:
162,222,124341,1,0,0:0:0:0:
163,224,124605,1,8,0:0:0:0:
152,233,125135,1,0,0:0:0:0:
151,233,125400,1,0,0:0:0:0:
152,233,125665,1,8,0:0:0:0:
152,233,125930,1,0,0:0:0:0:
149,202,126194,1,8,0:0:0:0:
166,235,126459,1,0,0:0:0:0:
166,235,126724,1,8,0:0:0:0:
159,255,126989,1,8,0:0:0:0:
126,222,127254,1,8,0:0:0:0:
162,157,127519,1,0,0:0:0:0:
163,163,127651,1,0,0:0:0:0:
145,217,127784,1,8,0:0:0:0:
156,176,127916,1,8,0:0:0:0:
154,177,128048,1,0,0:0:0:0:
157,197,128578,1,0,0:0:0:0:
158,196,128843,1,8,0:0:0:0:
165,215,129373,1,0,0:0:0:0:
152,184,129637,1,0,0:0:0:0:
166,221,129902,1,8,0:0:0:0:
165,215,130167,1,8,0:0:0:0:
152,184,130432,1,8,0:0:0:0:
159,218,130697,1,0,0:0:0:0:
159,216,130962,1,8,0:0:0:0:
166,209,131226,1,8,0:0:0:0:
139,234,135728,1,8,0:0:0:0:
148,254,135860,1,0,0:0:0:0:
139,234,135993,1,8,0:0:0:0:
148,255,136125,1,0,0:0:0:0:
141,229,136257,1,8,0:0:0:0:
142,236,136390,1,0,0:0:0:0:
141,229,136522,1,8,0:0:0:0:
155,212,136655,1,0,0:0:0:0:
137,237,136787,1,8,0:0:0:0:
155,212,136919,1,0,0:0:0:0:
139,234,137052,1,8,0:0:0:0:
155,212,137184,1,0,0:0:0:0:
155,212,137317,1,8,0:0:0:0:
140,260,137449,1,8,0:0:0:0:
141,261,137582,1,0,0:0:0:0:
162,232,137714,1,8,0:0:0:0:
155,252,137846,1,0,0:0:0:0:
128,261,137913,1,0,0:0:0:0:
138,185,137979,1,0,0:0:0:0:
126,248,138111,1,8,0:0:0:0:
128,239,138244,1,0,0:0:0:0:
129,241,138310,1,0,0:0:0:0:
133,250,138376,1,8,0:0:0:0:
165,226,138442,1,8,0:0:0:0:
136,192,138509,1,0,0:0:0:0:
136,251,138641,1,8,0:0:0:0:
134,232,138773,1,8,0:0:0:0:
146,241,138840,1,8,0:0:0:0:
137,236,138906,1,0,0:0:0:0:
139,233,139038,1,0,0:0:0:0:
139,233,139171,1,8,0:0:0:0:
146,260,139303,1,0,0:0:0:0:
151,274,139369,1,8,0:0:0:0:
152,302,139435,1,8,0:0:0:0:
151,275,139502,1,8,0:0:0:0:
134,280,139568,1,0,0:0:0:0:
142,214,139700,1,8,0:0:0:0:
129,220,139833,1,0,0:0:0:0:
155,219,139899,1,8,0:0:0:0:
129,221,139965,1,0,0:0:0:0:
170,231,140098,1,0,0:0:0:0:
146,260,140230,1,8,0:0:0:0:
166,223,140362,1,0,0:0:0:0:
157,203,140429,1,8,0:0:0:0:
162,289,140495,1,8,0:0:0:0:
156,274,140561,1,0,0:0:0:0:
133,233,140627,1,0,0:0:0:0:
133,243,140760,1,8,0:0:0:0:
126,268,140892,1,8,0:0:0:0:
126,268,140958,1,8,0:0:0:0:
125,277,141025,1,0,0:0:0:0:
128,279,141157,1,0,0:0:0:0:
138,284,141289,1,8,0:0:0:0:
140,266,141422,1,0,0:0:0:0:
140,266,141488,1,8,0:0:0:0:
140,266,141554,1,0,0:0:0:0:
130,293,141620,1,0,0:0:0:0:
130,293,141687,1,8,0:0:0:0:
128,264,141819,1,8,0:0:0:0:
138,244,141951,1,8,0:0:0:0:
139,271,142018,1,8,0:0:0:0:
155,252,142084,1,0,0:0:0:0:
138,185,142217,1,0,0:0:0:0:
126,248,142349,1,8,0:0:0:0:
128,239,142482,1,0,0:0:0:0:
154,206,142547,1,8,0:0:0:0:
165,226,142680,1,8,0:0:0:0:
136,192,142747,1,0,0:0:0:0:
136,251,142879,1,8,0:0:0:0:
134,232,143011,1,8,0:0:0:0:
146,241,143078,1,8,0:0:0:0:
137,236,143144,1,0,0:0:0:0:
139,233,143276,1,0,0:0:0:0:
139,233,143409,1,8,0:0:0:0:
146,260,143541,1,0,0:0:0:0:
151,274,143607,1,8,0:0:0:0:
152,302,143673,1,8,0:0:0:0:
151,275,143740,1,8,0:0:0:0:
134,280,143806,1,0,0:0:0:0:
142,214,143938,1,8,0:0:0:0:
129,220,144071,1,0,0:0:0:0:
155,219,144137,1,8,0:0:0:0:
129,221,144203,1,0,0:0:0:0:
170,231,144336,1,0,0:0:0:0:
146,260,144468,1,8,0:0:0:0:
166,223,144600,1,0,0:0:0:0:
157,203,144667,1,8,0:0:0:0:
119,210,144799,1,8,0:0:0:0:
133,233,144865,1,0,0:0:0:0:
133,243,144998,1,8,0:0:0:0:
126,268,145130,1,8,0:0:0:0:
126,268,145196,1,8,0:0:0:0:
125,277,145263,1,0,0:0:0:0:
128,279,145395,1,0,0:0:0:0:
138,284,145527,1,8,0:0:0:0:
140,266,145660,1,0,0:0:0:0:
155,197,145725,1,8,0:0:0:0:
140,267,145792,1,8,0:0:0:0:
159,244,145858,1,0,0:0:0:0:
159,244,145924,1,0,0:0:0:0:
128,264,146057,1,8,0:0:0:0:
138,244,146189,1,8,0:0:0:0:
139,271,146256,1,8,0:0:0:0:
155,252,146321,1,0,0:0:0:0:
138,185,146454,1,0,0:0:0:0:
126,248,146586,1,8,0:0:0:0:
128,239,146719,1,0,0:0:0:0:
129,241,146785,1,0,0:0:0:0:
133,250,146851,1,8,0:0:0:0:
165,226,146917,1,8,0:0:0:0:
136,192,146984,1,0,0:0:0:0:
136,251,147116,1,8,0:0:0:0:
134,232,147248,1,8,0:0:0:0:
146,241,147315,1,8,0:0:0:0:
137,236,147381,1,0,0:0:0:0:
139,233,147513,1,0,0:0:0:0:
139,233,147646,1,8,0:0:0:0:
146,260,147778,1,0,0:0:0:0:
151,274,147844,1,8,0:0:0:0:
152,302,147910,1,8,0:0:0:0:
151,275,147977,1,8,0:0:0:0:
134,280,148043,1,0,0:0:0:0:
142,214,148175,1,8,0:0:0:0:
129,220,148308,1,0,0:0:0:0:
155,219,148374,1,8,0:0:0:0:
129,221,148440,1,0,0:0:0:0:
137,248,148573,1,8,0:0:0:0:
147,228,148705,1,0,0:0:0:0:
151,218,148837,1,8,0:0:0:0:
147,220,148970,1,0,0:0:0:0:
146,221,149102,1,8,0:0:0:0:
146,221,149235,1,0,0:0:0:0:
142,222,149367,1,8,0:0:0:0:
137,222,149499,1,0,0:0:0:0:
131,222,149632,1,8,0:0:0:0:
129,222,149764,1,0,0:0:0:0:
131,213,149897,1,0,0:0:0:0:
129,207,150029,1,8,0:0:0:0:
158,206,150162,1,0,0:0:0:0:
131,231,150294,1,8,0:0:0:0:
136,245,150426,1,8,0:0:0:0:
155,252,150559,1,0,0:0:0:0:
128,261,150626,1,0,0:0:0:0:
143,246,150691,1,0,0:0:0:0:
126,248,150824,1,8,0:0:0:0:
124,237,150956,1,8,0:0:0:0:
127,248,151022,1,8,0:0:0:0:
127,249,151089,1,0,0:0:0:0:
127,249,151155,1,8,0:0:0:0:
109,286,151221,1,0,0:0:0:0:
109,286,151287,1,0,0:0:0:0:
109,286,151353,1,8,0:0:0:0:
134,232,151486,1,8,0:0:0:0:
161,163,151552,1,0,0:0:0:0:
149,177,151618,1,8,0:0:0:0:
148,211,151684,1,8,0:0:0:0:
139,233,151751,1,0,0:0:0:0:
139,233,151884,1,8,0:0:0:0:
146,260,152016,1,0,0:0:0:0:
151,274,152082,1,8,0:0:0:0:
152,302,152148,1,8,0:0:0:0:
151,275,152215,1,8,0:0:0:0:
134,280,152281,1,0,0:0:0:0:
134,232,152347,1,0,0:0:0:0:
142,214,152413,1,8,0:0:0:0:
129,220,152546,1,0,0:0:0:0:
155,219,152612,1,8,0:0:0:0:
129,221,152678,1,0,0:0:0:0:
123,214,152744,1,8,0:0:0:0:
170,231,152811,1,0,0:0:0:0:
146,260,152943,1,8,0:0:0:0:
166,223,153075,1,0,0:0:0:0:
157,203,153142,1,8,0:0:0:0:
162,289,153208,1,8,0:0:0:0:
156,274,153274,1,0,0:0:0:0:
133,233,153340,1,0,0:0:0:0:
135,191,153406,1,8,0:0:0:0:
133,243,153473,1,8,0:0:0:0:
137,205,153605,1,0,0:0:0:0:
140,185,153671,1,8,0:0:0:0:
125,277,153738,1,0,0:0:0:0:
166,200,153869,1,8,0:0:0:0:
138,284,154002,1,8,0:0:0:0:
140,266,154135,1,0,0:0:0:0:
133,220,154200,1,8,0:0:0:0:
138,200,154333,1,8,0:0:0:0:
151,199,154399,1,0,0:0:0:0:
128,264,154532,1,8,0:0:0:0:
138,244,154664,1,8,0:0:0:0:
139,271,154731,1,8,0:0:0:0:
155,252,154796,1,0,0:0:0:0:
128,261,154863,1,0,0:0:0:0:
143,246,154928,1,0,0:0:0:0:
126,248,155061,1,8,0:0:0:0:
56,210,155194,1,8,0:0:0:0:
131,274,155260,1,0,0:0:0:0:
132,275,155326,1,0,0:0:0:0:
115,275,155392,1,8,0:0:0:0:
116,274,155458,1,0,0:0:0:0:
116,274,155525,1,0,0:0:0:0:
149,190,155591,1,8,0:0:0:0:
134,232,155723,1,8,0:0:0:0:
146,241,155790,1,8,0:0:0:0:
137,236,155856,1,0,0:0:0:0:
148,211,155921,1,8,0:0:0:0:
139,233,155988,1,0,0:0:0:0:
139,233,156121,1,8,0:0:0:0:
146,260,156253,1,0,0:0:0:0:
151,238,156319,1,0,0:0:0:0:
174,240,156385,1,8,0:0:0:0:
167,226,156452,1,8,0:0:0:0:
134,280,156518,1,0,0:0:0:0:
134,232,156584,1,0,0:0:0:0:
142,214,156650,1,8,0:0:0:0:
129,220,156783,1,0,0:0:0:0:
161,232,156849,1,8,0:0:0:0:
161,232,156915,1,0,0:0:0:0:
147,240,156981,1,8,0:0:0:0:
170,231,157048,1,0,0:0:0:0:
146,260,157180,1,8,0:0:0:0:
186,230,157312,1,8,0:0:0:0:
157,203,157379,1,8,0:0:0:0:
154,274,157445,1,8,0:0:0:0:
141,199,157511,1,8,0:0:0:0:
133,233,157577,1,0,0:0:0:0:
141,216,157643,1,0,0:0:0:0:
133,243,157710,1,8,0:0:0:0:
137,205,157842,1,0,0:0:0:0:
140,185,157908,1,8,0:0:0:0:
125,277,157975,1,0,0:0:0:0:
166,200,158106,1,8,0:0:0:0:
138,284,158239,1,8,0:0:0:0:
140,266,158372,1,0,0:0:0:0:
133,220,158437,1,8,0:0:0:0:
138,200,158570,1,8,0:0:0:0:
151,199,158636,1,0,0:0:0:0:
128,264,158769,1,8,0:0:0:0:
138,244,158901,1,8,0:0:0:0:
139,271,158968,1,8,0:0:0:0:
146,193,159034,1,0,0:0:0:0:
157,224,159166,1,0,0:0:0:0:
157,224,159299,1,8,0:0:0:0:
154,217,159431,1,8,0:0:0:0:
153,218,159497,1,0,0:0:0:0:
151,233,159564,1,8,0:0:0:0:
151,233,159630,1,8,0:0:0:0:
135,234,159696,1,0,0:0:0:0:
137,235,159828,1,8,0:0:0:0:
133,258,159961,1,0,0:0:0:0:
152,293,160027,1,8,0:0:0:0:
131,285,160093,1,0,0:0:0:0:
147,276,160226,1,0,0:0:0:0:
147,273,160358,1,8,0:0:0:0:
126,231,160490,1,0,0:0:0:0:
136,267,160557,1,0,0:0:0:0:
145,241,160623,1,8,0:0:0:0:
147,250,160689,1,8,0:0:0:0:
147,250,160755,1,0,0:0:0:0:
152,252,160888,1,8,0:0:0:0:
180,282,161020,1,8,0:0:0:0:
139,284,161086,1,8,0:0:0:0:
150,250,161153,1,0,0:0:0:0:
149,272,161285,1,0,0:0:0:0:
150,285,161417,1,8,0:0:0:0:
161,312,161550,1,0,0:0:0:0:
134,222,161616,1,8,0:0:0:0:
153,300,161682,1,8,0:0:0:0:
162,285,161748,1,8,0:0:0:0:
158,295,161815,1,0,0:0:0:0:
119,225,161947,1,8,0:0:0:0:
124,237,162080,1,8,0:0:0:0:
118,257,162146,1,8,0:0:0:0:
131,273,162212,1,0,0:0:0:0:
130,274,162477,1,0,0:0:0:0:
136,268,162742,1,8,0:0:0:0:
137,222,163006,1,8,0:0:0:0:
132,218,163139,1,8,0:0:0:0:
146,193,163271,1,0,0:0:0:0:
157,224,163403,1,0,0:0:0:0:
157,224,163536,1,8,0:0:0:0:
154,217,163668,1,8,0:0:0:0:
153,218,163734,1,0,0:0:0:0:
151,233,163801,1,8,0:0:0:0:
151,233,163867,1,8,0:0:0:0:
135,234,163933,1,0,0:0:0:0:
137,235,164065,1,8,0:0:0:0:
133,258,164198,1,0,0:0:0:0:
152,293,164264,1,8,0:0:0:0:
131,285,164330,1,0,0:0:0:0:
147,276,164463,1,0,0:0:0:0:
147,273,164595,1,8,0:0:0:0:
126,231,164727,1,0,0:0:0:0:
136,267,164794,1,0,0:0:0:0:
145,241,164860,1,8,0:0:0:0:
147,250,164926,1,8,0:0:0:0:
147,250,164992,1,0,0:0:0:0:
152,252,165125,1,8,0:0:0:0:
180,282,165257,1,8,0:0:0:0:
139,284,165323,1,8,0:0:0:0:
150,250,165390,1,0,0:0:0:0:
149,272,165522,1,0,0:0:0:0:
150,285,165654,1,8,0:0:0:0:
161,312,165787,1,0,0:0:0:0:
134,222,165853,1,8,0:0:0:0:
153,300,165919,1,8,0:0:0:0:
162,285,165985,1,8,0:0:0:0:
158,295,166052,1,0,0:0:0:0:
119,225,166184,1,8,0:0:0:0:
124,237,166317,1,8,0:0:0:0:
118,257,166383,1,8,0:0:0:0:
131,273,166449,1,0,0:0:0:0:
130,274,166714,1,0,0:0:0:0:
136,268,166979,1,8,0:0:0:0:
137,222,167243,1,8,0:0:0:0:
132,218,167376,1,8,0:0:0:0:
146,193,167509,1,0,0:0:0:0:
157,224,167641,1,0,0:0:0:0:
157,224,167774,1,8,0:0:0:0:
137,222,167906,1,0,0:0:0:0:
151,198,167972,1,8,0:0:0:0:
151,233,168105,1,8,0:0:0:0:
135,234,168171,1,0,0:0:0:0:
137,235,168303,1,8,0:0:0:0:
159,260,168436,1,8,0:0:0:0:
152,293,168502,1,8,0:0:0:0:
131,285,168568,1,0,0:0:0:0:
141,207,168701,1,8,0:0:0:0:
136,232,168833,1,0,0:0:0:0:
126,231,168965,1,0,0:0:0:0:
159,217,169032,1,8,0:0:0:0:
157,200,169164,1,8,0:0:0:0:
147,250,169230,1,0,0:0:0:0:
152,252,169363,1,8,0:0:0:0:
180,282,169495,1,8,0:0:0:0:
139,284,169561,1,8,0:0:0:0:
150,250,169628,1,0,0:0:0:0:
149,272,169760,1,0,0:0:0:0:
150,285,169892,1,8,0:0:0:0:
154,210,170025,1,0,0:0:0:0:
154,210,170091,1,8,0:0:0:0:
162,285,170223,1,8,0:0:0:0:
158,295,170290,1,0,0:0:0:0:
119,225,170422,1,8,0:0:0:0:
124,237,170555,1,8,0:0:0:0:
118,257,170621,1,8,0:0:0:0:
131,273,170687,1,0,0:0:0:0:
191,233,170819,1,0,0:0:0:0:
158,251,170952,1,8,0:0:0:0:
140,244,171084,1,0,0:0:0:0:
151,309,171150,1,8,0:0:0:0:
151,309,171217,1,8,0:0:0:0:
139,266,171283,1,8,0:0:0:0:
146,289,171349,1,0,0:0:0:0:
137,222,171481,1,8,0:0:0:0:
132,218,171614,1,8,0:0:0:0:
180,219,171680,1,8,0:0:0:0:
146,193,171746,1,0,0:0:0:0:
157,224,171878,1,0,0:0:0:0:
157,224,172011,1,8,0:0:0:0:
143,222,172144,1,0,0:0:0:0:
151,198,172209,1,8,0:0:0:0:
151,233,172342,1,8,0:0:0:0:
135,234,172408,1,0,0:0:0:0:
156,277,172475,1,0,0:0:0:0:
137,235,172540,1,8,0:0:0:0:
159,260,172673,1,8,0:0:0:0:
152,293,172739,1,8,0:0:0:0:
131,285,172805,1,0,0:0:0:0:
141,207,172938,1,8,0:0:0:0:
136,232,173070,1,0,0:0:0:0:
147,258,173203,1,8,0:0:0:0:
141,265,173269,1,8,0:0:0:0:
145,262,173335,1,0,0:0:0:0:
154,201,173402,1,8,0:0:0:0:
147,250,173467,1,0,0:0:0:0:
152,252,173600,1,8,0:0:0:0:
180,282,173732,1,8,0:0:0:0:
139,284,173798,1,8,0:0:0:0:
150,250,173865,1,0,0:0:0:0:
149,272,173997,1,0,0:0:0:0:
150,285,174129,1,8,0:0:0:0:
161,312,174262,1,0,0:0:0:0:
161,238,174328,1,8,0:0:0:0:
162,285,174460,1,8,0:0:0:0:
158,295,174527,1,0,0:0:0:0:
177,256,174593,1,0,0:0:0:0:
119,225,174659,1,8,0:0:0:0:
124,237,174792,1,8,0:0:0:0:
118,257,174858,1,8,0:0:0:0:
131,273,174924,1,0,0:0:0:0:
156,270,175057,1,0,0:0:0:0:
158,251,175189,1,8,0:0:0:0:
132,213,175322,1,0,0:0:0:0:
156,275,175388,1,0,0:0:0:0:
143,207,175454,1,8,0:0:0:0:
146,250,175520,1,8,0:0:0:0:
146,289,175586,1,0,0:0:0:0:
137,222,175718,1,8,0:0:0:0:
132,218,175851,1,8,0:0:0:0:
180,219,175917,1,8,0:0:0:0:
146,193,175984,1,0,0:0:0:0:
157,224,176116,1,0,0:0:0:0:
157,224,176249,1,8,0:0:0:0:
154,217,176381,1,8,0:0:0:0:
153,218,176447,1,0,0:0:0:0:
151,233,176514,1,8,0:0:0:0:
151,233,176580,1,8,0:0:0:0:
135,234,176646,1,0,0:0:0:0:
137,235,176778,1,8,0:0:0:0:
133,258,176911,1,0,0:0:0:0:
152,293,176977,1,8,0:0:0:0:
131,285,177043,1,0,0:0:0:0:
147,276,177176,1,0,0:0:0:0:
147,273,177308,1,8,0:0:0:0:
126,231,177440,1,0,0:0:0:0:
136,267,177507,1,0,0:0:0:0:
145,241,177573,1,8,0:0:0:0:
147,250,177639,1,8,0:0:0:0:
147,250,177705,1,0,0:0:0:0:
152,252,177838,1,8,0:0:0:0:
180,282,177970,1,8,0:0:0:0:
139,284,178036,1,8,0:0:0:0:
150,250,178103,1,0,0:0:0:0:
149,272,178235,1,0,0:0:0:0:
150,285,178367,1,8,0:0:0:0:
161,312,178500,1,0,0:0:0:0:
134,222,178566,1,8,0:0:0:0:
153,300,178632,1,8,0:0:0:0:
162,285,178698,1,8,0:0:0:0:
158,295,178765,1,0,0:0:0:0:
119,225,178897,1,8,0:0:0:0:
124,237,179030,1,8,0:0:0:0:
118,257,179096,1,8,0:0:0:0:
131,273,179162,1,0,0:0:0:0:
130,274,179427,1,0,0:0:0:0:
136,268,179692,1,8,0:0:0:0:
137,222,179956,1,8,0:0:0:0:
132,218,180089,1,8,0:0:0:0:
146,193,180221,1,0,0:0:0:0:
157,224,180353,1,0,0:0:0:0:
157,224,180486,1,8,0:0:0:0:
154,217,180618,1,8,0:0:0:0:
153,218,180684,1,0,0:0:0:0:
151,233,180751,1,8,0:0:0:0:
151,233,180817,1,8,0:0:0:0:
135,234,180883,1,0,0:0:0:0:
137,235,181015,1,8,0:0:0:0:
133,258,181148,1,0,0:0:0:0:
152,293,181214,1,8,0:0:0:0:
131,285,181280,1,0,0:0:0:0:
147,276,181413,1,0,0:0:0:0:
147,273,181545,1,8,0:0:0:0:
126,231,181677,1,0,0:0:0:0:
136,267,181744,1,0,0:0:0:0:
145,241,181810,1,8,0:0:0:0:
147,250,181876,1,8,0:0:0:0:
147,250,181942,1,0,0:0:0:0:
152,252,182075,1,8,0:0:0:0:
180,282,182207,1,8,0:0:0:0:
139,284,182273,1,8,0:0:0:0:
150,250,182340,1,0,0:0:0:0:
149,272,182472,1,0,0:0:0:0:
150,285,182604,1,8,0:0:0:0:
161,312,182737,1,0,0:0:0:0:
134,222,182803,1,8,0:0:0:0:
153,300,182869,1,8,0:0:0:0:
162,285,182935,1,8,0:0:0:0:
158,295,183002,1,0,0:0:0:0:
119,225,183134,1,8,0:0:0:0:
124,237,183267,1,8,0:0:0:0:
118,257,183333,1,8,0:0:0:0:
131,273,183399,1,0,0:0:0:0:
130,274,183664,1,0,0:0:0:0:
136,268,183929,1,8,0:0:0:0:
137,222,184193,1,8,0:0:0:0:
132,218,184326,1,8,0:0:0:0:
155,252,184459,1,0,0:0:0:0:
153,213,184525,1,8,0:0:0:0:
143,246,184591,1,0,0:0:0:0:
126,248,184724,1,8,0:0:0:0:
138,238,184856,1,0,0:0:0:0:
138,238,184922,1,0,0:0:0:0:
131,241,184988,1,8,0:0:0:0:
130,241,185055,1,8,0:0:0:0:
136,252,185121,1,0,0:0:0:0:
138,246,185187,1,0,0:0:0:0:
136,247,185253,1,8,0:0:0:0:
134,232,185386,1,8,0:0:0:0:
149,232,185452,1,8,0:0:0:0:
149,232,185518,1,0,0:0:0:0:
148,211,185584,1,8,0:0:0:0:
139,233,185651,1,0,0:0:0:0:
139,233,185784,1,8,0:0:0:0:
179,211,185915,1,8,0:0:0:0:
145,191,185982,1,0,0:0:0:0:
156,231,186048,1,0,0:0:0:0:
151,275,186115,1,8,0:0:0:0:
134,280,186181,1,0,0:0:0:0:
134,232,186247,1,0,0:0:0:0:
142,214,186313,1,8,0:0:0:0:
129,220,186446,1,0,0:0:0:0:
155,219,186512,1,8,0:0:0:0:
129,221,186578,1,0,0:0:0:0:
123,214,186644,1,8,0:0:0:0:
170,231,186711,1,0,0:0:0:0:
146,260,186843,1,8,0:0:0:0:
166,223,186975,1,0,0:0:0:0:
157,203,187042,1,8,0:0:0:0:
162,289,187108,1,8,0:0:0:0:
156,274,187174,1,0,0:0:0:0:
133,233,187240,1,0,0:0:0:0:
135,191,187306,1,8,0:0:0:0:
133,243,187373,1,8,0:0:0:0:
153,202,187504,1,0,0:0:0:0:
149,212,187637,1,8,0:0:0:0:
156,263,187681,1,0,0:0:0:0:
149,273,187725,1,0,0:0:0:0:
150,273,187769,1,8,0:0:0:0:
147,193,187902,1,0,0:0:0:0:
145,191,187946,1,8,0:0:0:0:
143,191,187990,1,8,0:0:0:0:
130,237,188034,1,0,0:0:0:0:
162,202,188166,1,0,0:0:0:0:
167,191,188211,1,0,0:0:0:0:
163,188,188255,1,0,0:0:0:0:
149,213,188299,1,8,0:0:0:0:
149,206,188431,1,8,0:0:0:0:
146,208,188564,1,0,0:0:0:0:
172,219,188696,1,8,0:0:0:0:
153,213,188762,1,8,0:0:0:0:
143,246,188828,1,0,0:0:0:0:
126,248,188961,1,8,0:0:0:0:
138,238,189093,1,0,0:0:0:0:
138,238,189159,1,0,0:0:0:0:
131,241,189225,1,8,0:0:0:0:
130,241,189292,1,8,0:0:0:0:
136,252,189358,1,0,0:0:0:0:
138,246,189424,1,0,0:0:0:0:
136,247,189490,1,8,0:0:0:0:
134,232,189623,1,8,0:0:0:0:
149,232,189689,1,8,0:0:0:0:
149,232,189755,1,0,0:0:0:0:
148,211,189821,1,8,0:0:0:0:
139,233,189888,1,0,0:0:0:0:
139,233,190021,1,8,0:0:0:0:
179,211,190152,1,8,0:0:0:0:
145,191,190219,1,0,0:0:0:0:
156,231,190285,1,0,0:0:0:0:
151,275,190352,1,8,0:0:0:0:
134,280,190418,1,0,0:0:0:0:
134,232,190484,1,0,0:0:0:0:
142,214,190550,1,8,0:0:0:0:
129,220,190683,1,0,0:0:0:0:
142,223,190749,1,0,0:0:0:0:
127,248,190815,1,8,0:0:0:0:
156,245,190848,1,8,0:0:0:0:
161,251,191080,1,8,0:0:0:0:
159,261,191113,1,8,0:0:0:0:
124,252,191345,1,8,0:0:0:0:
161,275,191378,1,8,0:0:0:0:
144,227,191609,1,8,0:0:0:0:
150,229,191643,1,8,0:0:0:0:
123,265,191874,1,0,0:0:0:0:
142,253,191907,1,0,0:0:0:0:
123,265,192139,1,0,0:0:0:0:
139,241,192172,1,0,0:0:0:0:
123,265,192404,1,0,0:0:0:0:
138,273,192437,1,0,0:0:0:0:
123,265,192669,1,0,0:0:0:0:
134,287,192702,1,0,0:0:0:0:
133,232,194667,1,0,0:0:0:0:
159,312,194732,1,8,0:0:0:0:
157,320,194798,1,0,0:0:0:0:
144,308,194930,1,8,0:0:0:0:
172,274,194997,1,8,0:0:0:0:
159,277,195063,1,0,0:0:0:0:
159,272,195195,1,8,0:0:0:0:
133,237,195261,1,0,0:0:0:0:
121,258,195328,1,0,0:0:0:0:
145,273,195461,1,0,0:0:0:0:
145,273,195593,1,8,0:0:0:0:
141,261,195858,1,8,0:0:0:0:
136,276,195991,1,0,0:0:0:0:
144,264,196256,1,8,0:0:0:0:
152,259,196520,1,8,0:0:0:0:
150,258,196653,1,8,0:0:0:0:
150,258,196785,1,0,0:0:0:0:
132,312,196851,1,0,0:0:0:0:
132,312,196918,1,8,0:0:0:0:
138,273,197050,1,0,0:0:0:0:
127,287,197116,1,0,0:0:0:0:
127,288,197183,1,0,0:0:0:0:
141,275,197315,1,8,0:0:0:0:
160,253,197381,1,8,0:0:0:0:
157,274,197447,1,8,0:0:0:0:
131,220,197580,1,0,0:0:0:0:
144,182,197712,1,8,0:0:0:0:
142,218,197845,1,0,0:0:0:0:
150,177,197977,1,8,0:0:0:0:
145,199,198109,1,0,0:0:0:0:
150,221,198374,1,8,0:0:0:0:
163,222,198639,1,8,0:0:0:0:
159,224,198772,1,8,0:0:0:0:
133,232,198904,1,0,0:0:0:0:
159,312,198970,1,8,0:0:0:0:
157,320,199036,1,0,0:0:0:0:
144,308,199168,1,8,0:0:0:0:
172,274,199235,1,8,0:0:0:0:
159,277,199301,1,0,0:0:0:0:
159,272,199433,1,8,0:0:0:0:
133,237,199499,1,0,0:0:0:0:
121,258,199566,1,0,0:0:0:0:
145,273,199698,1,0,0:0:0:0:
145,273,199830,1,8,0:0:0:0:
141,261,200095,1,8,0:0:0:0:
136,276,200228,1,0,0:0:0:0:
144,264,200493,1,8,0:0:0:0:
152,259,200757,1,8,0:0:0:0:
150,258,200890,1,8,0:0:0:0:
150,258,201022,1,0,0:0:0:0:
132,312,201088,1,0,0:0:0:0:
132,312,201155,1,8,0:0:0:0:
138,273,201287,1,0,0:0:0:0:
127,287,201353,1,0,0:0:0:0:
127,288,201420,1,0,0:0:0:0:
141,275,201552,1,8,0:0:0:0:
160,253,201618,1,8,0:0:0:0:
157,274,201684,1,8,0:0:0:0:
131,220,201817,1,0,0:0:0:0:
144,182,201949,1,8,0:0:0:0:
142,218,202082,1,0,0:0:0:0:
150,177,202214,1,8,0:0:0:0:
145,199,202346,1,0,0:0:0:0:
150,221,202611,1,8,0:0:0:0:
163,222,202876,1,8,0:0:0:0:
159,224,203009,1,8,0:0:0:0:
141,244,203141,1,0,0:0:0:0:
146,296,203208,1,0,0:0:0:0:
139,243,203274,1,0,0:0:0:0:
146,296,203406,1,0,0:0:0:0:
156,307,203473,1,0,0:0:0:0:
146,296,203539,1,0,0:0:0:0:
118,273,203671,1,8,0:0:0:0:
133,271,203737,1,8,0:0:0:0:
141,244,203804,1,0,0:0:0:0:
126,220,203936,1,0,0:0:0:0:
127,224,204068,1,8,0:0:0:0:
136,265,204333,1,0,0:0:0:0:
137,261,204466,1,0,0:0:0:0:
138,271,204731,1,8,0:0:0:0:
132,277,204995,1,0,0:0:0:0:
132,277,205128,1,0,0:0:0:0:
152,233,205260,1,8,0:0:0:0:
143,214,205326,1,0,0:0:0:0:
111,268,205393,1,8,0:0:0:0:
134,226,205525,1,0,0:0:0:0:
134,227,205591,1,8,0:0:0:0:
130,221,205657,1,0,0:0:0:0:
130,222,205790,1,8,0:0:0:0:
131,260,205856,1,8,0:0:0:0:
156,208,205922,1,8,0:0:0:0:
143,285,206055,1,0,0:0:0:0:
143,287,206187,1,8,0:0:0:0:
138,288,206452,1,8,0:0:0:0:
135,286,206584,1,0,0:0:0:0:
141,283,206849,1,8,0:0:0:0:
132,193,207114,1,8,0:0:0:0:
126,208,207247,1,8,0:0:0:0:
133,232,207379,1,0,0:0:0:0:
159,312,207445,1,8,0:0:0:0:
157,320,207511,1,0,0:0:0:0:
144,308,207643,1,8,0:0:0:0:
172,274,207710,1,8,0:0:0:0:
159,277,207776,1,0,0:0:0:0:
159,272,207908,1,8,0:0:0:0:
133,237,207974,1,0,0:0:0:0:
121,258,208041,1,0,0:0:0:0:
145,273,208173,1,0,0:0:0:0:
145,273,208305,1,8,0:0:0:0:
141,261,208570,1,8,0:0:0:0:
136,276,208703,1,0,0:0:0:0:
144,264,208968,1,8,0:0:0:0:
152,259,209232,1,8,0:0:0:0:
150,258,209365,1,8,0:0:0:0:
150,258,209497,1,0,0:0:0:0:
132,312,209563,1,0,0:0:0:0:
132,312,209630,1,8,0:0:0:0:
138,273,209762,1,0,0:0:0:0:
127,287,209828,1,0,0:0:0:0:
127,288,209895,1,0,0:0:0:0:
141,275,210027,1,8,0:0:0:0:
160,253,210093,1,8,0:0:0:0:
157,274,210159,1,8,0:0:0:0:
131,220,210292,1,0,0:0:0:0:
144,182,210424,1,8,0:0:0:0:
142,218,210557,1,0,0:0:0:0:
150,177,210689,1,8,0:0:0:0:
145,199,210821,1,0,0:0:0:0:
150,221,211086,1,8,0:0:0:0:
163,222,211351,1,8,0:0:0:0:
159,224,211484,1,8,0:0:0:0:
133,232,211616,1,0,0:0:0:0:
159,312,211682,1,8,0:0:0:0:
157,320,211748,1,0,0:0:0:0:
144,308,211880,1,8,0:0:0:0:
172,274,211947,1,8,0:0:0:0:
159,277,212013,1,0,0:0:0:0:
159,272,212145,1,8,0:0:0:0:
133,237,212211,1,0,0:0:0:0:
121,258,212278,1,0,0:0:0:0:
145,273,212410,1,0,0:0:0:0:
145,273,212542,1,8,0:0:0:0:
141,261,212807,1,8,0:0:0:0:
136,276,212940,1,0,0:0:0:0:
144,264,213205,1,8,0:0:0:0:
152,259,213469,1,8,0:0:0:0:
150,258,213602,1,8,0:0:0:0:
150,258,213734,1,0,0:0:0:0:
132,312,213800,1,0,0:0:0:0:
132,312,213867,1,8,0:0:0:0:
138,273,213999,1,0,0:0:0:0:
127,287,214065,1,0,0:0:0:0:
127,288,214132,1,0,0:0:0:0:
141,275,214264,1,8,0:0:0:0:
160,253,214330,1,8,0:0:0:0:
157,274,214396,1,8,0:0:0:0:
131,220,214529,1,0,0:0:0:0:
144,182,214661,1,8,0:0:0:0:
142,218,214794,1,0,0:0:0:0:
150,177,214926,1,8,0:0:0:0:
145,199,215058,1,0,0:0:0:0:
150,221,215323,1,8,0:0:0:0:
163,222,215588,1,8,0:0:0:0:
159,224,215721,1,8,0:0:0:0:
141,244,215853,1,0,0:0:0:0:
176,265,216119,1,0,0:0:0:0:
176,265,216251,1,8,0:0:0:0:
216,278,216317,1,8,0:0:0:0:
216,278,216450,1,8,0:0:0:0:
176,271,216516,1,8,0:0:0:0:
159,279,216648,1,0,0:0:0:0:
157,265,216781,1,8,0:0:0:0:
160,237,216913,1,0,0:0:0:0:
153,299,217046,1,8,0:0:0:0:
149,261,217178,1,0,0:0:0:0:
130,236,217311,1,8,0:0:0:0:
153,252,217377,1,0,0:0:0:0:
141,251,217509,1,8,0:0:0:0:
154,231,217575,1,0,0:0:0:0:
141,278,217708,1,8,0:0:0:0:
140,274,217840,1,8,0:0:0:0:
133,299,217973,1,0,0:0:0:0:
130,312,218237,1,8,0:0:0:0:
132,236,218370,1,0,0:0:0:0:
152,248,218436,1,0,0:0:0:0:
184,222,218569,1,0,0:0:0:0:
157,271,218635,1,0,0:0:0:0:
150,295,218767,1,8,0:0:0:0:
161,253,218900,1,0,0:0:0:0:
161,253,219032,1,8,0:0:0:0:
134,278,219164,1,8,0:0:0:0:
139,252,219297,1,0,0:0:0:0:
142,250,219429,1,8,0:0:0:0:
134,235,219495,1,8,0:0:0:0:
146,290,219628,1,8,0:0:0:0:
134,278,219694,1,8,0:0:0:0:
120,280,219827,1,0,0:0:0:0:
130,258,219959,1,0,0:0:0:0:
130,259,220091,1,8,0:0:0:0:
134,271,220621,1,8,0:0:0:0:
142,273,220886,1,8,0:0:0:0:
146,283,221018,1,0,0:0:0:0:
146,282,221151,1,8,0:0:0:0:
133,283,221283,1,8,0:0:0:0:
131,280,221416,1,0,0:0:0:0:
127,273,221680,1,8,0:0:0:0:
131,295,221945,1,8,0:0:0:0:
131,302,222078,1,8,0:0:0:0:
141,309,222210,1,0,0:0:0:0:
158,207,222740,1,0,0:0:0:0:
148,230,223005,1,8,0:0:0:0:
145,251,223269,1,8,0:0:0:0:
145,304,223534,1,0,0:0:0:0:
131,294,223799,1,8,0:0:0:0:
152,282,224064,1,8,0:0:0:0:
152,282,224196,1,8,0:0:0:0:
166,278,224329,1,0,0:0:0:0:
155,270,224726,1,0,0:0:0:0:
166,161,224991,1,8,0:0:0:0:
165,240,225123,1,8,0:0:0:0:
142,196,225388,1,0,0:0:0:0:
143,217,225785,1,0,0:0:0:0:
142,219,225918,1,8,0:0:0:0:
121,209,226183,1,0,0:0:0:0:
136,207,226448,1,0,0:0:0:0:
156,192,226845,1,0,0:0:0:0:
156,192,226977,1,8,0:0:0:0:
164,208,227110,1,0,0:0:0:0:
134,212,227375,1,0,0:0:0:0:
135,234,227772,1,8,0:0:0:0:
166,278,228566,1,0,0:0:0:0:
155,270,228963,1,0,0:0:0:0:
157,197,229228,1,0,0:0:0:0:
165,240,229360,1,8,0:0:0:0:
142,196,229625,1,0,0:0:0:0:
181,231,230023,1,8,0:0:0:0:
142,219,230155,1,8,0:0:0:0:
121,209,230420,1,0,0:0:0:0:
136,207,230685,1,0,0:0:0:0:
163,243,231082,1,8,0:0:0:0:
188,192,231215,1,0,0:0:0:0:
164,208,231347,1,0,0:0:0:0:
134,212,231612,1,0,0:0:0:0:
135,234,232009,1,8,0:0:0:0:
166,278,232804,1,0,0:0:0:0:
155,270,233201,1,0,0:0:0:0:
166,161,233466,1,8,0:0:0:0:
165,240,233598,1,8,0:0:0:0:
142,196,233863,1,0,0:0:0:0:
143,217,234260,1,0,0:0:0:0:
142,219,234393,1,8,0:0:0:0:
121,209,234658,1,0,0:0:0:0:
136,207,234923,1,0,0:0:0:0:
156,192,235320,1,0,0:0:0:0:
156,192,235452,1,8,0:0:0:0:
164,208,235585,1,0,0:0:0:0:
134,212,235850,5,0,0:0:0:0:
135,234,236247,1,8,0:0:0:0:
162,177,237041,5,8,0:0:0:0:
161,236,237438,1,0,0:0:0:0:
155,245,237571,1,8,0:0:0:0:
149,267,237835,1,8,0:0:0:0:
151,167,237968,1,0,0:0:0:0:
143,237,238101,1,8,0:0:0:0:
159,207,238365,1,8,0:0:0:0:
149,212,238497,1,8,0:0:0:0:
141,185,238630,1,0,0:0:0:0:
146,209,238895,1,0,0:0:0:0:
146,237,239160,1,8,0:0:0:0:
136,214,239424,1,8,0:0:0:0:
138,234,239689,1,0,0:0:0:0:
133,216,239954,1,0,0:0:0:0:
151,227,240219,1,0,0:0:0:0:
149,216,240484,1,0,0:0:0:0:
148,230,240749,1,8,0:0:0:0:
150,148,240881,1,0,0:0:0:0:
143,172,241013,1,8,0:0:0:0:
143,172,241146,1,0,0:0:0:0:
151,209,241278,1,8,0:0:0:0:
161,236,241676,1,0,0:0:0:0:
143,222,241808,1,8,0:0:0:0:
149,267,242073,1,8,0:0:0:0:
151,167,242206,1,0,0:0:0:0:
149,185,242338,1,8,0:0:0:0:
159,207,242603,1,8,0:0:0:0:
149,212,242735,1,8,0:0:0:0:
141,185,242868,1,0,0:0:0:0:
146,209,243133,1,0,0:0:0:0:
146,237,243398,1,8,0:0:0:0:
136,214,243662,1,8,0:0:0:0:
138,234,243927,1,0,0:0:0:0:
133,216,244192,1,0,0:0:0:0:
121,244,244457,1,0,0:0:0:0:
149,216,244722,1,0,0:0:0:0:
148,230,244987,1,8,0:0:0:0:
138,219,245119,1,8,0:0:0:0:
130,245,245251,1,0,0:0:0:0:
143,172,245384,1,0,0:0:0:0:
151,209,245516,1,8,0:0:0:0:
161,236,245913,1,0,0:0:0:0:
149,267,246310,1,8,0:0:0:0:
144,183,246443,1,8,0:0:0:0:
156,196,246840,1,0,0:0:0:0:
149,212,246972,1,8,0:0:0:0:
141,185,247105,1,0,0:0:0:0:
146,209,247370,1,0,0:0:0:0:
146,237,247635,1,8,0:0:0:0:
136,214,247899,1,8,0:0:0:0:
138,234,248164,1,0,0:0:0:0:
148,180,248429,1,8,0:0:0:0:
154,190,248694,1,0,0:0:0:0:
149,216,248959,1,0,0:0:0:0:
164,204,249224,1,0,0:0:0:0:
157,210,249356,1,0,0:0:0:0:
143,172,249488,1,8,0:0:0:0:
155,195,249621,1,0,0:0:0:0:
151,209,249753,1,8,0:0:0:0:
161,236,250151,1,0,0:0:0:0:
149,267,250548,1,8,0:0:0:0:
144,183,250681,1,8,0:0:0:0:
156,196,251078,1,0,0:0:0:0:
149,212,251210,1,8,0:0:0:0:
141,185,251343,1,0,0:0:0:0:
146,209,251608,1,0,0:0:0:0:
146,237,251873,1,8,0:0:0:0:
136,214,252137,1,8,0:0:0:0:
138,234,252402,1,0,0:0:0:0:
148,180,252667,1,8,0:0:0:0:
154,190,252932,1,0,0:0:0:0:
149,216,253197,1,0,0:0:0:0:
164,204,253462,1,0,0:0:0:0:
157,188,253593,1,8,0:0:0:0:
143,192,253726,1,0,0:0:0:0:
155,195,253859,1,0,0:0:0:0:
151,209,253991,1,8,0:0:0:0:
161,236,254388,1,0,0:0:0:0:
149,267,254785,1,8,0:0:0:0:
151,167,254918,1,0,0:0:0:0:
159,207,255315,1,8,0:0:0:0:
149,212,255447,1,8,0:0:0:0:
141,185,255580,1,0,0:0:0:0:
146,209,255845,1,0,0:0:0:0:
146,237,256110,1,8,0:0:0:0:
136,214,256374,1,8,0:0:0:0:
138,234,256639,1,0,0:0:0:0:
133,216,256904,1,0,0:0:0:0:
147,200,257169,1,8,0:0:0:0:
149,216,257434,1,0,0:0:0:0:
148,230,257699,1,8,0:0:0:0:
150,148,257831,1,0,0:0:0:0:
143,172,257963,1,8,0:0:0:0:
143,172,258096,1,0,0:0:0:0:
151,209,258229,1,8,0:0:0:0:
161,236,258626,1,0,0:0:0:0:
149,267,259023,1,8,0:0:0:0:
151,167,259156,1,0,0:0:0:0:
159,207,259553,1,8,0:0:0:0:
149,212,259685,1,8,0:0:0:0:
141,185,259818,1,0,0:0:0:0:
146,209,260083,1,0,0:0:0:0:
146,237,260348,1,8,0:0:0:0:
136,214,260612,1,8,0:0:0:0:
138,234,260877,1,0,0:0:0:0:
133,216,261142,1,0,0:0:0:0:
147,200,261407,1,8,0:0:0:0:
149,216,261672,1,0,0:0:0:0:
148,230,261937,1,8,0:0:0:0:
138,219,262069,1,8,0:0:0:0:
130,245,262201,1,0,0:0:0:0:
143,172,262334,1,0,0:0:0:0:
162,177,262466,5,8,0:0:0:0:
161,236,262863,1,0,0:0:0:0:
149,267,263260,1,8,0:0:0:0:
151,167,263393,1,0,0:0:0:0:
159,207,263790,1,8,0:0:0:0:
149,212,263922,1,8,0:0:0:0:
141,185,264055,1,0,0:0:0:0:
146,209,264320,1,0,0:0:0:0:
146,237,264585,1,8,0:0:0:0:
136,214,264849,1,8,0:0:0:0:
138,234,265114,1,0,0:0:0:0:
133,216,265379,1,0,0:0:0:0:
147,200,265644,1,8,0:0:0:0:
149,216,265909,1,0,0:0:0:0:
148,230,266174,1,8,0:0:0:0:
150,148,266306,1,0,0:0:0:0:
143,172,266438,1,8,0:0:0:0:
143,172,266571,1,0,0:0:0:0:
151,209,266703,1,8,0:0:0:0:
161,236,267101,1,0,0:0:0:0:
149,267,267498,1,8,0:0:0:0:
151,167,267631,1,0,0:0:0:0:
159,207,268028,1,8,0:0:0:0:
149,212,268160,1,8,0:0:0:0:
141,185,268293,1,0,0:0:0:0:
146,209,268558,1,0,0:0:0:0:
146,237,268823,1,8,0:0:0:0:
136,214,269087,1,8,0:0:0:0:
138,234,269352,1,0,0:0:0:0:
133,216,269617,1,0,0:0:0:0:
147,200,269882,1,8,0:0:0:0:
149,216,270147,1,0,0:0:0:0:
148,230,270412,1,8,0:0:0:0:
138,219,270544,1,8,0:0:0:0:
130,245,270676,1,0,0:0:0:0:
143,172,270809,1,0,0:0:0:0:
151,209,270941,1,8,0:0:0:0:
161,236,271338,1,0,0:0:0:0:
149,267,271735,1,8,0:0:0:0:
144,183,271868,1,8,0:0:0:0:
156,196,272265,1,0,0:0:0:0:
149,212,272397,1,8,0:0:0:0:
141,185,272530,1,0,0:0:0:0:
146,209,272795,1,0,0:0:0:0:
146,237,273060,1,8,0:0:0:0:
136,214,273324,1,8,0:0:0:0:
138,234,273589,1,0,0:0:0:0:
148,180,273854,1,8,0:0:0:0:
154,190,274119,1,0,0:0:0:0:
149,216,274384,1,0,0:0:0:0:
164,204,274649,1,0,0:0:0:0:
157,210,274781,1,0,0:0:0:0:
143,172,274913,1,8,0:0:0:0:
155,195,275046,1,0,0:0:0:0:
151,209,275178,1,8,0:0:0:0:
161,236,275576,1,0,0:0:0:0:
149,267,275973,1,8,0:0:0:0:
144,183,276106,1,8,0:0:0:0:
156,196,276503,1,0,0:0:0:0:
149,212,276635,1,8,0:0:0:0:
141,185,276768,1,0,0:0:0:0:
146,209,277033,1,0,0:0:0:0:
146,237,277298,1,8,0:0:0:0:
136,214,277562,1,8,0:0:0:0:
138,234,277827,1,0,0:0:0:0:
148,180,278092,1,8,0:0:0:0:
154,190,278357,1,0,0:0:0:0:
149,216,278622,1,0,0:0:0:0:
164,204,278887,1,0,0:0:0:0:
157,188,279018,1,8,0:0:0:0:
143,192,279151,1,0,0:0:0:0:
155,195,279284,1,0,0:0:0:0:
151,209,279416,1,8,0:0:0:0:
161,236,279813,1,0,0:0:0:0:
149,267,280210,1,8,0:0:0:0:
151,167,280343,1,0,0:0:0:0:
159,207,280740,1,8,0:0:0:0:
149,212,280872,1,8,0:0:0:0:
141,185,281005,1,0,0:0:0:0:
146,209,281270,1,0,0:0:0:0:
146,237,281535,1,8,0:0:0:0:
136,214,281799,1,8,0:0:0:0:
138,234,282064,1,0,0:0:0:0:
133,216,282329,1,0,0:0:0:0:
147,200,282594,1,8,0:0:0:0:
149,216,282859,1,0,0:0:0:0:
148,230,283124,1,8,0:0:0:0:
150,148,283256,1,0,0:0:0:0:
143,172,283388,1,8,0:0:0:0:
143,172,283521,1,0,0:0:0:0:
151,209,283653,1,8,0:0:0:0:
256,192,283786,12,0,287891,0:0:0:0:
