osu file format v14

[General]
AudioFilename: audio.mp3
AudioLeadIn: 0
PreviewTime: 77725
Countdown: 0
SampleSet: Normal
StackLeniency: 0.7
Mode: 1
LetterboxInBreaks: 0
WidescreenStoryboard: 1

[Editor]
Bookmarks: 9103,26881,35770,53548,97992
DistanceSpacing: 1.1
BeatDivisor: 4
GridSize: 32
TimelineZoom: 1

[Metadata]
Title:Kid Haud feat. Siriporn Ampaipong
TitleUnicode:คิดฮอด feat. ศิริพร อำไพพงษ์
Artist:Bodyslam
ArtistUnicode:Bodyslam
Creator:Blackener
Version:Yak
Source:
Tags:บอดี้สแลม ตูน อาทิวราห์ คงมาลัย toon Artiwara Kongmalai ຄິດຮອດ คราม 2010 Kraam genie records GMM Grammy ไทย thai อีสาน northeast ลาว ພາສາລາວ lao rock
BeatmapID:1949547
BeatmapSetID:933865

[Difficulty]
HPDrainRate:6
CircleSize:5
OverallDifficulty:4
ApproachRate:5
SliderMultiplier:1.4
SliderTickRate:1

[Events]
//Background and Video events
0,0,"it's nuclear because the song is about disaster.jpg",0,-30
//Break Periods
//Storyboard Layer 0 (Background)
//Storyboard Layer 1 (Fail)
//Storyboard Layer 2 (Pass)
//Storyboard Layer 3 (Foreground)
//Storyboard Layer 4 (Overlay)
//Storyboard Sound Samples

[TimingPoints]
225,555.555555555556,4,1,0,60,1,0
225,-111.111111111111,4,1,0,60,0,0
26891,-100,4,1,0,70,0,0
52968,-98.3606557377049,4,1,0,70,0,0
53246,-96.7741935483871,4,1,0,70,0,0
53523,-95.2380952380952,4,1,0,70,0,0
53558,-95.2380952380952,4,1,0,75,0,0
79773,-94.1176470588235,4,1,0,75,0,0
79912,-93.0232558139535,4,1,0,75,0,0
80189,-90.9090909090909,4,1,0,75,0,0
80225,-90.9090909090909,4,1,0,80,0,1
97447,-90.9090909090909,4,1,0,80,0,0
98002,-90.9090909090909,4,1,0,80,0,1
113488,-90.0900900900901,4,1,0,80,0,1
114043,-88.4955752212389,4,1,0,80,0,1
114669,535.714285714286,4,1,0,80,1,9
114669,-90.2527075812274,4,1,0,80,0,1
115740,535.714285714286,4,1,0,80,1,0
115740,-90.2527075812274,4,1,0,80,0,0

[HitObjects]
256,192,225,5,8,0:0:0:0:
256,192,502,1,8,0:0:0:0:
256,192,641,1,8,0:0:0:0:
256,192,780,1,8,0:0:0:0:
256,192,1058,1,8,0:0:0:0:
256,192,2447,1,8,0:0:0:0:
256,192,2725,1,8,0:0:0:0:
256,192,2863,1,8,0:0:0:0:
256,192,3002,1,8,0:0:0:0:
256,192,3280,1,8,0:0:0:0:
256,192,4669,1,8,0:0:0:0:
256,192,4947,1,8,0:0:0:0:
256,192,5086,1,8,0:0:0:0:
256,192,5225,1,8,0:0:0:0:
256,192,5502,1,8,0:0:0:0:
256,192,6891,1,8,0:0:0:0:
256,192,7169,1,8,0:0:0:0:
256,192,7308,1,8,0:0:0:0:
256,192,7447,1,8,0:0:0:0:
256,192,7725,1,8,0:0:0:0:
256,192,9113,5,0,0:0:0:0:
256,192,9669,1,8,0:0:0:0:
256,192,10225,1,0,0:0:0:0:
256,192,10502,1,0,0:0:0:0:
256,192,10780,1,8,0:0:0:0:
256,192,11058,1,8,0:0:0:0:
256,192,11336,1,0,0:0:0:0:
256,192,11891,1,8,0:0:0:0:
256,192,12447,1,0,0:0:0:0:
256,192,12725,1,0,0:0:0:0:
256,192,13002,1,8,0:0:0:0:
256,192,13558,1,0,0:0:0:0:
256,192,14113,1,8,0:0:0:0:
256,192,14669,1,0,0:0:0:0:
256,192,14947,1,0,0:0:0:0:
256,192,15225,1,8,0:0:0:0:
288,192,15502,1,8,0:0:0:0:
256,192,15780,1,0,0:0:0:0:
256,192,16336,1,0,0:0:0:0:
256,192,16613,1,8,0:0:0:0:
224,192,17447,1,8,0:0:0:0:
224,192,18002,1,0,0:0:0:0:
256,192,18558,1,8,0:0:0:0:
256,192,19113,1,0,0:0:0:0:
256,192,19391,1,0,0:0:0:0:
256,192,19669,1,8,0:0:0:0:
256,192,19947,1,8,0:0:0:0:
256,192,20225,1,0,0:0:0:0:
256,192,20780,1,8,0:0:0:0:
256,192,21336,1,0,0:0:0:0:
256,192,21613,1,0,0:0:0:0:
256,192,21891,1,8,0:0:0:0:
256,192,22447,1,0,0:0:0:0:
256,192,23002,1,8,0:0:0:0:
256,192,23558,1,8,0:0:0:0:
256,192,23836,1,0,0:0:0:0:
256,192,24113,1,8,0:0:0:0:
256,192,24391,1,8,0:0:0:0:
256,192,24669,1,0,0:0:0:0:
256,192,25225,1,0,0:0:0:0:
256,192,25502,1,8,0:0:0:0:
256,192,26336,1,8,0:0:0:0:
256,192,26891,1,0,0:0:0:0:
256,192,27169,1,8,0:0:0:0:
256,192,27447,1,0,0:0:0:0:
256,192,27725,1,0,0:0:0:0:
256,192,28002,1,8,0:0:0:0:
256,192,28558,1,8,0:0:0:0:
256,192,28836,1,8,0:0:0:0:
256,192,29113,1,0,0:0:0:0:
256,192,29391,1,8,0:0:0:0:
256,192,29669,1,0,0:0:0:0:
256,192,29947,1,0,0:0:0:0:
256,192,30225,1,8,0:0:0:0:
256,192,30780,1,8,0:0:0:0:
256,192,31336,1,0,0:0:0:0:
256,192,31613,1,8,0:0:0:0:
256,192,31891,1,0,0:0:0:0:
256,192,32169,1,0,0:0:0:0:
256,192,32447,1,8,0:0:0:0:
256,192,33002,1,8,0:0:0:0:
256,192,33280,1,8,0:0:0:0:
256,192,33558,1,0,0:0:0:0:
256,192,33836,1,0,0:0:0:0:
224,192,33975,1,0,0:0:0:0:
256,192,34113,1,0,0:0:0:0:
224,192,34391,1,0,0:0:0:0:
256,224,34669,1,8,0:0:0:0:
256,192,34947,1,0,0:0:0:0:
256,192,35225,1,8,0:0:0:0:
256,192,35780,1,0,0:0:0:0:
256,192,36336,1,8,0:0:0:0:
256,192,36891,1,0,0:0:0:0:
256,224,37169,1,0,0:0:0:0:
256,192,37447,1,8,0:0:0:0:
256,192,37725,1,8,0:0:0:0:
256,224,38002,1,0,0:0:0:0:
256,224,38280,1,0,0:0:0:0:
256,192,38558,1,8,0:0:0:0:
256,192,39113,1,0,0:0:0:0:
256,192,39391,1,0,0:0:0:0:
256,192,39669,1,8,0:0:0:0:
288,224,40225,1,0,0:0:0:0:
256,224,40780,1,8,0:0:0:0:
256,192,41336,1,8,0:0:0:0:
256,192,41613,1,0,0:0:0:0:
256,192,41891,1,8,0:0:0:0:
256,224,42169,1,8,0:0:0:0:
256,224,42447,1,0,0:0:0:0:
256,192,43002,1,8,0:0:0:0:
256,192,43558,1,8,0:0:0:0:
256,192,43836,1,0,0:0:0:0:
256,192,44113,1,8,0:0:0:0:
256,192,44669,1,0,0:0:0:0:
256,192,45225,1,8,0:0:0:0:
256,192,45780,1,0,0:0:0:0:
256,192,46058,1,0,0:0:0:0:
256,192,46336,1,8,0:0:0:0:
256,192,46613,1,8,0:0:0:0:
192,192,46891,1,0,0:0:0:0:
256,192,47169,1,0,0:0:0:0:
256,192,47447,1,8,0:0:0:0:
256,192,47725,1,0,0:0:0:0:
256,224,48280,1,0,0:0:0:0:
256,192,48558,1,8,0:0:0:0:
256,192,49113,1,0,0:0:0:0:
256,224,49669,1,8,0:0:0:0:
256,192,50225,1,8,0:0:0:0:
256,224,50502,1,0,0:0:0:0:
256,192,50780,1,8,0:0:0:0:
256,192,51058,1,8,0:0:0:0:
256,192,51336,1,0,0:0:0:0:
256,192,51891,1,8,0:0:0:0:
256,192,52447,1,8,0:0:0:0:
256,192,52586,1,8,0:0:0:0:
256,192,52725,1,8,0:0:0:0:
256,192,53002,1,8,0:0:0:0:
288,192,53280,1,8,0:0:0:0:
256,192,53558,1,4,0:0:0:0:
256,224,54391,1,8,0:0:0:0:
256,224,54530,1,8,0:0:0:0:
256,192,54669,1,8,0:0:0:0:
256,224,54947,1,0,0:0:0:0:
256,192,55225,1,8,0:0:0:0:
256,192,55502,1,0,0:0:0:0:
256,192,55780,1,0,0:0:0:0:
256,192,56058,1,8,0:0:0:0:
256,192,56613,1,8,0:0:0:0:
256,224,56752,1,8,0:0:0:0:
256,224,56891,1,8,0:0:0:0:
256,224,57169,1,0,0:0:0:0:
256,192,57447,1,8,0:0:0:0:
256,192,57725,1,8,0:0:0:0:
256,192,58002,1,0,0:0:0:0:
256,192,58280,1,8,0:0:0:0:
256,192,58836,1,8,0:0:0:0:
256,192,59113,1,0,0:0:0:0:
256,192,59391,5,0,0:0:0:0:
256,192,59669,1,8,0:0:0:0:
256,192,59947,1,8,0:0:0:0:
256,192,60225,1,0,0:0:0:0:
256,192,60780,1,8,0:0:0:0:
256,192,61058,1,0,0:0:0:0:
256,192,61336,1,8,0:0:0:0:
256,192,61475,1,8,0:0:0:0:
256,192,61613,1,8,0:0:0:0:
256,192,61891,1,8,0:0:0:0:
256,192,62447,1,0,0:0:0:0:
256,192,63002,1,8,0:0:0:0:
256,224,63280,1,8,0:0:0:0:
256,192,63419,1,0,0:0:0:0:
256,224,63836,1,0,0:0:0:0:
256,192,64113,1,8,0:0:0:0:
256,192,64391,1,8,0:0:0:0:
256,192,64530,1,8,0:0:0:0:
256,192,64947,1,0,0:0:0:0:
256,192,65225,1,8,0:0:0:0:
256,224,65502,1,0,0:0:0:0:
243,210,65641,1,0,0:0:0:0:
256,192,65780,1,0,0:0:0:0:
255,203,66058,1,0,0:0:0:0:
256,192,66336,1,8,0:0:0:0:
256,192,66613,1,8,0:0:0:0:
256,192,66891,1,0,0:0:0:0:
256,192,67447,1,0,0:0:0:0:
256,224,67725,1,8,0:0:0:0:
256,192,67863,1,8,0:0:0:0:
256,192,68280,1,0,0:0:0:0:
256,192,68558,1,8,0:0:0:0:
256,192,68836,1,8,0:0:0:0:
256,192,69113,1,0,0:0:0:0:
256,192,69669,1,8,0:0:0:0:
256,192,69947,1,0,0:0:0:0:
256,192,70225,1,8,0:0:0:0:
288,192,70363,1,8,0:0:0:0:
256,192,70502,1,8,0:0:0:0:
288,192,70780,1,8,0:0:0:0:
256,192,71058,1,8,0:0:0:0:
256,192,71336,1,0,0:0:0:0:
256,192,71891,1,0,0:0:0:0:
256,192,72169,1,8,0:0:0:0:
256,192,72308,1,8,0:0:0:0:
256,192,72725,1,8,0:0:0:0:
256,192,73002,1,0,0:0:0:0:
256,192,73280,1,8,0:0:0:0:
256,192,73558,1,0,0:0:0:0:
256,192,74113,1,8,0:0:0:0:
256,192,74391,1,8,0:0:0:0:
256,192,74669,1,0,0:0:0:0:
256,192,74947,1,8,0:0:0:0:
256,192,75225,1,0,0:0:0:0:
256,192,75502,1,0,0:0:0:0:
256,192,75780,1,8,0:0:0:0:
256,192,76613,1,0,0:0:0:0:
256,192,76891,1,8,0:0:0:0:
256,224,77169,1,0,0:0:0:0:
256,192,77447,1,8,0:0:0:0:
288,192,77725,1,8,0:0:0:0:
256,192,78002,1,4,0:0:0:0:
256,224,78419,1,0,0:0:0:0:
224,192,78836,1,12,0:0:0:0:
256,224,79252,1,8,0:0:0:0:
224,192,79669,1,8,0:0:0:0:
256,224,79808,1,8,0:0:0:0:
256,224,79947,1,8,0:0:0:0:
256,192,80225,1,4,0:0:0:0:
256,192,80502,1,8,0:0:0:0:
256,192,81058,1,8,0:0:0:0:
256,224,81336,1,0,0:0:0:0:
256,192,81613,1,8,0:0:0:0:
256,192,82169,1,8,0:0:0:0:
256,224,82447,1,0,0:0:0:0:
256,192,82725,1,8,0:0:0:0:
256,192,83280,1,0,0:0:0:0:
253,205,83558,1,8,0:0:0:0:
256,224,83836,1,0,0:0:0:0:
256,192,84113,1,8,0:0:0:0:
256,224,84391,1,8,0:0:0:0:
256,192,84669,1,4,0:0:0:0:
256,192,85225,1,8,0:0:0:0:
256,224,85780,1,0,0:0:0:0:
256,192,86058,1,8,0:0:0:0:
256,192,86197,1,8,0:0:0:0:
256,192,86336,1,8,0:0:0:0:
256,224,86613,1,0,0:0:0:0:
256,192,86891,1,12,0:0:0:0:
256,192,87447,1,8,0:0:0:0:
256,192,87725,1,0,0:0:0:0:
256,192,88002,1,8,0:0:0:0:
256,192,88280,1,0,0:0:0:0:
256,192,88558,1,8,0:0:0:0:
256,192,88836,1,8,0:0:0:0:
256,192,89113,1,4,0:0:0:0:
256,192,89391,1,8,0:0:0:0:
256,192,89947,1,8,0:0:0:0:
256,224,90225,1,0,0:0:0:0:
256,192,90502,1,8,0:0:0:0:
256,192,91058,1,8,0:0:0:0:
256,224,91336,1,0,0:0:0:0:
256,192,91613,1,8,0:0:0:0:
256,192,92169,1,8,0:0:0:0:
256,192,92447,1,8,0:0:0:0:
256,224,92725,1,0,0:0:0:0:
256,192,93002,1,8,0:0:0:0:
256,224,93280,1,8,0:0:0:0:
256,192,93558,1,4,0:0:0:0:
320,192,93975,1,8,0:0:0:0:
256,192,94391,1,8,0:0:0:0:
256,192,94669,1,0,0:0:0:0:
256,192,94808,1,0,0:0:0:0:
288,192,94947,1,0,0:0:0:0:
288,192,95225,1,8,0:0:0:0:
288,192,95502,1,8,0:0:0:0:
256,192,95780,1,4,0:0:0:0:
256,192,96336,1,12,0:0:0:0:
256,192,96891,1,4,0:0:0:0:
256,192,97169,1,0,0:0:0:0:
256,192,97308,1,0,0:0:0:0:
256,192,97447,1,8,0:0:0:0:
256,192,97725,1,8,0:0:0:0:
256,192,98002,1,4,0:0:0:0:
256,192,98558,1,8,0:0:0:0:
256,192,98836,1,0,0:0:0:0:
256,192,99113,1,0,0:0:0:0:
256,192,99391,1,8,0:0:0:0:
256,192,99530,1,8,0:0:0:0:
256,192,99669,1,8,0:0:0:0:
256,192,99947,1,8,0:0:0:0:
256,192,100225,1,0,0:0:0:0:
256,192,100780,1,8,0:0:0:0:
256,192,101058,1,0,0:0:0:0:
256,224,101336,1,0,0:0:0:0:
256,192,101613,1,0,0:0:0:0:
256,224,101752,1,0,0:0:0:0:
256,192,101891,1,8,0:0:0:0:
256,192,102169,1,8,0:0:0:0:
256,192,102447,1,4,0:0:0:0:
224,224,103002,1,8,0:0:0:0:
256,224,103280,1,0,0:0:0:0:
256,192,103558,1,0,0:0:0:0:
256,192,103836,1,8,0:0:0:0:
256,192,104391,1,8,0:0:0:0:
256,192,104669,1,0,0:0:0:0:
256,192,105225,1,0,0:0:0:0:
256,192,105502,1,0,0:0:0:0:
256,192,105780,1,8,0:0:0:0:
256,192,106058,1,0,0:0:0:0:
256,192,106336,1,8,0:0:0:0:
256,192,106613,1,8,0:0:0:0:
256,192,106891,1,4,0:0:0:0:
256,224,107447,1,8,0:0:0:0:
256,224,107725,1,0,0:0:0:0:
288,192,108002,1,0,0:0:0:0:
256,224,108280,1,8,0:0:0:0:
256,224,108419,1,8,0:0:0:0:
256,224,108558,1,8,0:0:0:0:
256,192,108836,1,8,0:0:0:0:
256,192,109113,1,0,0:0:0:0:
256,224,109669,1,8,0:0:0:0:
256,192,109947,1,0,0:0:0:0:
256,192,110225,1,0,0:0:0:0:
256,192,110502,1,8,0:0:0:0:
288,192,110641,1,8,0:0:0:0:
256,192,110780,1,8,0:0:0:0:
256,192,111058,1,0,0:0:0:0:
256,192,111336,1,12,0:0:0:0:
256,192,111891,1,8,0:0:0:0:
256,192,112169,1,0,0:0:0:0:
256,192,112447,1,0,0:0:0:0:
256,192,112725,1,8,0:0:0:0:
256,192,113280,1,8,0:0:0:0:
256,192,113558,1,4,0:0:0:0:
256,192,114113,1,4,0:0:0:0:
256,192,114669,1,12,0:0:0:0:
256,192,114936,1,0,0:0:0:0:
256,192,115204,1,8,0:0:0:0:
256,192,115472,1,8,0:0:0:0:
256,192,115740,1,0,0:0:0:0:
256,192,116141,1,0,0:0:0:0:
256,192,116276,1,0,0:0:0:0:
256,192,116544,1,12,0:0:0:0:
