osu file format v14

[General]
AudioFilename: audio.mp3
AudioLeadIn: 0
PreviewTime: 77725
Countdown: 0
SampleSet: Normal
StackLeniency: 0.7
Mode: 1
LetterboxInBreaks: 0
WidescreenStoryboard: 0

[Editor]
Bookmarks: 9103,26881,35770,53548
DistanceSpacing: 1.1
BeatDivisor: 4
GridSize: 32
TimelineZoom: 0.9

[Metadata]
Title:Kid Haud feat. Siriporn Ampaipong
TitleUnicode:คิดฮอด feat. ศิริพร อำไพพงษ์
Artist:Bodyslam
ArtistUnicode:Bodyslam
Creator:Blackener
Version:Phuenthan
Source:
Tags:บอดี้สแลม ตูน อาทิวราห์ คงมาลัย toon Artiwara Kongmalai ຄິດຮອດ คราม 2010 Kraam genie records GMM Grammy ไทย thai อีสาน northeast ลาว ພາສາລາວ lao rock
BeatmapID:1949546
BeatmapSetID:933865

[Difficulty]
HPDrainRate:8
CircleSize:5
OverallDifficulty:2
ApproachRate:5
SliderMultiplier:1.4
SliderTickRate:1

[Events]
//Background and Video events
0,0,"it's nuclear because the song is about disaster.jpg",0,-30
//Break Periods
//Storyboard Layer 0 (Background)
//Storyboard Layer 1 (Fail)
//Storyboard Layer 2 (Pass)
//Storyboard Layer 3 (Foreground)
//Storyboard Layer 4 (Overlay)
//Storyboard Sound Samples

[TimingPoints]
225,555.555555555556,4,1,0,60,1,0
26891,-100,4,1,0,70,0,0
53558,-100,4,1,0,75,0,0
80225,-95.2380952380952,4,1,0,80,0,1
97447,-95.2380952380952,4,1,0,80,0,0
98002,-95.2380952380952,4,1,0,80,0,1
114669,535.714285714286,4,1,0,80,1,9
114669,-97.0873786407767,4,1,0,80,0,1
115740,535.714285714286,4,1,0,80,1,0
115740,-97.0873786407767,4,1,0,80,0,0

[HitObjects]
256,192,225,5,8,0:0:0:0:
256,192,2447,1,8,0:0:0:0:
256,192,4669,1,8,0:0:0:0:
256,192,6891,1,8,0:0:0:0:
256,192,9113,1,0,0:0:0:0:
256,192,10225,1,8,0:0:0:0:
256,192,11336,1,0,0:0:0:0:
256,192,13558,1,0,0:0:0:0:
256,192,14669,1,0,0:0:0:0:
256,192,15780,1,8,0:0:0:0:
256,192,18002,1,0,0:0:0:0:
256,192,19113,1,8,0:0:0:0:
256,192,20225,1,0,0:0:0:0:
256,192,22447,1,0,0:0:0:0:
256,192,23558,1,8,0:0:0:0:
256,192,24669,1,8,0:0:0:0:
256,192,26891,1,0,0:0:0:0:
256,192,28002,1,8,0:0:0:0:
256,192,28558,1,8,0:0:0:0:
256,192,29113,1,0,0:0:0:0:
256,192,30225,1,8,0:0:0:0:
256,192,31336,1,0,0:0:0:0:
256,192,32447,1,0,0:0:0:0:
256,192,33002,1,0,0:0:0:0:
256,192,33558,1,8,0:0:0:0:
256,192,35780,1,0,0:0:0:0:
256,192,36891,1,8,0:0:0:0:
256,192,37447,1,8,0:0:0:0:
256,192,38002,1,0,0:0:0:0:
256,192,39113,1,8,0:0:0:0:
256,192,40225,1,0,0:0:0:0:
256,192,40780,1,8,0:0:0:0:
256,192,41336,1,0,0:0:0:0:
256,192,41891,1,0,0:0:0:0:
256,192,42447,1,8,0:0:0:0:
256,192,44669,1,0,0:0:0:0:
256,192,45780,1,8,0:0:0:0:
256,192,46336,1,8,0:0:0:0:
256,192,46891,1,0,0:0:0:0:
256,192,48002,1,8,0:0:0:0:
256,192,49113,1,0,0:0:0:0:
256,192,49669,1,0,0:0:0:0:
256,192,50225,1,8,0:0:0:0:
256,192,50780,1,8,0:0:0:0:
256,192,51336,1,0,0:0:0:0:
256,192,53002,1,8,0:0:0:0:
256,192,53558,1,4,0:0:0:0:
256,192,54669,1,0,0:0:0:0:
256,192,55225,1,8,0:0:0:0:
256,192,55780,1,0,0:0:0:0:
256,192,56891,1,0,0:0:0:0:
256,192,57447,1,8,0:0:0:0:
256,192,58002,1,0,0:0:0:0:
256,192,59113,1,8,0:0:0:0:
256,192,60225,1,0,0:0:0:0:
256,192,61891,1,8,0:0:0:0:
256,192,62447,1,0,0:0:0:0:
256,192,63558,1,8,0:0:0:0:
256,192,64113,1,0,0:0:0:0:
256,192,64669,1,8,0:0:0:0:
256,192,65780,1,0,0:0:0:0:
256,192,66336,1,8,0:0:0:0:
256,192,66891,1,0,0:0:0:0:
256,192,68002,1,8,0:0:0:0:
256,192,69113,1,0,0:0:0:0:
256,192,70780,1,8,0:0:0:0:
256,192,71336,1,0,0:0:0:0:
256,192,72447,1,8,0:0:0:0:
256,192,73002,1,8,0:0:0:0:
256,192,73558,1,0,0:0:0:0:
256,192,74669,1,0,0:0:0:0:
256,192,75225,1,0,0:0:0:0:
256,192,75780,5,8,0:0:0:0:
256,192,76891,1,8,0:0:0:0:
256,192,78002,1,4,0:0:0:0:
256,192,78836,1,12,0:0:0:0:
256,192,79669,1,8,0:0:0:0:
256,192,80225,1,4,0:0:0:0:
256,192,81336,1,8,0:0:0:0:
256,192,81891,1,8,0:0:0:0:
256,192,82447,1,8,0:0:0:0:
256,192,83002,1,0,0:0:0:0:
256,192,83558,1,8,0:0:0:0:
256,192,84113,1,8,0:0:0:0:
256,192,84669,1,4,0:0:0:0:
256,192,86336,1,0,0:0:0:0:
256,192,86891,1,8,0:0:0:0:
256,192,88002,1,8,0:0:0:0:
256,192,89113,1,4,0:0:0:0:
256,192,90225,1,8,0:0:0:0:
256,192,90780,1,8,0:0:0:0:
256,192,91336,1,8,0:0:0:0:
256,192,91891,1,0,0:0:0:0:
256,192,92447,1,8,0:0:0:0:
256,192,93002,1,8,0:0:0:0:
256,192,93558,1,4,0:0:0:0:
256,192,94669,1,8,0:0:0:0:
256,192,95780,1,0,0:0:0:0:
256,192,96336,1,8,0:0:0:0:
256,192,96891,1,8,0:0:0:0:
256,192,97447,1,8,0:0:0:0:
256,192,98002,1,4,0:0:0:0:
256,192,99113,1,8,0:0:0:0:
256,192,99669,1,8,0:0:0:0:
256,192,100225,1,0,0:0:0:0:
256,192,101336,1,0,0:0:0:0:
256,192,101891,1,8,0:0:0:0:
256,192,102447,1,4,0:0:0:0:
256,192,103558,1,0,0:0:0:0:
256,192,104669,1,8,0:0:0:0:
256,192,105780,1,8,0:0:0:0:
256,192,106336,1,8,0:0:0:0:
256,192,106891,1,4,0:0:0:0:
256,192,108002,1,0,0:0:0:0:
256,192,108558,1,8,0:0:0:0:
256,192,109113,1,0,0:0:0:0:
256,192,110225,1,0,0:0:0:0:
256,192,110780,1,0,0:0:0:0:
256,192,111336,1,12,0:0:0:0:
256,192,112447,1,0,0:0:0:0:
256,192,113558,1,8,0:0:0:0:
256,192,114113,1,0,0:0:0:0:
256,192,114669,1,8,0:0:0:0:
256,192,115204,1,8,0:0:0:0:
256,192,115740,1,0,0:0:0:0:
256,192,116544,1,12,0:0:0:0:
