osu file format v14

[General]
AudioFilename: audio.mp3
AudioLeadIn: 0
PreviewTime: 77725
Countdown: 0
SampleSet: Normal
StackLeniency: 0.7
Mode: 1
LetterboxInBreaks: 0
WidescreenStoryboard: 1

[Editor]
Bookmarks: 9103,26881,35770,53548,97992
DistanceSpacing: 1.1
BeatDivisor: 4
GridSize: 32
TimelineZoom: 1.3

[Metadata]
Title:Kid Haud feat. Siriporn Ampaipong
TitleUnicode:คิดฮอด feat. ศิริพร อำไพพงษ์
Artist:Bodyslam
ArtistUnicode:Bodyslam
Creator:Blackener
Version:Bakhlang
Source:
Tags:บอดี้สแลม ตูน อาทิวราห์ คงมาลัย toon Artiwara Kongmalai ຄິດຮອດ คราม 2010 Kraam genie records GMM Grammy ไทย thai อีสาน northeast ลาว ພາສາລາວ lao rock
BeatmapID:1950694
BeatmapSetID:933865

[Difficulty]
HPDrainRate:5
CircleSize:5
OverallDifficulty:5
ApproachRate:5
SliderMultiplier:1.4
SliderTickRate:1

[Events]
//Background and Video events
0,0,"it's nuclear because the song is about disaster.jpg",0,-30
//Break Periods
//Storyboard Layer 0 (Background)
//Storyboard Layer 1 (Fail)
//Storyboard Layer 2 (Pass)
//Storyboard Layer 3 (Foreground)
//Storyboard Layer 4 (Overlay)
//Storyboard Sound Samples

[TimingPoints]
225,555.555555555556,4,1,0,60,1,0
225,-111.111111111111,4,1,0,60,0,0
26891,-100,4,1,0,70,0,0
52551,-98.7654320987654,4,1,0,60,0,0
52689,-97.5609756097561,4,1,0,60,0,0
52828,-96.3855421686747,4,1,0,60,0,0
52967,-95.2380952380952,4,1,0,60,0,0
53106,-94.1176470588235,4,1,0,60,0,0
53245,-93.0232558139535,4,1,0,60,0,0
53384,-91.9540229885057,4,1,0,60,0,0
53523,-90.9090909090909,4,1,0,60,0,0
53558,-90.9090909090909,4,1,0,75,0,0
79773,-88.8888888888889,4,1,0,75,0,0
79912,-86.9565217391304,4,1,0,75,0,0
80051,-85.1063829787234,4,1,0,75,0,0
80189,-83.3333333333333,4,1,0,75,0,0
80225,-83.3333333333333,4,1,0,80,0,1
97447,-83.3333333333333,4,1,0,80,0,0
98002,-83.3333333333333,4,1,0,80,0,1
113488,-81.9672131147541,4,1,0,80,0,1
113766,-80.6451612903226,4,1,0,80,0,1
114043,-79.3650793650794,4,1,0,80,0,1
114321,-78.125,4,1,0,80,0,1
114669,535.714285714286,4,1,0,80,1,9
114669,-79.8084596967279,4,1,0,80,0,1
115740,535.714285714286,4,1,0,80,1,0
115740,-79.8084596967279,4,1,0,80,0,0

[HitObjects]
256,192,225,5,8,0:0:0:0:
256,192,363,1,0,0:0:0:0:
256,192,502,1,0,0:0:0:0:
256,192,641,1,8,0:0:0:0:
256,192,780,1,0,0:0:0:0:
256,192,1058,1,8,0:0:0:0:
256,192,2447,1,8,0:0:0:0:
256,192,2586,1,8,0:0:0:0:
256,192,2725,1,0,0:0:0:0:
256,192,2863,1,8,0:0:0:0:
256,192,3002,1,0,0:0:0:0:
256,192,3280,1,8,0:0:0:0:
256,192,4669,1,8,0:0:0:0:
256,224,4808,1,0,0:0:0:0:
256,192,4947,1,0,0:0:0:0:
256,192,5086,1,8,0:0:0:0:
256,192,5225,1,0,0:0:0:0:
256,192,5502,1,8,0:0:0:0:
256,192,6891,1,8,0:0:0:0:
256,192,7030,1,8,0:0:0:0:
256,192,7169,1,0,0:0:0:0:
256,192,7308,1,8,0:0:0:0:
256,192,7447,1,0,0:0:0:0:
256,192,7725,1,8,0:0:0:0:
256,192,9113,1,0,0:0:0:0:
256,192,9391,1,0,0:0:0:0:
256,192,9530,1,0,0:0:0:0:
256,192,9669,1,8,0:0:0:0:
256,224,9947,1,0,0:0:0:0:
256,192,10225,1,8,0:0:0:0:
256,192,10502,1,0,0:0:0:0:
256,192,10780,1,8,0:0:0:0:
256,192,11058,1,8,0:0:0:0:
256,192,11336,1,0,0:0:0:0:
288,192,11613,1,0,0:0:0:0:
256,192,11752,1,0,0:0:0:0:
256,192,11891,1,8,0:0:0:0:
256,224,12169,1,8,0:0:0:0:
256,224,12447,1,0,0:0:0:0:
256,192,12725,1,0,0:0:0:0:
256,192,13002,1,8,0:0:0:0:
256,192,13558,1,0,0:0:0:0:
256,192,13836,1,0,0:0:0:0:
256,192,13975,1,0,0:0:0:0:
256,192,14113,1,8,0:0:0:0:
256,192,14391,1,0,0:0:0:0:
256,192,14669,1,8,0:0:0:0:
256,192,14947,1,0,0:0:0:0:
288,192,15225,1,0,0:0:0:0:
256,192,15502,1,8,0:0:0:0:
256,192,15780,1,0,0:0:0:0:
256,192,16058,1,8,0:0:0:0:
256,192,16197,1,8,0:0:0:0:
256,192,16336,1,0,0:0:0:0:
256,192,16613,1,8,0:0:0:0:
224,192,17169,1,0,0:0:0:0:
224,192,17447,1,8,0:0:0:0:
224,192,17725,1,8,0:0:0:0:
256,192,18002,1,0,0:0:0:0:
224,192,18280,1,0,0:0:0:0:
224,192,18419,1,0,0:0:0:0:
256,192,18558,1,8,0:0:0:0:
256,224,18836,1,0,0:0:0:0:
224,224,19113,1,8,0:0:0:0:
256,192,19391,1,0,0:0:0:0:
256,192,19669,1,8,0:0:0:0:
256,192,19947,1,8,0:0:0:0:
256,192,20225,1,0,0:0:0:0:
256,192,20502,1,0,0:0:0:0:
256,192,20641,1,0,0:0:0:0:
256,192,20780,1,8,0:0:0:0:
256,224,21058,1,8,0:0:0:0:
256,224,21336,1,0,0:0:0:0:
256,192,21613,1,0,0:0:0:0:
256,192,21891,1,8,0:0:0:0:
256,192,22447,1,0,0:0:0:0:
256,192,22725,5,0,0:0:0:0:
256,192,22863,1,0,0:0:0:0:
256,192,23002,1,8,0:0:0:0:
224,224,23280,1,0,0:0:0:0:
256,192,23558,1,8,0:0:0:0:
256,192,23836,1,8,0:0:0:0:
256,192,24113,1,0,0:0:0:0:
256,224,24391,1,8,0:0:0:0:
256,192,24669,1,0,0:0:0:0:
256,224,24947,1,0,0:0:0:0:
256,192,25086,1,8,0:0:0:0:
256,224,25225,1,0,0:0:0:0:
256,224,25502,1,8,0:0:0:0:
256,192,26058,1,0,0:0:0:0:
256,192,26336,1,8,0:0:0:0:
256,192,26891,1,0,0:0:0:0:
256,192,27169,1,8,0:0:0:0:
256,192,27308,1,8,0:0:0:0:
256,192,27447,1,0,0:0:0:0:
256,192,27725,1,0,0:0:0:0:
256,192,28002,1,8,0:0:0:0:
256,192,28558,1,8,0:0:0:0:
256,192,28836,1,8,0:0:0:0:
256,192,29113,1,0,0:0:0:0:
256,192,29391,1,0,0:0:0:0:
256,192,29530,1,8,0:0:0:0:
256,192,29669,1,0,0:0:0:0:
256,192,29947,1,0,0:0:0:0:
256,192,30225,1,8,0:0:0:0:
256,192,30780,1,8,0:0:0:0:
256,192,31058,1,0,0:0:0:0:
256,192,31336,1,0,0:0:0:0:
256,192,31613,1,8,0:0:0:0:
256,192,31752,1,8,0:0:0:0:
256,192,31891,1,0,0:0:0:0:
256,192,32169,1,0,0:0:0:0:
256,192,32447,1,8,0:0:0:0:
256,192,33002,1,8,0:0:0:0:
256,192,33280,1,8,0:0:0:0:
256,192,33558,1,0,0:0:0:0:
224,192,33836,1,0,0:0:0:0:
256,192,33975,1,8,0:0:0:0:
256,192,34113,1,0,0:0:0:0:
224,192,34391,1,0,0:0:0:0:
256,224,34669,1,8,0:0:0:0:
256,224,34808,1,8,0:0:0:0:
256,224,34947,1,0,0:0:0:0:
256,224,35225,1,8,0:0:0:0:
256,192,35780,1,0,0:0:0:0:
256,224,36058,1,0,0:0:0:0:
256,224,36197,1,0,0:0:0:0:
256,192,36336,1,8,0:0:0:0:
256,192,36613,1,0,0:0:0:0:
256,224,36891,1,8,0:0:0:0:
256,224,37169,1,8,0:0:0:0:
256,224,37308,1,8,0:0:0:0:
224,224,37447,1,0,0:0:0:0:
256,192,37725,1,8,0:0:0:0:
256,192,38002,1,0,0:0:0:0:
256,192,38280,1,8,0:0:0:0:
256,192,38419,1,0,0:0:0:0:
256,192,38558,1,8,0:0:0:0:
256,192,38836,1,8,0:0:0:0:
256,192,39113,1,0,0:0:0:0:
256,192,39391,1,0,0:0:0:0:
256,192,39669,1,8,0:0:0:0:
288,224,40225,1,0,0:0:0:0:
256,224,40502,1,0,0:0:0:0:
256,224,40641,1,0,0:0:0:0:
256,224,40780,1,8,0:0:0:0:
256,192,41058,1,0,0:0:0:0:
256,192,41336,1,8,0:0:0:0:
288,224,41613,1,8,0:0:0:0:
256,192,41752,1,8,0:0:0:0:
256,192,41891,1,0,0:0:0:0:
256,224,42169,1,8,0:0:0:0:
256,224,42447,1,0,0:0:0:0:
256,224,43002,1,8,0:0:0:0:
256,224,43280,1,0,0:0:0:0:
256,192,43419,1,0,0:0:0:0:
256,192,43558,1,8,0:0:0:0:
256,224,43697,1,8,0:0:0:0:
256,192,43836,1,0,0:0:0:0:
256,192,44113,1,8,0:0:0:0:
256,224,44391,1,8,0:0:0:0:
256,192,44669,1,0,0:0:0:0:
256,224,44947,1,0,0:0:0:0:
256,224,45086,1,0,0:0:0:0:
256,192,45225,1,8,0:0:0:0:
256,224,45502,1,0,0:0:0:0:
256,192,45780,1,8,0:0:0:0:
288,192,46058,1,8,0:0:0:0:
288,192,46197,1,8,0:0:0:0:
256,192,46336,1,0,0:0:0:0:
256,192,46613,1,8,0:0:0:0:
256,224,46891,1,0,0:0:0:0:
288,192,47169,1,8,0:0:0:0:
256,192,47308,1,0,0:0:0:0:
256,192,47447,1,8,0:0:0:0:
256,192,47725,1,8,0:0:0:0:
256,192,48002,1,0,0:0:0:0:
256,224,48280,1,0,0:0:0:0:
256,192,48558,1,8,0:0:0:0:
256,192,49113,1,0,0:0:0:0:
256,192,49391,1,0,0:0:0:0:
256,192,49530,1,0,0:0:0:0:
256,224,49669,1,8,0:0:0:0:
256,224,49947,1,0,0:0:0:0:
256,192,50225,1,8,0:0:0:0:
256,192,50502,1,8,0:0:0:0:
224,192,50641,1,8,0:0:0:0:
256,224,50780,1,0,0:0:0:0:
256,192,51058,1,8,0:0:0:0:
256,192,51336,1,0,0:0:0:0:
256,192,51891,1,8,0:0:0:0:
256,192,52169,1,0,0:0:0:0:
256,192,52447,1,0,0:0:0:0:
256,192,52586,1,8,0:0:0:0:
256,192,52725,1,8,0:0:0:0:
256,192,53002,1,8,0:0:0:0:
288,192,53280,1,8,0:0:0:0:
256,192,53558,1,4,0:0:0:0:
256,192,54113,1,8,0:0:0:0:
256,224,54391,1,0,0:0:0:0:
256,224,54530,1,0,0:0:0:0:
256,192,54669,1,8,0:0:0:0:
288,192,54947,1,0,0:0:0:0:
256,224,55086,1,8,0:0:0:0:
256,192,55225,1,8,0:0:0:0:
256,224,55502,1,8,0:0:0:0:
256,192,55780,1,0,0:0:0:0:
256,224,56058,1,0,0:0:0:0:
256,224,56336,1,8,0:0:0:0:
256,192,56613,1,0,0:0:0:0:
256,224,56752,1,8,0:0:0:0:
256,224,56891,1,8,0:0:0:0:
256,224,57169,1,0,0:0:0:0:
224,224,57308,1,0,0:0:0:0:
256,192,57447,1,8,0:0:0:0:
256,192,57725,1,8,0:0:0:0:
256,192,58002,1,0,0:0:0:0:
256,192,58280,1,8,0:0:0:0:
256,192,58697,1,0,0:0:0:0:
224,192,58836,1,8,0:0:0:0:
256,192,59113,1,0,0:0:0:0:
256,192,59391,5,0,0:0:0:0:
256,192,59669,1,8,0:0:0:0:
256,192,59947,1,8,0:0:0:0:
256,192,60086,1,8,0:0:0:0:
256,192,60225,1,0,0:0:0:0:
256,192,60502,1,0,0:0:0:0:
256,192,60780,1,8,0:0:0:0:
256,192,61058,1,0,0:0:0:0:
256,192,61197,1,8,0:0:0:0:
256,192,61475,1,8,0:0:0:0:
256,192,61613,1,8,0:0:0:0:
256,192,61891,1,8,0:0:0:0:
256,192,62169,1,0,0:0:0:0:
256,192,62308,1,8,0:0:0:0:
256,192,62447,1,0,0:0:0:0:
256,192,63002,1,8,0:0:0:0:
256,224,63280,1,8,0:0:0:0:
256,192,63419,1,8,0:0:0:0:
256,192,63558,1,0,0:0:0:0:
256,224,63697,1,8,0:0:0:0:
256,224,63836,1,8,0:0:0:0:
256,192,64113,1,0,0:0:0:0:
256,192,64391,1,8,0:0:0:0:
256,192,64530,1,0,0:0:0:0:
256,192,64808,1,0,0:0:0:0:
256,192,64947,1,8,0:0:0:0:
256,192,65225,1,8,0:0:0:0:
256,224,65502,1,8,0:0:0:0:
256,192,65641,1,0,0:0:0:0:
256,192,65919,1,0,0:0:0:0:
255,203,66058,1,8,0:0:0:0:
256,192,66336,1,0,0:0:0:0:
256,192,66613,1,8,0:0:0:0:
256,192,66752,1,8,0:0:0:0:
255,203,66891,1,0,0:0:0:0:
256,192,67447,1,0,0:0:0:0:
256,192,67725,1,8,0:0:0:0:
256,192,67863,1,8,0:0:0:0:
256,192,68141,1,0,0:0:0:0:
256,192,68280,1,8,0:0:0:0:
256,192,68558,1,0,0:0:0:0:
256,192,68836,1,8,0:0:0:0:
256,224,68975,1,8,0:0:0:0:
256,224,69113,1,0,0:0:0:0:
256,192,69391,1,0,0:0:0:0:
256,192,69669,1,8,0:0:0:0:
256,224,69947,1,0,0:0:0:0:
256,192,70086,1,8,0:0:0:0:
256,192,70363,1,8,0:0:0:0:
256,192,70502,1,8,0:0:0:0:
288,192,70780,1,8,0:0:0:0:
256,192,71058,1,0,0:0:0:0:
256,192,71197,1,8,0:0:0:0:
256,192,71336,1,0,0:0:0:0:
256,192,71613,1,8,0:0:0:0:
256,192,71752,1,0,0:0:0:0:
256,192,71891,1,8,0:0:0:0:
256,192,72169,1,8,0:0:0:0:
256,192,72308,1,0,0:0:0:0:
256,192,72586,1,0,0:0:0:0:
256,192,72725,1,8,0:0:0:0:
256,192,73002,1,0,0:0:0:0:
256,192,73280,1,8,0:0:0:0:
256,192,73419,1,8,0:0:0:0:
256,192,73558,1,0,0:0:0:0:
256,192,74113,1,8,0:0:0:0:
256,192,74252,1,8,0:0:0:0:
256,192,74530,1,8,0:0:0:0:
256,192,74669,1,0,0:0:0:0:
256,192,74947,1,8,0:0:0:0:
256,192,75225,1,0,0:0:0:0:
256,192,75502,1,0,0:0:0:0:
256,192,75641,1,0,0:0:0:0:
256,192,75780,1,8,0:0:0:0:
256,192,76058,1,0,0:0:0:0:
256,192,76613,1,0,0:0:0:0:
256,192,76891,1,8,0:0:0:0:
256,192,77169,1,0,0:0:0:0:
256,192,77308,1,0,0:0:0:0:
256,192,77447,1,8,0:0:0:0:
256,192,77725,1,8,0:0:0:0:
256,192,78002,1,4,0:0:0:0:
256,192,78419,1,8,0:0:0:0:
256,192,78558,1,0,0:0:0:0:
256,192,78836,1,12,0:0:0:0:
256,192,79252,1,8,0:0:0:0:
256,192,79391,1,0,0:0:0:0:
256,192,79669,1,8,0:0:0:0:
256,192,79808,1,8,0:0:0:0:
256,192,79947,1,8,0:0:0:0:
256,192,80086,1,8,0:0:0:0:
256,192,80225,1,4,0:0:0:0:
256,192,80502,1,8,0:0:0:0:
256,192,80641,1,8,0:0:0:0:
256,192,80780,1,0,0:0:0:0:
256,192,81058,1,8,0:0:0:0:
256,192,81336,1,0,0:0:0:0:
256,192,81613,1,8,0:0:0:0:
256,192,81752,1,8,0:0:0:0:
256,192,81891,1,0,0:0:0:0:
256,192,82169,1,8,0:0:0:0:
256,224,82447,1,0,0:0:0:0:
256,192,82725,1,8,0:0:0:0:
256,192,82863,1,8,0:0:0:0:
256,192,83002,1,0,0:0:0:0:
256,192,83280,1,0,0:0:0:0:
253,205,83558,1,8,0:0:0:0:
256,224,83836,1,0,0:0:0:0:
256,224,83975,1,0,0:0:0:0:
256,192,84113,1,8,0:0:0:0:
256,224,84391,1,8,0:0:0:0:
256,192,84669,1,4,0:0:0:0:
256,192,85225,1,8,0:0:0:0:
256,192,85502,1,0,0:0:0:0:
256,224,85780,1,0,0:0:0:0:
256,192,86058,1,8,0:0:0:0:
256,192,86197,1,8,0:0:0:0:
256,192,86336,1,0,0:0:0:0:
256,224,86613,1,0,0:0:0:0:
256,192,86891,1,12,0:0:0:0:
256,192,87447,1,8,0:0:0:0:
256,192,87725,1,0,0:0:0:0:
256,192,88002,1,12,0:0:0:0:
224,224,88280,1,0,0:0:0:0:
256,192,88558,1,8,0:0:0:0:
256,192,88836,1,8,0:0:0:0:
256,192,89113,1,4,0:0:0:0:
256,192,89391,1,8,0:0:0:0:
256,192,89530,1,8,0:0:0:0:
256,192,89669,1,0,0:0:0:0:
256,192,89947,1,8,0:0:0:0:
256,224,90225,1,0,0:0:0:0:
256,192,90502,1,8,0:0:0:0:
256,192,90641,1,8,0:0:0:0:
256,192,90780,1,0,0:0:0:0:
256,192,91058,1,8,0:0:0:0:
256,224,91336,1,0,0:0:0:0:
256,192,91613,1,8,0:0:0:0:
256,192,91752,1,8,0:0:0:0:
256,192,91891,1,0,0:0:0:0:
256,192,92169,1,0,0:0:0:0:
256,192,92447,1,8,0:0:0:0:
256,224,92725,1,0,0:0:0:0:
256,224,92863,1,0,0:0:0:0:
256,192,93002,1,8,0:0:0:0:
256,224,93280,1,8,0:0:0:0:
256,192,93558,1,4,0:0:0:0:
320,192,93975,1,8,0:0:0:0:
288,192,94113,1,0,0:0:0:0:
256,192,94391,1,8,0:0:0:0:
288,160,94669,1,0,0:0:0:0:
288,192,94808,1,0,0:0:0:0:
288,192,94947,1,0,0:0:0:0:
288,192,95225,1,8,0:0:0:0:
288,192,95502,1,8,0:0:0:0:
256,192,95780,1,4,0:0:0:0:
288,192,96336,1,12,0:0:0:0:
256,192,96891,1,4,0:0:0:0:
256,192,97169,1,0,0:0:0:0:
256,224,97308,1,0,0:0:0:0:
256,192,97447,1,8,0:0:0:0:
256,224,97586,1,8,0:0:0:0:
256,224,97725,1,8,0:0:0:0:
256,192,98002,1,4,0:0:0:0:
256,192,98280,1,0,0:0:0:0:
256,192,98419,1,0,0:0:0:0:
256,224,98558,1,8,0:0:0:0:
256,224,98836,1,0,0:0:0:0:
256,192,99113,1,0,0:0:0:0:
256,224,99391,1,8,0:0:0:0:
256,224,99530,1,8,0:0:0:0:
256,192,99669,1,0,0:0:0:0:
256,192,99947,1,8,0:0:0:0:
256,192,100225,1,0,0:0:0:0:
256,224,100502,1,0,0:0:0:0:
288,224,100641,1,0,0:0:0:0:
256,192,100780,1,8,0:0:0:0:
256,192,101058,1,0,0:0:0:0:
256,224,101336,1,0,0:0:0:0:
256,192,101613,1,0,0:0:0:0:
256,224,101752,1,0,0:0:0:0:
256,192,101891,1,8,0:0:0:0:
256,224,102030,1,8,0:0:0:0:
256,192,102169,1,8,0:0:0:0:
256,192,102447,1,4,0:0:0:0:
256,192,103002,1,8,0:0:0:0:
256,192,103280,1,0,0:0:0:0:
256,192,103419,1,0,0:0:0:0:
256,192,103558,1,0,0:0:0:0:
224,192,103836,1,0,0:0:0:0:
256,192,104113,1,8,0:0:0:0:
256,192,104391,1,8,0:0:0:0:
256,192,104669,1,4,0:0:0:0:
256,192,104947,1,8,0:0:0:0:
256,192,105225,1,0,0:0:0:0:
256,224,105502,1,0,0:0:0:0:
256,192,105780,1,12,0:0:0:0:
256,224,106058,1,0,0:0:0:0:
256,192,106336,1,8,0:0:0:0:
256,224,106613,1,8,0:0:0:0:
256,192,106891,1,4,0:0:0:0:
256,192,107169,1,0,0:0:0:0:
256,192,107308,1,0,0:0:0:0:
256,224,107447,1,8,0:0:0:0:
256,224,107725,1,0,0:0:0:0:
288,192,108002,1,0,0:0:0:0:
256,224,108280,1,8,0:0:0:0:
256,224,108419,1,0,0:0:0:0:
256,224,108558,1,8,0:0:0:0:
256,192,108836,1,0,0:0:0:0:
256,192,109113,1,0,0:0:0:0:
256,224,109391,1,0,0:0:0:0:
256,224,109530,1,8,0:0:0:0:
256,224,109669,1,8,0:0:0:0:
256,192,109947,1,0,0:0:0:0:
256,192,110225,1,0,0:0:0:0:
256,224,110502,1,8,0:0:0:0:
256,192,110641,1,0,0:0:0:0:
256,224,110780,1,8,0:0:0:0:
288,192,110919,1,8,0:0:0:0:
256,192,111058,1,0,0:0:0:0:
256,192,111336,1,12,0:0:0:0:
256,192,111891,1,8,0:0:0:0:
256,192,112169,1,0,0:0:0:0:
288,192,112308,1,0,0:0:0:0:
256,192,112447,1,0,0:0:0:0:
256,192,112725,1,0,0:0:0:0:
256,192,113002,1,8,0:0:0:0:
256,192,113280,1,8,0:0:0:0:
256,192,113558,1,4,0:0:0:0:
256,192,113836,1,8,0:0:0:0:
256,192,114113,1,4,0:0:0:0:
256,224,114391,1,0,0:0:0:0:
256,192,114669,1,12,0:0:0:0:
256,192,114936,1,0,0:0:0:0:
256,224,115070,1,0,0:0:0:0:
256,192,115204,1,8,0:0:0:0:
256,192,115472,1,8,0:0:0:0:
256,192,115740,1,4,0:0:0:0:
224,192,116008,1,0,0:0:0:0:
224,192,116142,1,8,0:0:0:0:
224,224,116276,1,0,0:0:0:0:
256,192,116544,1,12,0:0:0:0:
