osu file format v14

[General]
AudioFilename: Bobby Trafalgar - Kung Fu Girl.mp3
AudioLeadIn: 0
PreviewTime: 41215
Countdown: 1
SampleSet: Normal
StackLeniency: 0.7
Mode: 0
LetterboxInBreaks: 0
WidescreenStoryboard: 0

[Editor]
DistanceSpacing: 2
BeatDivisor: 4
GridSize: 8
TimelineZoom: 3.399999

[Metadata]
Title:Kung Fu Girl
TitleUnicode:Kung Fu Girl
Artist:Bobby Trafalgar
ArtistUnicode:Bobby Trafalgar
Creator:Nube
Version:Chinga chinga chinga
Source:
Tags:
BeatmapID:845340
BeatmapSetID:387290

[Difficulty]
HPDrainRate:6
CircleSize:4.2
OverallDifficulty:8
ApproachRate:9.2
SliderMultiplier:2
SliderTickRate:1

[Events]
//Background and Video events
0,0,"chinga.png",0,0
//Break Periods
//Storyboard Layer 0 (Background)
//Storyboard Layer 1 (Fail)
//Storyboard Layer 2 (Pass)
//Storyboard Layer 3 (Foreground)
//Storyboard Sound Samples

[TimingPoints]
6930,389.61038961039,4,1,0,69,1,0
28748,-133.333333333333,4,1,0,69,0,0
41215,-66.6666666666667,4,1,0,69,0,0
47449,-133.333333333333,4,1,0,69,0,0

[HitObjects]
296,167,6930,6,0,P|203:134|106:150,1,200
446,34,7514,2,0,P|375:52|291:37,1,150
232,61,7904,1,0,0:0:0:0:
397,189,8098,2,0,B|499:196,1,100
485,266,8391,1,0,0:0:0:0:
485,266,8488,6,0,P|440:299|395:304,1,100
81,162,8878,1,0,0:0:0:0:
217,132,9072,1,0,0:0:0:0:
175,264,9267,2,0,L|169:377,1,100
485,266,9657,1,0,0:0:0:0:
27,118,9852,1,0,0:0:0:0:
255,31,10046,6,0,B|325:18|325:18|465:43,1,200
255,256,10631,2,0,B|256:258|256:258|253:297|215:283|221:264|221:264|248:225|230:180,1,150
211,146,11020,1,0,0:0:0:0:
426,24,11215,2,0,L|440:141,1,100
485,175,11507,1,0,0:0:0:0:
485,175,11605,6,0,L|477:292,1,100
163,192,11994,1,0,0:0:0:0:
163,192,12189,2,0,B|158:138|158:138|171:94,1,100
305,49,12579,1,0,0:0:0:0:
228,363,12774,1,0,0:0:0:0:
476,215,12968,1,0,0:0:0:0:
168,266,13163,6,0,P|102:236|92:165,1,150
135,109,13553,2,0,L|250:95,1,100
476,215,13942,2,0,L|322:202,1,150
273,248,14332,2,0,L|259:306,1,50
107,347,14527,1,0,0:0:0:0:
107,347,14624,1,0,0:0:0:0:
107,347,14722,6,0,L|92:248,1,100
262,30,15111,2,0,L|277:129,1,100
393,346,15501,2,0,P|386:296|401:249,1,100
455,199,15793,2,0,L|448:152,2,25
492,309,16085,1,0,0:0:0:0:
214,276,16280,6,0,P|137:266|52:293,1,150
34,222,16670,2,0,B|21:174|21:174|28:117,1,100
348,89,17059,2,0,P|279:109|187:96,1,150
137,73,17449,2,0,L|131:19,1,50
275,197,17644,1,0,0:0:0:0:
275,197,17741,1,0,0:0:0:0:
275,197,17839,6,0,L|262:307,1,100
177,148,18228,2,0,P|207:108|252:90,1,100
439,297,18618,1,0,0:0:0:0:
395,272,18715,1,0,0:0:0:0:
346,266,18813,2,0,L|269:277,1,50
79,152,19007,1,0,0:0:0:0:
128,157,19104,1,0,0:0:0:0:
177,148,19202,2,0,L|234:116,1,50
392,24,19397,6,0,L|406:181,1,150
335,189,19787,2,0,P|289:205|239:210,1,100
46,350,20176,2,0,P|117:327|190:342,1,150
258,324,20566,2,0,L|320:316,1,50
465,238,20761,1,0,0:0:0:0:
465,238,20858,1,0,0:0:0:0:
465,238,20955,6,0,L|365:224,1,100
147,103,21345,2,0,L|130:215,1,100
388,151,21735,2,0,L|372:52,1,100
304,35,22027,2,0,L|262:22,2,25
480,14,22319,1,0,0:0:0:0:
237,177,22514,6,0,P|287:147|277:217,1,150
365,246,22904,2,0,L|467:237,1,100
259,289,23293,2,0,P|209:259|219:330,1,150
125,352,23683,2,0,L|75:349,1,50
14,225,23878,1,0,0:0:0:0:
14,225,23975,1,0,0:0:0:0:
14,225,24072,6,0,L|124:211,1,100
379,86,24462,2,0,P|329:157|333:222,1,150
242,348,24852,2,0,P|250:299|239:250,1,100
189,201,25144,2,0,L|193:155,2,25
65,267,25436,1,0,0:0:0:0:
436,312,25631,1,0,0:0:0:0:
256,192,25728,12,0,28553,0:0:0:0:
324,285,28748,6,0,L|336:169,1,112.500004291535
299,107,29137,2,0,L|293:27,1,75.0000028610231
131,117,29527,2,0,P|108:79|152:86,1,112.500004291535
199,146,29917,2,0,L|204:220,1,75.0000028610231
236,289,30209,1,0,0:0:0:0:
236,289,30306,6,0,P|280:302|321:298,1,75.0000028610231
428,209,30696,2,0,P|370:202|341:205,1,75.0000028610231
302,99,31085,2,0,P|289:69|321:67,1,75.0000028610231
376,120,31378,2,0,L|408:113,2,18.7500007152558
246,196,31670,1,0,0:0:0:0:
105,141,31865,6,0,P|83:186|94:251,1,112.500004291535
156,282,32254,2,0,L|148:363,1,75.0000028610231
282,286,32644,2,0,P|326:274|349:338,1,112.500004291535
427,342,33033,2,0,L|472:348,2,37.5000014305115
423,296,33326,1,0,0:0:0:0:
438,253,33423,6,0,P|448:220|473:186,1,75.0000028610231
259,71,33813,2,0,P|271:125|257:179,1,112.500004291535
193,219,34202,2,0,P|230:219|261:239,1,75.0000028610231
308,299,34494,2,0,L|298:331,2,18.7500007152558
350,154,34787,1,0,0:0:0:0:
114,296,34981,6,0,P|81:251|80:195,1,112.500004291535
122,133,35371,1,0,0:0:0:0:
375,228,35566,1,0,0:0:0:0:
375,228,35761,2,0,P|337:207|345:261,1,112.500004291535
386,310,36150,2,0,L|466:302,1,75.0000028610231
494,234,36442,1,0,0:0:0:0:
494,234,36540,6,0,P|490:178|483:153,1,75.0000028610231
231,91,36930,1,0,0:0:0:0:
356,9,37124,1,0,0:0:0:0:
375,228,37319,2,0,L|371:302,1,75.0000028610231
165,355,37709,1,0,0:0:0:0:
227,218,37904,1,0,0:0:0:0:
99,136,38098,6,0,B|74:84|74:84|83:24,1,112.500004291535
82,29,38488,1,0,0:0:0:0:
21,154,38683,1,0,0:0:0:0:
21,154,38878,2,0,B|46:206|46:206|37:260,1,112.500004291535
61,329,39267,2,0,P|80:346|103:356,1,50.0000019073487
249,331,39559,1,0,0:0:0:0:
249,331,39657,6,0,L|240:211,1,100.000003814697
304,153,40046,2,0,P|341:151|377:160,1,75.0000028610231
166,176,40436,2,0,L|158:83,1,75.0000028610231
159,101,40826,1,0,0:0:0:0:
304,153,41020,1,0,0:0:0:0:
24,240,41215,5,0,0:0:0:0:
488,224,41410,1,0,0:0:0:0:
16,112,41605,1,0,0:0:0:0:
496,88,41800,1,0,0:0:0:0:
208,24,41994,2,0,B|181:108|181:108|191:243,1,225.000008583069
335,300,42384,2,0,L|340:142,1,150.000005722046
388,24,42774,5,0,0:0:0:0:
429,352,42968,1,0,0:0:0:0:
241,9,43163,1,0,0:0:0:0:
199,361,43358,1,0,0:0:0:0:
40,167,43553,2,0,P|138:122|235:170,1,225.000008583069
333,348,43942,2,0,L|343:198,1,150.000005722046
451,122,44332,5,0,0:0:0:0:
10,98,44527,1,0,0:0:0:0:
501,249,44722,1,0,0:0:0:0:
1,308,44917,1,0,0:0:0:0:
239,353,45111,2,0,L|259:125,1,225.000008583069
90,35,45501,2,0,L|99:192,1,150.000005722046
65,316,45891,5,0,0:0:0:0:
428,72,46085,1,0,0:0:0:0:
14,178,46280,1,0,0:0:0:0:
485,210,46475,1,0,0:0:0:0:
274,84,46670,2,0,B|188:63|188:63|50:84,1,225.000008583069
189,320,47059,2,0,L|182:171,1,150.000005722046
343,287,47449,6,0,P|377:305|334:302,1,112.500004291535
279,248,47839,2,0,L|277:159,1,75.0000028610231
