osu file format v14

[General]
AudioFilename: audio.mp3
AudioLeadIn: 0
PreviewTime: 45242
Countdown: 0
SampleSet: Soft
StackLeniency: 0.9
Mode: 0
LetterboxInBreaks: 0
WidescreenStoryboard: 1

[Editor]
Bookmarks: 15236,30354,45472,60590,75708,90826,105944,121062,136180,151299,166417,181535,196417
DistanceSpacing: 1.3
BeatDivisor: 8
GridSize: 4
TimelineZoom: 2.9

[Metadata]
Title:World, Hold On
TitleUnicode:World, Hold On
Artist:Bob Sinclar feat. Steve Edwards
ArtistUnicode:Bob Sinclar feat. Steve Edwards
Creator:narakucrimson
Version:Normal
Source:
Tags:english electronic Western Dream
BeatmapID:2473030
BeatmapSetID:1043944

[Difficulty]
HPDrainRate:3
CircleSize:3.3
OverallDifficulty:3
ApproachRate:5.2
SliderMultiplier:1.2
SliderTickRate:1

[Events]
//Background and Video events
0,0,"galaxy-space-light-stars-nebula-652425-wallhere.com.jpg",0,0
Video,-1080,"11111.mp4"
//Break Periods
2,60796,74544
//Storyboard Layer 0 (Background)
//Storyboard Layer 1 (Fail)
//Storyboard Layer 2 (Pass)
//Storyboard Layer 3 (Foreground)
//Storyboard Layer 4 (Overlay)
//Storyboard Sound Samples

[TimingPoints]
124,472.44094488189,4,2,0,80,1,0
45478,-100,4,2,0,100,0,1
60596,-100,4,2,0,80,0,0
105950,-100,4,2,0,80,0,1
117289,-100,4,2,0,100,0,1
121068,-125,4,2,0,50,0,0
136127,-125,4,2,0,70,0,0
147466,-100,4,2,0,70,0,0
149474,-100,4,2,0,80,0,0
166423,-100,4,2,0,100,0,1
181423,-100,4,2,0,100,0,0
181541,-100,4,2,0,100,0,1
196423,-100,4,2,0,50,0,0

[Colours]
Combo1 : 192,123,202
Combo2 : 78,173,108
Combo3 : 134,114,194
Combo4 : 124,197,186

[HitObjects]
284,272,124,6,0,P|336:288|400:280,1,120,0|8,3:0|0:1,0:0:0:0:
352,132,1068,1,0,3:0:0:0:
224,220,1541,2,0,L|162:223,1,60,8|2,0:1|0:0,0:0:0:0:
96,188,2013,6,0,P|92:128|111:71,1,120,0|8,3:0|0:1,0:0:0:0:
256,16,2958,1,0,3:0:0:0:
256,16,3431,2,0,L|252:77,1,60,8|2,0:1|0:0,0:0:0:0:
312,128,3903,6,0,L|432:121,1,120,0|8,3:0|0:1,0:0:0:0:
368,264,4848,2,0,L|247:270,1,120,0|8,3:0|0:1,0:0:0:0:
384,344,5793,6,0,P|401:339|447:252,1,120,0|8,3:0|0:1,0:0:0:0:
308,188,6738,2,0,L|248:191,2,60,0|2|8,3:0|0:0|0:1,0:0:0:0:
385,195,7446,1,2,0:0:0:0:
457,167,7683,6,0,P|457:123|445:79,2,90,0|2|2,3:0|0:0|0:0,0:0:0:0:
446,243,8627,1,0,3:0:0:0:
340,360,9100,2,0,P|308:360|280:348,1,60,8|2,0:1|0:0,0:0:0:0:
212,320,9572,6,0,L|122:324,2,90,0|2|2,3:0|0:0|0:0,0:0:0:0:
273,274,10517,1,0,3:0:0:0:
348,136,10990,1,8,0:1:0:0:
200,180,11462,6,0,B|167:193|139:182|145:175|117:163|83:177,1,120,0|8,3:0|0:1,0:0:0:0:
32,236,12171,1,2,0:0:0:0:
64,308,12407,2,0,P|104:308|124:300,1,60,0|2,3:0|0:0,0:0:0:0:
196,272,12879,2,0,P|224:263|254:264,1,60,8|2,3:1|0:0,0:0:0:0:
332,276,13352,6,0,P|362:225|308:124,1,180,4|0,3:0|0:0,0:0:0:0:
236,136,14297,2,2,P|250:79|299:48,1,120,2|8,3:2|3:2,0:0:0:0:
452,76,15242,5,4,3:0:0:0:
452,76,15714,2,0,P|432:132|436:191,1,120,8|0,0:1|3:2,0:0:0:0:
356,324,16659,2,2,L|296:327,1,60,8|2,0:1|0:0,0:0:0:0:
228,288,17131,6,0,L|108:281,2,120,4|8|2,3:0|0:1|3:2,0:0:0:0:
292,244,18312,1,2,0:0:0:0:
325,173,18549,2,2,L|322:113,1,60,8|2,0:1|0:0,0:0:0:0:
276,48,19021,6,2,L|186:52,2,90,4|2|2,3:0|0:0|0:0,0:0:0:0:
354,43,19966,1,0,3:0:0:0:
456,160,20438,1,8,0:1:0:0:
351,276,20911,6,0,L|347:366,2,90,4|2|2,3:0|0:0|0:0,0:0:0:0:
376,200,21856,2,0,P|339:198|316:204,1,60,0|2,3:0|0:0,0:0:0:0:
249,240,22328,2,0,P|221:264|210:285,1,60,8|2,0:1|0:0,0:0:0:0:
168,352,22801,6,0,P|112:357|60:316,1,120,4|8,3:0|0:1,0:0:0:0:
184,220,23746,2,0,L|243:217,1,60,0|2,3:0|0:0,0:0:0:0:
320,212,24218,2,0,L|379:209,1,60,8|2,0:1|0:0,0:0:0:0:
452,180,24690,6,2,P|464:136|452:64,1,120,4|8,3:0|0:1,0:0:0:0:
300,20,25635,2,0,P|288:64|300:136,1,120,0|8,3:0|0:1,0:0:0:0:
332,208,26344,1,2,0:0:0:0:
264,244,26580,6,0,L|144:251,1,120,4|8,3:0|0:1,0:0:0:0:
208,108,27525,2,0,L|329:102,1,120,0|8,3:0|0:1,0:0:0:0:
404,96,28234,1,2,0:0:0:0:
448,32,28470,5,4,3:0:0:0:
292,12,28942,1,8,0:1:0:0:
196,137,29415,1,2,3:2:0:0:
100,262,29887,1,8,0:1:0:0:
255,274,30360,6,0,L|259:364,2,90,4|2|2,3:0|0:0|0:0,0:0:0:0:
252,195,31305,1,0,3:0:0:0:
376,100,31777,2,0,P|405:106|434:103,1,60,8|2,0:1|0:0,0:0:0:0:
460,176,32249,6,2,P|400:184|342:168,1,120,4|8,3:0|0:1,0:0:0:0:
272,132,32958,1,2,0:0:0:0:
200,94,33194,2,2,P|143:79|84:88,1,120,0|8,3:0|0:1,0:0:0:0:
100,244,34139,6,0,B|140:248|140:248|176:240|176:240|218:243,1,120,4|8,3:0|0:1,0:0:0:0:
296,260,34848,1,2,0:0:0:0:
360,308,35084,2,0,P|376:251|349:200,1,120,0|8,3:0|0:1,0:0:0:0:
200,152,36029,6,0,P|172:100|189:43,1,120,4|8,3:0|0:1,0:0:0:0:
256,0,36738,1,2,0:0:0:0:
322,43,36974,2,0,P|339:100|312:152,1,120,0|8,3:0|0:1,0:0:0:0:
188,244,37919,6,0,L|98:240,2,90,4|2|2,3:0|0:0|0:0,0:0:0:0:
260,272,38864,2,0,L|319:275,1,60,0|2,3:0|0:0,0:0:0:0:
396,280,39336,1,8,0:1:0:0:
368,128,39809,6,0,P|336:84|276:60,1,120,4|8,3:0|0:1,0:0:0:0:
124,4,40753,2,2,P|101:53|111:117,1,120,2|8,3:2|0:1,0:0:0:0:
138,277,41698,6,2,P|174:261|207:215,2,90,4|2|2,3:0|0:0|0:0,0:0:0:0:
68,240,42643,1,0,3:0:0:0:
62,162,42879,2,0,L|65:103,1,60,2|8,0:0|0:1,0:0:0:0:
219,77,43588,6,0,L|225:199,1,120,4|8,3:0|0:1,0:0:0:0:
376,236,44533,1,4,3:0:0:0:
316,92,45005,1,8,0:0:0:0:
446,177,45478,6,0,P|468:228|404:324,1,180,4|0,3:2|0:0,0:0:0:0:
328,312,46423,2,2,B|288:308|288:308|252:316|252:316|209:312,1,120,2|8,3:2|0:1,0:0:0:0:
100,204,47368,6,0,B|140:180|192:200|176:224|228:244|268:220,1,180,4|0,3:2|0:0,0:0:0:0:
234,149,48312,2,2,B|230:109|230:109|238:73|238:73|234:30,1,120,2|8,3:2|0:1,0:0:0:0:
80,12,49257,6,0,B|83:54|83:54|75:90|75:90|79:130,1,120,4|8,3:2|0:1,0:0:0:0:
88,208,49966,1,0,0:0:0:0:
40,268,50202,2,0,P|40:332|72:376,1,120,2|8,3:2|0:1,0:0:0:0:
224,332,51147,6,0,P|224:268|192:224,1,120,4|8,3:2|0:1,0:0:0:0:
140,168,51856,1,0,0:0:0:0:
184,104,52092,2,2,L|243:107,1,60,2|0,3:2|0:0,0:0:0:0:
320,108,52564,1,8,0:1:0:0:
364,260,53037,6,0,L|274:264,2,90,4|2|2,3:2|0:0|0:0,0:0:0:0:
444,256,53982,1,0,0:0:0:0:
432,100,54454,2,0,P|411:112|371:120,1,60,8|2,0:1|0:0,0:0:0:0:
300,132,54927,6,0,P|288:152|276:220,2,90,4|2|2,3:2|0:0|0:0,0:0:0:0:
328,60,55872,1,0,3:0:0:0:
177,35,56344,2,0,L|174:94,1,60,8|2,0:1|0:0,0:0:0:0:
168,172,56816,5,4,3:2:0:0:
220,320,57289,1,8,0:1:0:0:
368,268,57761,1,0,3:0:0:0:
316,120,58234,1,8,0:1:0:0:
163,149,58706,6,0,P|151:177|151:207,1,60,4|2,3:2|0:0,0:0:0:0:
185,276,59179,2,0,P|208:296|236:304,1,60,8|2,0:1|0:0,0:0:0:0:
312,294,59651,2,0,P|338:278|355:254,1,60,0|2,3:0|0:0,0:0:0:0:
369,180,60124,2,0,P|362:149|344:126,1,60,8|2,0:1|0:0,0:0:0:0:
277,91,60596,1,4,3:2:0:0:
71,242,75714,5,4,3:0:0:0:
71,242,76186,2,0,P|51:186|55:127,1,120,8|0,0:1|3:0,0:0:0:0:
191,50,77131,1,8,0:1:0:0:
323,133,77604,6,0,P|327:192|307:248,1,120,4|8,3:0|0:1,0:0:0:0:
160,300,78549,2,0,L|101:303,2,60,0|2|8,3:1|0:0|0:1,0:0:0:0:
272,188,79494,6,0,P|288:152|292:100,2,90,4|2|2,3:0|0:0|0:0,0:0:0:0:
204,228,80438,2,0,P|164:232|117:254,2,90,0|2|2,3:0|0:0|0:0,0:0:0:0:
272,266,81383,6,0,P|295:297|338:327,2,90,4|2|2,3:0|0:0|0:0,0:0:0:0:
272,188,82328,2,0,P|284:164|286:125,1,60,0|2,3:0|0:0,0:0:0:0:
236,72,82801,2,0,P|224:48|221:9,1,60,8|2,0:1|0:0,0:0:0:0:
300,24,83273,5,4,3:0:0:0:
436,100,83746,2,0,B|439:127|436:166|420:150|416:190|420:217,1,120,8|0,0:1|3:0,0:0:0:0:
432,296,84454,1,2,0:0:0:0:
372,348,84690,2,0,L|313:345,1,60,8|2,0:1|0:0,0:0:0:0:
232,340,85163,5,4,3:0:0:0:
140,216,85635,1,8,0:1:0:0:
280,152,86108,2,0,B|322:155|322:155|358:147|358:147|398:151,1,120,2|8,3:2|0:1,0:0:0:0:
264,72,87053,6,0,P|214:103|200:160,1,120,4|8,3:0|0:1,0:0:0:0:
208,316,87998,2,0,L|216:376,1,60,0|2,3:0|0:0,0:0:0:0:
296,375,88470,2,0,L|304:315,1,60,8|2,0:1|0:0,0:0:0:0:
256,256,88942,5,4,3:0:0:0:
112,196,89415,2,0,P|96:252|112:312,1,120,8|0,0:1|3:0,0:0:0:0:
256,256,90360,1,8,0:1:0:0:
400,310,90832,6,0,P|416:253|400:196,1,120,4|8,3:0|0:1,0:0:0:0:
352,132,91541,1,2,0:0:0:0:
284,172,91777,2,0,L|225:175,1,60,0|2,3:0|0:0,0:0:0:0:
148,180,92249,1,8,0:1:0:0:
68,44,92722,6,0,P|124:76|180:68,1,120,4|8,3:0|0:1,0:0:0:0:
248,36,93431,1,0,0:0:0:0:
308,88,93667,1,2,3:2:0:0:
452,32,94139,1,8,0:1:0:0:
428,184,94612,6,0,L|308:177,2,120,4|8|0,3:0|0:1|3:0,0:0:0:0:
500,216,95793,1,2,0:0:0:0:
484,292,96029,2,0,P|468:317|445:336,1,60,8|2,3:1|0:0,0:0:0:0:
372,364,96501,6,0,L|252:357,1,120,4|8,3:0|0:1,0:0:0:0:
152,240,97446,2,0,L|246:234,2,90,0|2|2,3:0|0:0|0:0,0:0:0:0:
80,208,98391,6,0,P|77:178|83:149,1,60,4|0,3:0|0:0,0:0:0:0:
120,80,98864,2,0,P|138:56|164:41,1,60,8|2,0:1|0:0,0:0:0:0:
238,17,99336,2,0,P|267:13|296:20,1,60,0|2,3:0|0:0,0:0:0:0:
365,55,99809,2,0,P|388:73|403:99,1,60,8|2,0:1|0:0,0:0:0:0:
460,156,100281,6,0,P|441:212|445:272,2,120,4|8|2,3:0|0:1|3:2,0:0:0:0:
360,36,101698,2,0,P|356:65|362:94,1,60,8|2,0:1|0:0,0:0:0:0:
288,116,102171,6,0,P|280:88|282:26,2,90,4|2|2,3:0|0:0|0:0,0:0:0:0:
320,188,103116,1,0,3:0:0:0:
316,264,103352,2,0,L|313:323,1,60,2|8,0:0|0:1,0:0:0:0:
164,376,104061,5,4,3:0:0:0:
70,250,104533,1,8,0:1:0:0:
160,121,105005,1,2,3:2:0:0:
310,166,105478,1,8,0:1:0:0:
313,322,105950,6,0,P|365:349|424:345,1,120,4|8,3:2|0:1,0:0:0:0:
480,289,106659,1,0,0:0:0:0:
432,228,106895,2,2,B|392:224|392:224|356:232|356:232|312:228,1,120,2|8,3:2|0:1,0:0:0:0:
160,256,107840,6,0,P|160:184|184:144,1,120,4|8,3:2|0:1,0:0:0:0:
236,84,108549,1,0,0:0:0:0:
160,68,108785,2,2,B|120:72|120:72|84:64|84:64|41:67,1,120,2|8,3:2|0:1,0:0:0:0:
176,148,109730,6,0,P|225:116|239:59,1,120,4|8,3:2|0:1,0:0:0:0:
96,124,110675,2,0,P|98:182|140:223,1,120,0|8,3:0|0:1,0:0:0:0:
157,67,111620,6,0,P|105:39|48:56,2,120,4|8|2,3:2|0:1|3:2,0:0:0:0:
216,120,112801,1,0,0:0:0:0:
292,128,113037,2,2,L|351:125,1,60,8|2,0:1|0:0,0:0:0:0:
412,176,113509,6,0,P|412:248|388:288,1,120,4|8,3:2|0:1,0:0:0:0:
232,312,114454,2,0,L|173:309,1,60,0|2,3:0|0:0,0:0:0:0:
128,244,114927,1,8,0:1:0:0:
136,88,115399,6,0,B|191:76|198:107|253:95,2,120,4|8|0,3:2|0:1|3:0,0:0:0:0:
88,152,116580,1,2,0:0:0:0:
48,220,116816,2,0,P|44:249|50:278,1,60,8|2,0:1|0:0,0:0:0:0:
60,356,117289,6,0,L|-8:360,2,60,4|0|8,3:2|3:0|3:1,0:0:0:0:
164,240,118234,2,0,L|160:172,2,60,2|0|8,3:2|3:0|3:1,0:0:0:0:
316,276,119179,6,0,L|312:208,1,60,4|0,3:2|3:0,0:0:0:0:
304,140,119651,2,0,L|238:122,1,60,8|0,3:1|3:1,0:0:0:0:
170,109,120124,2,0,L|133:166,1,60,2|0,3:2|3:1,0:0:0:0:
99,226,120596,2,0,L|142:278,1,60,8|2,3:1|3:2,0:0:0:0:
188,329,121068,5,4,0:2:0:0:
432,280,122013,2,0,P|392:260|336:268,1,96,2|0,0:2|0:0,0:0:0:0:
224,300,122958,6,0,P|176:305|84:208,2,192,2|0|2,0:2|0:0|0:0,0:0:0:0:
312,212,125320,6,0,L|304:116,1,96,0|2,0:0|0:2,0:0:0:0:
180,92,126265,2,0,L|188:188,1,96,0|2,0:0|0:0,0:0:0:0:
92,268,127210,5,0,0:0:0:0:
11,173,127683,1,2,0:0:0:0:
106,92,128155,1,0,0:0:0:0:
106,92,128627,6,0,B|159:108|202:87|191:76|235:53|291:71,1,192,4|2,0:0|0:0,0:0:0:0:
404,124,130045,1,0,0:0:0:0:
414,248,130517,6,0,P|402:293|369:326,1,96,2|0,0:0|0:0,0:0:0:0:
246,323,131462,2,0,P|211:290|199:244,1,96,2|0,0:0|0:0,0:0:0:0:
265,139,132407,6,0,P|309:124|355:138,1,96,2|0,0:0|0:0,0:0:0:0:
286,244,133352,1,0,0:0:0:0:
164,272,133824,2,0,L|170:350,1,72,0|2,0:0|0:0,0:0:0:0:
20,304,134769,6,0,L|14:226,1,72,2|0,0:0|0:0,0:0:0:0:
168,268,135714,1,2,0:0:0:0:
292,264,136186,6,0,P|312:220|308:172,1,96,4|2,3:2|3:0,0:0:0:0:
200,112,137131,2,0,P|196:64|216:21,1,96,2|2,3:2|3:0,0:0:0:0:
282,126,138076,6,0,P|236:187|130:159,1,192,4|2,3:2|3:2,0:0:0:0:
96,45,139494,1,2,3:0:0:0:
200,112,139966,6,0,B|216:165|195:208|184:197|161:241|179:297,1,192,4|2,3:2|3:2,0:0:0:0:
293,346,141383,1,2,3:0:0:0:
280,223,141856,6,0,B|233:188|184:197|191:210|143:218|97:185,1,192,4|2,3:2|3:2,0:0:0:0:
36,76,143273,1,2,3:0:0:0:
160,100,143746,6,0,L|256:92,1,96,4|2,3:2|3:0,0:0:0:0:
356,168,144690,2,0,L|452:160,1,96,2|2,3:0|0:0,0:0:0:0:
400,272,145635,6,0,P|356:280|268:236,1,144,4|0,3:2|0:0,0:0:0:0:
228,172,146580,2,0,P|240:132|232:80,1,96,2|2,3:2|3:0,0:0:0:0:
112,116,147525,6,0,P|100:184|219:301,2,240,2|2|2,3:0|3:2|3:2,0:0:0:0:
267,97,149887,6,0,P|272:132|288:160,1,60,2|0,3:0|0:0,0:0:0:0:
340,208,150360,2,0,P|375:203|403:187,1,60,2|0,3:2|3:0,0:0:0:0:
451,135,150832,2,0,P|446:100|430:72,1,60,2|0,3:0|3:0,0:0:0:0:
378,24,151305,5,4,3:2:0:0:
296,156,151777,1,8,0:1:0:0:
200,32,152249,2,2,B|160:36|160:36|124:28|124:28|81:31,1,120,2|8,0:0|0:1,0:0:0:0:
44,100,152958,1,2,0:0:0:0:
12,172,153194,6,0,P|3:231|19:288,1,120,4|8,3:0|0:1,0:0:0:0:
176,280,154139,2,2,P|184:220|168:163,1,120,2|8,3:2|0:1,0:0:0:0:
144,88,154848,1,2,0:0:0:0:
220,104,155084,6,0,L|310:108,2,90,4|2|2,3:0|0:0|0:0,0:0:0:0:
144,88,156029,1,0,3:0:0:0:
60,220,156501,1,8,0:1:0:0:
136,232,156738,1,2,3:2:0:0:
212,244,156974,6,2,P|216:266|204:334,2,90,4|2|2,3:0|0:0|0:2,0:0:0:0:
200,168,157919,2,0,P|196:150|205:99,2,60,0|2|8,0:0|0:0|0:1,0:0:0:0:
272,196,158627,1,2,0:0:0:0:
348,184,158864,5,4,3:0:0:0:
444,304,159336,1,8,0:1:0:0:
368,284,159572,2,0,L|245:290,1,120,2|2,0:0|0:0,0:0:0:0:
172,270,160281,1,8,0:1:0:0:
28,212,160753,5,4,3:3:0:0:
164,140,161226,2,0,L|223:143,1,60,8|2,0:1|0:2,0:0:0:0:
376,184,161935,2,0,L|435:181,1,60,2|8,0:0|0:1,0:0:0:0:
464,108,162407,1,0,0:0:0:0:
396,72,162643,6,0,L|274:65,1,120,4|8,3:2|0:1,0:0:0:0:
200,60,163352,1,2,0:0:0:0:
232,212,163824,1,2,0:0:0:0:
172,264,164061,2,2,P|155:270|103:270,1,60,8|2,0:1|0:0,0:0:0:0:
52,224,164533,6,0,P|45:207|45:155,1,60,4|2,3:2|0:0,0:0:0:0:
92,104,165005,2,0,P|108:97|160:97,1,60,8|2,0:1|0:0,0:0:0:0:
212,144,165478,2,0,P|218:160|218:212,1,60,0|2,3:2|0:0,0:0:0:0:
172,264,165950,2,0,P|155:270|103:270,1,60,8|2,0:1|0:0,0:0:0:0:
52,224,166423,5,4,3:2:0:0:
140,96,166895,1,8,0:1:0:0:
264,192,167368,2,2,B|304:196|304:196|340:188|340:188|382:191,1,120,2|8,3:2|0:1,0:0:0:0:
408,36,168312,6,0,P|336:36|296:60,1,120,4|8,0:0|0:1,0:0:0:0:
240,116,169021,1,0,0:0:0:0:
180,168,169257,2,2,P|127:195|68:191,1,120,2|8,3:2|0:1,0:0:0:0:
100,40,170202,6,0,L|190:44,2,90,4|2|2,3:2|0:0|0:0,0:0:0:0:
36,88,171147,1,0,3:0:0:0:
56,164,171383,1,2,0:0:0:0:
76,240,171620,2,0,L|136:237,1,60,8|2,0:1|0:2,0:0:0:0:
212,232,172092,5,4,3:2:0:0:
276,92,172564,1,8,0:1:0:0:
306,242,173037,1,2,3:2:0:0:
193,138,173509,1,8,0:1:0:0:
345,155,173982,6,2,P|392:152|440:100,1,120,4|8,3:2|0:1,0:0:0:0:
364,76,174690,2,2,L|235:80,1,120,2|0,0:0|0:0,0:0:0:0:
168,84,175399,1,8,0:1:0:0:
56,196,175872,6,0,L|51:324,1,120,4|8,3:2|0:1,0:0:0:0:
128,340,176580,2,2,L|132:211,1,120
136,140,177289,1,8,0:1:0:0:
287,95,177761,6,0,P|317:105|338:126,1,60,4|2,3:2|0:0,0:0:0:0:
365,197,178234,2,0,P|364:228|352:254,1,60,8|2,0:1|0:0,0:0:0:0:
292,303,178706,2,0,P|262:311|233:307,1,60,0|2,3:0|0:0,0:0:0:0:
168,266,179179,2,0,P|150:239|145:210,1,60,8|2,0:1|0:0,0:0:0:0:
164,136,179651,5,4,0:0:0:0:
321,117,180124,2,0,P|345:136|358:163,1,60,8|2,0:1|0:2,0:0:0:0:
359,239,180596,2,0,P|347:267|327:288,1,60,0|2,3:0|0:2,0:0:0:0:
254,314,181068,2,0,P|223:311|197:297,1,60,8|2,3:1|0:2,0:0:0:0:
150,236,181541,5,4,3:2:0:0:
273,140,182013,2,0,L|339:142,1,60,8|2,0:1|0:0,0:0:0:0:
208,48,182722,2,0,L|141:50,1,60,2|8,0:0|0:1,0:0:0:0:
32,152,183431,6,0,B|72:148|72:148|108:156|108:156|150:152,1,120,4|8,3:2|0:1,0:0:0:0:
228,140,184139,1,2,0:0:0:0:
252,216,184375,1,0,3:0:0:0:
224,288,184612,1,2,0:0:0:0:
248,364,184848,2,0,L|314:366,1,60,8|2,0:1|0:0,0:0:0:0:
380,336,185320,6,2,P|388:308|386:246,2,90,4|2|2,3:2|3:2|0:0,0:0:0:0:
456,360,186265,2,0,P|465:329|464:240,1,120,0|8,3:0|0:1,0:0:0:0:
432,88,187210,5,4,3:2:0:0:
279,120,187683,1,8,0:1:0:0:
311,273,188155,1,2,3:2:0:0:
175,350,188627,1,8,0:1:0:0:
59,244,189100,5,4,3:2:0:0:
123,100,189572,2,0,P|138:125|161:144,1,60,8|2,0:1|0:0,0:0:0:0:
229,180,190045,2,0,P|258:186|287:183,1,60,0|2,3:0|0:0,0:0:0:0:
364,166,190517,1,8,0:1:0:0:
292,28,190990,6,0,P|239:55|180:51,1,120,4|8,3:2|0:1,0:0:0:0:
119,2,191698,2,2,P|102:59|129:111,1,120,2|2,0:0|0:0,0:0:0:0:
192,156,192407,1,8,0:1:0:0:
320,244,192879,6,0,L|316:334,2,90,4|2|2,3:2|0:0|0:0,0:0:0:0:
264,192,193824,2,0,L|204:194,1,60,0|2,3:2|0:2,0:0:0:0:
144,144,194297,2,0,P|143:114|152:85,1,60,8|2,3:1|0:2,0:0:0:0:
212,36,194769,6,0,L|302:32,2,90,4|2|2,3:2|0:0|0:0,0:0:0:0:
190,111,195714,2,0,P|199:139|217:163,1,60,4|2,3:2|0:0,0:0:0:0:
294,163,196186,2,0,P|312:139|322:111,1,60,8|4,0:1|0:0,0:0:0:0:
