osu file format v14

[General]
AudioFilename: audio.mp3
AudioLeadIn: 0
PreviewTime: 45242
Countdown: 0
SampleSet: Soft
StackLeniency: 0.4
Mode: 0
LetterboxInBreaks: 0
WidescreenStoryboard: 1

[Editor]
Bookmarks: 15236,30354,45472,60590,75708,90826,105944,121062,136180,151299,166417,181535,196417
DistanceSpacing: 1.6
BeatDivisor: 8
GridSize: 4
TimelineZoom: 2.5

[Metadata]
Title:World, Hold On
TitleUnicode:World, Hold On
Artist:Bob Sinclar feat. Steve Edwards
ArtistUnicode:Bob Sinclar feat. Steve Edwards
Creator:narakucrimson
Version:Insane
Source:
Tags:english electronic Western Dream
BeatmapID:2234986
BeatmapSetID:1043944

[Difficulty]
HPDrainRate:5.5
CircleSize:3.8
OverallDifficulty:6
ApproachRate:8
SliderMultiplier:1.8
SliderTickRate:2

[Events]
//Background and Video events
0,0,"galaxy-space-light-stars-nebula-652425-wallhere.com.jpg",0,0
Video,-1080,"11111.mp4"
//Break Periods
2,60796,74964
//Storyboard Layer 0 (Background)
//Storyboard Layer 1 (Fail)
//Storyboard Layer 2 (Pass)
//Storyboard Layer 3 (Foreground)
//Storyboard Layer 4 (Overlay)
//Storyboard Sound Samples

[TimingPoints]
124,472.44094488189,4,2,0,80,1,0
45478,-86.9565217391304,4,2,0,100,0,1
60596,-100,4,2,0,80,0,0
105950,-86.9565217391304,4,2,0,80,0,1
117289,-86.9565217391304,4,2,0,100,0,1
121068,-133.333333333333,4,2,0,50,0,0
136186,-117.647058823529,4,2,0,70,0,0
149415,-100,4,2,0,80,0,0
166423,-86.9565217391304,4,2,0,100,0,1
181423,-86.9565217391304,4,2,0,100,0,0
181541,-86.9565217391304,4,2,0,100,0,1
196423,-86.9565217391304,4,2,0,50,0,0

[Colours]
Combo1 : 192,123,202
Combo2 : 78,173,108
Combo3 : 134,114,194
Combo4 : 124,197,186

[HitObjects]
432,316,124,6,0,P|415:326|313:288,1,135,0|0,3:0|0:0,0:0:0:0:
384,252,596,1,8,0:1:0:0:
356,112,832,1,0,0:0:0:0:
216,76,1068,1,0,3:0:0:0:
216,76,1305,1,2,0:0:0:0:
244,216,1541,1,8,0:1:0:0:
168,340,1777,1,2,0:0:0:0:
40,276,2013,6,0,P|30:259|68:157,1,135,0|0,3:0|0:0,0:0:0:0:
104,228,2486,2,0,L|196:232,1,90,8|2,0:1|0:0,0:0:0:0:
320,164,2958,1,0,3:0:0:0:
320,164,3194,1,2,0:0:0:0:
444,236,3431,1,8,0:1:0:0:
500,104,3667,1,2,0:0:0:0:
336,56,3903,6,0,B|287:59|287:59|254:76|254:76|206:80,1,135,0|0,3:0|0:0,0:0:0:0:
136,120,4375,2,0,P|124:164|136:208,1,90,8|2,0:1|0:0,0:0:0:0:
248,300,4848,1,0,3:0:0:0:
248,300,5084,1,2,0:0:0:0:
208,164,5320,2,0,L|300:168,1,90,8|2,0:1|0:0,0:0:0:0:
500,220,5793,6,0,L|365:225,1,135,0|0,3:0|0:0,0:0:0:0:
284,228,6265,1,8,0:1:0:0:
148,184,6501,1,2,0:0:0:0:
256,296,6738,1,0,3:0:0:0:
256,296,6974,1,2,0:0:0:0:
364,184,7210,1,8,0:1:0:0:
472,296,7446,1,2,0:0:0:0:
432,144,7683,6,0,P|379:105|315:120,1,135,0|0,3:0|0:0,0:0:0:0:
256,176,8155,2,0,P|224:206|180:218,1,90,8|2,0:1|0:0,0:0:0:0:
108,92,8627,2,0,P|140:62|184:50,1,90,0|2,3:0|0:0,0:0:0:0:
264,184,9100,2,0,P|232:214|188:226,1,90,8|2,0:1|0:0,0:0:0:0:
52,184,9572,6,0,P|34:248|52:313,1,135,0|0,3:0|0:0,0:0:0:0:
100,380,10045,1,8,0:1:0:0:
236,328,10281,1,2,0:0:0:0:
236,328,10517,1,0,3:0:0:0:
212,188,10753,1,2,0:0:0:0:
337,121,10990,1,8,0:1:0:0:
439,219,11226,1,2,0:0:0:0:
377,346,11462,6,0,P|313:360|260:321,1,135,0|0,3:0|0:0,0:0:0:0:
212,256,11935,2,0,L|216:164,1,90,8|2,0:1|0:0,0:0:0:0:
356,196,12407,2,0,P|400:208|444:196,1,90,0|2,3:0|0:0,0:0:0:0:
444,52,12879,2,0,P|400:40|356:52,1,90,8|2,3:1|0:0,0:0:0:0:
252,168,13352,6,0,B|240:206|255:237|263:229|279:260|267:299,1,135,4|0,3:0|0:0,0:0:0:0:
216,360,13824,2,0,P|172:372|128:360,1,90,8|0,0:1|0:0,0:0:0:0:
44,224,14297,2,2,B|84:208|84:208|132:212,1,90,2|0,3:2|0:0,0:0:0:0:
280,264,14769,2,2,B|240:280|240:280|192:276,1,90,10|0,3:2|0:0,0:0:0:0:
192,144,15242,6,0,P|252:160|320:136,1,135,4|0,3:0|0:0,0:0:0:0:
384,88,15714,1,8,0:1:0:0:
248,16,15950,1,2,0:0:0:0:
124,108,16186,1,0,3:0:0:0:
124,108,16423,1,2,0:0:0:0:
220,240,16659,2,2,P|172:232|132:248,1,90,8|0,0:1|0:0,0:0:0:0:
72,300,17013,1,2,0:0:0:0:
136,348,17131,6,0,L|271:343,1,135,4|0,3:0|0:0,0:0:0:0:
352,340,17604,2,0,P|393:354|437:346,1,90,8|2,0:1|0:0,0:0:0:0:
460,204,18076,1,2,3:2:0:0:
316,220,18312,1,2,0:0:0:0:
172,236,18549,1,8,0:1:0:0:
28,252,18785,1,2,0:0:0:0:
32,108,19021,6,2,P|94:131|159:115,1,135,4|2,3:0|0:0,0:0:0:0:
228,72,19494,1,8,0:1:0:0:
332,172,19730,1,2,0:0:0:0:
332,172,19966,2,0,L|328:264,1,90,0|2,3:0|0:0,0:0:0:0:
184,261,20438,2,0,L|180:171,1,90,8|2,0:1|0:0,0:0:0:0:
52,100,20911,6,0,P|34:164|52:229,1,135,4|2,3:0|0:0,0:0:0:0:
108,288,21383,2,2,L|197:284,1,90,8|2,0:1|0:0,0:0:0:0:
360,276,21856,1,0,3:0:0:0:
223,186,22092,1,2,0:0:0:0:
280,339,22328,1,8,0:1:0:0:
323,181,22564,1,2,0:0:0:0:
480,112,22801,6,0,P|492:156|480:200,1,90,4|0,3:0|0:0,0:0:0:0:
428,260,23155,1,2,0:0:0:0:
368,316,23273,2,0,L|278:312,1,90,8|2,0:1|0:0,0:0:0:0:
160,232,23746,2,0,L|208:156,1,90,0|2,3:0|0:0,0:0:0:0:
336,93,24218,2,0,L|377:172,1,90,8|0,0:1|0:0,0:0:0:0:
420,240,24572,1,2,0:0:0:0:
368,300,24690,6,0,P|304:314|251:275,1,135,4|2,3:0|0:0,0:0:0:0:
200,212,25163,2,2,L|110:215,1,90,8|2,0:1|0:0,0:0:0:0:
28,96,25635,1,0,3:0:0:0:
172,112,25872,1,2,0:0:0:0:
316,128,26108,1,8,0:1:0:0:
460,144,26344,1,2,0:0:0:0:
492,292,26580,6,0,B|443:289|443:289|410:272|410:272|362:268,1,135,4|2,3:0|0:0,0:0:0:0:
284,292,27053,1,8,0:1:0:0:
156,228,27289,1,2,0:0:0:0:
292,180,27525,1,0,3:0:0:0:
292,180,27761,1,2,0:0:0:0:
164,116,27998,1,8,0:1:0:0:
300,68,28234,1,2,0:0:0:0:
128,47,28470,6,0,P|90:99|104:164,1,135,4|2,3:0|0:0,0:0:0:0:
148,232,28942,2,0,L|238:228,1,90,8|2,0:1|0:0,0:0:0:0:
380,216,29415,1,0,3:0:0:0:
256,112,29651,1,2,0:0:0:0:
132,216,29887,1,8,0:1:0:0:
132,216,30360,6,0,P|145:280|107:332,1,135,4|2,3:0|0:0,0:0:0:0:
68,264,30832,2,0,P|56:232|64:176,1,90,8|2,0:1|0:0,0:0:0:0:
216,164,31305,2,0,P|228:196|220:252,1,90,0|2,3:0|0:0,0:0:0:0:
180,320,31659,1,0,0:0:0:0:
235,380,31777,2,0,L|325:376,1,90,8|2,0:1|0:0,0:0:0:0:
452,276,32249,6,2,B|400:260|359:281|370:291|329:311|279:295,1,180,4|8,3:0|0:1,0:0:0:0:
156,220,32958,1,2,0:0:0:0:
156,220,33194,1,0,3:0:0:0:
260,96,33431,1,2,0:0:0:0:
384,200,33667,2,2,P|432:204|472:184,1,90,8|2,0:1|0:0,0:0:0:0:
360,92,34139,6,0,L|225:97,1,135,4|2,3:0|0:0,0:0:0:0:
152,132,34612,2,0,P|140:176|152:220,1,90,8|2,0:1|0:0,0:0:0:0:
296,224,35084,2,0,P|308:180|296:136,1,90,0|2,3:0|0:0,0:0:0:0:
144,136,35557,2,0,P|132:180|144:224,1,90,8|2,0:1|0:0,0:0:0:0:
268,296,36029,5,4,3:0:0:0:
136,356,36265,1,0,0:0:0:0:
30,256,36501,1,8,0:1:0:0:
85,128,36738,1,2,0:0:0:0:
85,128,36974,2,0,P|125:146|169:141,1,90,0|2,3:0|0:0,0:0:0:0:
304,84,37446,1,8,0:1:0:0:
104,140,37919,6,0,L|108:230,1,90,4|0,3:0|0:0,0:0:0:0:
112,311,38273,1,2,0:0:0:0:
167,370,38391,2,0,P|215:382|256:376,1,90,8|2,0:1|0:0,0:0:0:0:
316,244,38864,2,0,P|268:232|227:238,1,90,0|2,3:0|0:0,0:0:0:0:
84,220,39336,1,8,0:1:0:0:
172,108,39572,1,2,0:0:0:0:
308,156,39809,6,0,P|372:174|437:156,1,135,4|0,3:0|0:0,0:0:0:0:
504,112,40281,1,8,0:1:0:0:
472,252,40517,1,0,0:0:0:0:
348,328,40753,2,0,L|258:324,1,90,2|0,3:2|0:0,0:0:0:0:
220,164,41226,2,2,L|310:168,1,90,8|2,0:1|0:0,0:0:0:0:
478,84,41698,6,2,P|414:71|362:109,1,135,4|2,3:0|0:0,0:0:0:0:
431,148,42171,1,8,0:1:0:0:
296,204,42407,1,2,0:0:0:0:
392,312,42643,1,0,3:0:0:0:
256,360,42879,1,2,0:0:0:0:
120,312,43116,1,8,0:1:0:0:
64,180,43352,1,2,0:0:0:0:
64,180,43588,6,0,P|112:184|152:164,1,90,4|0,3:0|0:0,0:0:0:0:
212,116,43942,1,2,0:0:0:0:
264,180,44061,2,2,B|260:224|260:224|268:270,1,90,8|2,0:1|0:0,0:0:0:0:
392,344,44533,2,2,L|437:342,2,45,4|0|2,3:0|0:0|0:0,0:0:0:0:
232,376,45005,1,8,0:0:0:0:
144,240,45242,1,0,0:0:0:0:
328,248,45478,6,0,P|406:187|395:88,1,207.000003948212,4|8,3:2|0:1,0:0:0:0:
244,20,46186,1,0,0:0:0:0:
212,96,46305,2,2,B|207:127|191:152|191:152|201:185|201:185|185:210|179:241,1,155.250002961159,2|0,0:0|0:0,0:0:0:0:
300,352,46895,1,8,0:1:0:0:
452,292,47131,1,2,0:0:0:0:
452,292,47368,6,0,P|463:193|433:153,1,155.250002961159,4|0,3:2|0:0,0:0:0:0:
364,108,47840,1,8,0:1:0:0:
200,112,48076,1,0,0:0:0:0:
232,188,48194,2,2,B|237:218|253:243|253:243|243:276|243:276|259:301|265:332,1,155.250002961159,2|0,0:0|0:0,0:0:0:0:
100,308,48785,1,8,0:1:0:0:
71,230,48903,2,0,P|63:178|74:128,1,103.500001974106,2|0,0:0|0:0,0:0:0:0:
127,62,49257,6,0,L|231:66,1,103.500001974106,4|0,3:2|0:0,0:0:0:0:
392,32,49730,1,8,0:1:0:0:
376,196,49966,2,0,P|368:220|366:246,1,51.7500009870529,0|0,0:0|0:0,0:0:0:0:
364,328,50202,1,2,3:2:0:0:
492,224,50438,1,0,0:0:0:0:
388,92,50675,1,8,0:1:0:0:
260,196,50911,1,2,0:0:0:0:
128,44,51147,5,4,3:2:0:0:
280,112,51383,2,0,P|304:119|330:121,1,51.7500009870529,0|0,0:0|0:0,0:0:0:0:
412,124,51620,1,8,0:1:0:0:
440,288,51856,2,0,P|415:280|389:278,1,51.7500009870529,0|0,0:0|0:0,0:0:0:0:
308,300,52092,2,2,B|271:303|271:303|242:296|242:296|206:300,1,103.500001974106,2|0,3:2|0:0,0:0:0:0:
104,168,52564,2,0,B|140:164|140:164|169:171|169:171|205:168,1,103.500001974106,8|2,0:1|0:0,0:0:0:0:
360,108,53037,6,0,P|388:184|368:256,1,155.250002961159,4|0,3:2|0:0,0:0:0:0:
328,324,53509,1,8,0:1:0:0:
168,280,53746,1,2,0:0:0:0:
212,120,53982,1,0,3:0:0:0:
52,76,54218,2,0,P|49:101|41:126,1,51.7500009870529,2|0,0:0|0:0,0:0:0:0:
0,200,54454,2,0,P|-4:251|12:299,1,103.500001974106,8|2,0:1|0:0,0:0:0:0:
172,344,54927,6,0,P|220:285|222:209,1,155.250002961159,4|0,3:2|0:0,0:0:0:0:
196,132,55399,1,8,0:1:0:0:
8,160,55635,1,2,0:0:0:0:
8,160,55872,1,0,3:0:0:0:
124,40,56108,2,0,L|180:36,1,51.7500009870529,2|0,0:0|0:0,0:0:0:0:
260,28,56344,1,8,0:1:0:0:
424,16,56580,1,2,0:0:0:0:
496,164,56816,6,0,P|504:240|471:309,1,155.250002961159,4|2,3:2|0:0,0:0:0:0:
408,360,57289,1,8,0:1:0:0:
280,256,57525,1,2,0:0:0:0:
144,348,57761,1,0,3:0:0:0:
16,244,57998,1,2,0:0:0:0:
156,156,58234,1,8,0:1:0:0:
156,156,58470,1,2,0:0:0:0:
316,264,58706,6,0,L|420:260,1,103.500001974106,4|2,3:2|0:0,0:0:0:0:
472,192,59061,1,0,0:0:0:0:
436,116,59179,1,8,0:1:0:0:
280,176,59415,1,2,0:0:0:0:
160,64,59651,1,0,3:0:0:0:
191,225,59887,1,2,0:0:0:0:
260,76,60124,1,8,0:1:0:0:
116,155,60360,1,2,0:0:0:0:
280,176,60596,1,4,3:2:0:0:
192,100,75714,6,0,P|252:84|320:108,1,135,4|0,3:0|0:0,0:0:0:0:
384,156,76186,1,8,0:1:0:0:
456,280,76423,1,2,0:0:0:0:
340,364,76659,1,0,3:0:0:0:
340,364,76895,1,2,0:0:0:0:
200,328,77131,2,0,P|152:336|112:320,1,90,8|2,0:1|0:0,0:0:0:0:
236,244,77604,6,0,L|371:249,1,135,4|0,3:0|0:0,0:0:0:0:
436,200,78076,2,0,P|444:152|428:112,1,90,8|2,0:1|0:0,0:0:0:0:
292,72,78549,2,0,P|284:120|300:160,1,90,0|2,3:1|0:0,0:0:0:0:
448,188,79021,2,0,P|452:124|400:72,1,135,8|0,0:1|0:0,0:0:0:0:
328,100,79494,6,0,B|289:112|258:96|266:88|235:73|197:85,1,135,4|0,3:0|0:0,0:0:0:0:
120,108,79966,1,8,0:1:0:0:
68,240,80202,2,0,L|116:244,1,45,2|0,0:0|0:1,0:0:0:0:
192,256,80438,2,0,P|238:266|279:251,1,90,0|0,3:0|0:0,0:0:0:0:
343,204,80793,1,0,0:0:0:0:
408,156,80911,2,0,P|450:141|493:153,1,90,8|2,0:1|0:0,0:0:0:0:
492,296,81383,6,0,B|454:308|423:293|431:285|400:269|361:281,1,135,4|0,3:0|0:0,0:0:0:0:
292,324,81856,2,0,L|203:320,1,90,8|2,0:1|0:0,0:0:0:0:
64,240,82328,2,0,P|32:244|8:252,2,45,0|0|2,3:0|0:0|0:0,0:0:0:0:
224,232,82801,2,0,P|202:237|179:239,2,45,8|0|2,0:1|0:0|0:0,0:0:0:0:
364,156,83273,6,0,P|304:160|240:124,1,135,4|0,3:0|0:0,0:0:0:0:
184,64,83746,1,8,0:1:0:0:
328,44,83982,1,2,0:0:0:0:
188,68,84218,2,0,L|99:64,1,90,0|2,3:0|0:0,0:0:0:0:
24,188,84690,1,8,0:1:0:0:
96,312,84927,1,2,0:0:0:0:
236,340,85163,6,0,B|284:336|284:336|317:319|317:319|366:316,1,135,4|0,3:0|0:0,0:0:0:0:
444,292,85635,2,0,P|452:264|444:204,1,90,8|2,0:1|0:0,0:0:0:0:
336,108,86108,1,0,3:0:0:0:
336,108,86344,1,2,0:0:0:0:
224,200,86580,1,8,0:1:0:0:
336,292,86816,1,2,0:0:0:0:
184,344,87053,6,2,P|124:344|64:300,1,135,4|2,3:0|0:0,0:0:0:0:
24,232,87525,2,0,P|16:196|24:144,1,90,8|2,0:1|0:0,0:0:0:0:
148,72,87998,2,0,P|183:83|224:115,1,90,0|2,3:0|0:0,0:0:0:0:
224,260,88470,2,0,P|196:284|147:304,1,90,8|2,0:1|0:0,0:0:0:0:
148,160,88942,6,0,L|288:168,1,135,4|2,3:0|0:0,0:0:0:0:
348,120,89415,2,0,L|340:28,1,90,8|2,0:1|0:0,0:0:0:0:
432,140,89887,2,0,P|432:164|424:192,2,45,0|0|2,3:0|0:0|0:0,0:0:0:0:
276,176,90360,2,0,P|275:198|280:220,1,45,8|0,0:1|0:0,0:0:0:0:
312,296,90596,2,0,P|317:317|316:340,1,45,2|0,0:0|0:0,0:0:0:0:
388,380,90832,6,0,P|392:288|376:248,1,135,4|0,3:0|0:0,0:0:0:0:
328,184,91305,1,8,0:1:0:0:
180,212,91541,1,2,0:0:0:0:
292,303,91777,1,0,3:0:0:0:
292,303,92013,1,2,0:0:0:0:
258,153,92249,1,8,0:1:0:0:
408,198,92486,1,2,0:0:0:0:
304,88,92722,6,0,P|240:73|187:112,1,135,4|2,3:0|0:0,0:0:0:0:
160,184,93194,1,8,0:1:0:0:
288,252,93431,1,2,0:0:0:0:
220,380,93667,2,0,L|131:376,1,90,0|2,3:0|0:0,0:0:0:0:
12,296,94139,2,0,P|-4:220|16:168,1,135,8|2,0:1|0:0,0:0:0:0:
96,176,94612,6,0,P|159:155|223:172,1,135,4|2,3:0|0:0,0:0:0:0:
292,216,95084,1,8,0:1:0:0:
380,104,95320,1,2,0:0:0:0:
268,12,95557,1,0,3:0:0:0:
268,12,95793,1,2,0:0:0:0:
136,64,96029,1,8,3:1:0:0:
115,204,96265,1,2,0:0:0:0:
223,292,96501,6,0,L|363:300,1,135,4|2,3:0|0:0,0:0:0:0:
424,252,96974,2,0,P|435:209|421:166,1,90,8|2,0:1|0:0,0:0:0:0:
284,120,97446,2,0,P|273:163|287:206,1,90,0|2,3:0|0:0,0:0:0:0:
332,272,97801,1,0,0:0:0:0:
304,348,97919,2,0,L|215:352,1,90,8|2,0:1|0:0,0:0:0:0:
96,268,98391,6,0,P|80:192|100:140,1,135,4|2,3:0|0:0,0:0:0:0:
144,72,98864,1,8,0:1:0:0:
256,160,99100,1,2,0:0:0:0:
188,288,99336,1,0,3:0:0:0:
188,288,99572,1,2,0:0:0:0:
300,376,99809,2,0,L|389:380,1,90,8|2,0:1|0:0,0:0:0:0:
492,280,100281,6,0,P|439:239|372:237,1,135,4|2,3:0|0:0,0:0:0:0:
296,264,100753,2,0,P|251:268|208:248,1,90,8|2,0:1|0:0,0:0:0:0:
128,156,101226,1,0,3:0:0:0:
256,92,101462,1,2,0:0:0:0:
384,156,101698,1,8,0:1:0:0:
384,156,101935,1,2,0:0:0:0:
416,296,102171,6,0,P|394:297|372:292,1,45,4|0,3:0|0:0,0:0:0:0:
296,260,102407,2,0,P|275:255|252:256,1,45,0|2,0:0|0:0,0:0:0:0:
172,272,102643,2,0,P|127:276|84:263,1,90,8|2,0:1|0:0,0:0:0:0:
16,136,103116,1,0,3:0:0:0:
140,60,103352,2,0,P|161:65|184:64,1,45,2|0,0:0|0:0,0:0:0:0:
260,52,103588,1,8,0:1:0:0:
380,140,103824,1,2,0:0:0:0:
380,140,104061,6,0,B|342:128|311:143|319:151|288:167|249:155,1,135,4|0,3:0|0:0,0:0:0:0:
184,216,104533,2,0,P|172:264|176:304,1,90,8|2,0:1|0:0,0:0:0:0:
336,303,105005,2,0,P|339:259|328:216,1,90,0|2,0:3|0:0,0:0:0:0:
204,140,105478,1,8,0:1:0:0:
184,0,105714,1,2,0:0:0:0:
315,52,105950,6,0,P|393:113|382:212,1,207.000003948212,4|8,3:2|0:1,0:0:0:0:
296,352,106659,1,0,0:0:0:0:
220,316,106777,2,2,B|188:318|162:332|162:332|130:319|130:319|104:332|72:336,1,155.250002961159,2|0,0:0|0:0,0:0:0:0:
16,180,107368,1,8,0:1:0:0:
120,52,107604,1,2,0:0:0:0:
252,156,107840,5,4,3:2:0:0:
100,220,108076,1,0,0:0:0:0:
44,64,108312,1,8,0:1:0:0:
208,88,108549,1,0,0:0:0:0:
288,76,108667,2,2,B|319:73|345:59|345:59|377:72|377:72|403:59|435:55,1,155.250002961159,2|0,0:0|0:0,0:0:0:0:
508,96,109139,2,0,P|506:121|498:146,1,51.7500009870529,0|8,0:0|0:1,0:0:0:0:
451,216,109375,2,2,L|295:208,1,155.250002961159,2|4,0:0|3:2,0:0:0:0:
132,196,109966,5,0,0:0:0:0:
180,356,110202,2,0,P|231:360|276:332,1,103.500001974106,8|0,0:1|0:0,0:0:0:0:
212,280,110557,2,2,B|180:277|154:263|154:263|122:276|122:276|96:263|64:259,1,155.250002961159,2|0,0:0|0:0,0:0:0:0:
44,96,111147,1,8,0:1:0:0:
208,68,111383,1,2,0:0:0:0:
292,212,111620,6,0,P|368:216|428:160,1,155.250002961159,4|0,0:0|0:0,0:0:0:0:
429,77,112092,2,0,P|394:35|344:18,1,103.500001974106,8|0,0:1|0:0,0:0:0:0:
264,46,112446,2,2,P|236:93|238:145,1,103.500001974106
316,288,112919,1,0,0:0:0:0:
356,216,113037,2,2,P|360:176|335:120,1,103.500001974106,8|2,0:1|0:0,0:0:0:0:
156,140,113509,6,0,P|148:216|181:285,1,155.250002961159,4|2,3:2|0:0,0:0:0:0:
240,348,113982,1,8,0:1:0:0:
400,308,114218,1,2,0:0:0:0:
400,308,114454,1,0,3:0:0:0:
304,176,114690,1,2,0:0:0:0:
392,36,114927,1,8,0:1:0:0:
424,200,115163,1,2,0:0:0:0:
280,284,115399,6,0,P|203:282|144:234,1,155.250002961159,4|2,3:2|0:0,0:0:0:0:
180,160,115872,2,0,B|217:157|217:157|246:164|246:164|282:160,1,103.500001974106,8|2,0:1|0:0,0:0:0:0:
444,136,116344,1,0,3:0:0:0:
280,148,116580,1,2,0:0:0:0:
180,16,116816,1,8,0:1:0:0:
16,28,117053,1,2,0:0:0:0:
12,192,117289,5,4,3:2:0:0:
230,218,117525,1,0,3:0:0:0:
56,354,117761,1,8,3:1:0:0:
84,134,117998,1,0,3:0:0:0:
220,309,118234,1,2,3:2:0:0:
0,281,118470,1,0,3:0:0:0:
174,145,118706,1,8,3:1:0:0:
147,365,118942,1,0,3:0:0:0:
336,380,119179,6,0,P|366:375|389:365,1,51.7500009870529,4|0,3:2|0:1,0:0:0:0:
451,319,119415,2,0,P|469:293|478:270,1,51.7500009870529,0|0,3:0|0:1,0:0:0:0:
489,194,119651,1,8,3:1:0:0:
468,28,119887,2,0,P|438:34|415:47,1,51.7500009870529,0|0,3:1|0:1,0:0:0:0:
358,97,120124,2,0,P|342:123|334:147,1,51.7500009870529,2|0,3:2|0:1,0:0:0:0:
312,224,120360,2,0,P|303:248|289:270,1,51.7500009870529,0|0,3:1|0:1,0:0:0:0:
228,322,120596,2,0,P|204:333|179:338,1,51.7500009870529,8|0,3:1|0:1,0:0:0:0:
99,331,120832,2,0,P|74:322|52:308,1,51.7500009870529,2|0,3:2|0:1,0:0:0:0:
1,246,121068,6,0,P|-4:172|19:115,1,135.000005149842,4|0,0:0|0:0,0:0:0:0:
120,160,121777,2,0,L|116:196,2,33.7500012874604,0|0|2,0:0|0:0|0:2,0:0:0:0:
228,144,122249,2,0,L|232:180,2,33.7500012874604
300,64,122722,1,0,0:0:0:0:
400,100,122958,6,0,P|404:148|388:204,1,101.250003862381,2|0,0:2|0:0,0:0:0:0:
400,308,123549,2,0,L|480:312,1,67.5000025749208,0|0,0:0|0:0,0:0:0:0:
304,256,124139,2,0,B|257:259|257:259|218:275|218:275|172:279,1,135.000005149842,2|0,0:0|0:0,0:0:0:0:
76,228,124848,6,0,P|68:180|84:128,1,101.250003862381,2|0,0:0|0:0,0:0:0:0:
104,104,125320,2,0,L|172:108,1,67.5000025749208
260,172,125793,2,0,L|362:165,1,101.250003862381,2|0,0:2|0:0,0:0:0:0:
394,162,126265,1,0,0:0:0:0:
468,80,126501,1,0,0:0:0:0:
508,180,126738,6,0,P|512:212|500:248,1,67.5000025749208,2|0,0:0|0:0,0:0:0:0:
424,320,127210,2,0,P|398:339|361:347,1,67.5000025749208,0|0,0:0|0:0,0:0:0:0:
268,300,127683,2,0,B|184:312|184:312|136:292,1,135.000005149842,2|0,0:0|0:0,0:0:0:0:
300,204,128627,6,0,P|348:232|512:132,1,270.000010299683,4|2,0:0|0:0,0:0:0:0:
440,52,129809,2,0,L|444:16,2,33.7500012874604,0|0|0,0:0|0:0|0:0,0:0:0:0:
352,116,130281,1,0,0:0:0:0:
276,40,130517,6,0,P|248:48|208:48,1,67.5000025749208,2|0,0:0|0:0,0:0:0:0:
164,156,130990,2,0,P|216:152|264:172,1,101.250003862381,0|0,0:0|0:0,0:0:0:0:
288,188,131462,2,0,P|334:206|384:201,1,101.250003862381,2|0,0:0|0:0,0:0:0:0:
440,356,132171,6,0,B|368:348|368:348|300:364,1,135.000005149842,4|2,0:0|0:0,0:0:0:0:
112,272,133116,1,0,0:0:0:0:
112,272,133352,2,0,P|168:280|212:264,1,101.250003862381,0|0,0:0|0:0,0:0:0:0:
236,248,133824,2,0,B|232:200|232:200|240:148,1,101.250003862381,0|2,0:0|0:0,0:0:0:0:
364,260,134533,1,0,0:0:0:0:
364,260,134769,6,0,P|368:296|360:332,1,67.5000025749208,2|0,0:0|0:0,0:0:0:0:
256,356,135242,1,0,0:0:0:0:
150,326,135478,1,0,0:0:0:0:
149,326,135714,2,0,P|143:293|148:260,1,67.5000025749208,2|0,0:0|0:0,0:0:0:0:
264,216,136186,6,0,P|280:156|264:104,1,114.750002188683,4|0,3:2|0:0,0:0:0:0:
188,104,136659,2,0,L|112:100,1,76.5000014591217,2|0,3:0|0:0,0:0:0:0:
48,204,137131,1,2,3:2:0:0:
104,312,137368,2,0,L|142:310,1,38.2500007295609,0|0,0:0|0:0,0:0:0:0:
218,304,137604,1,2,3:0:0:0:
308,224,137840,1,0,0:0:0:0:
415,282,138076,6,0,P|431:222|415:170,1,114.750002188683,4|0,3:2|0:0,0:0:0:0:
356,124,138549,2,0,P|348:84|360:48,1,76.5000014591217,2|0,3:0|0:0,0:0:0:0:
428,20,138903,1,0,0:0:0:0:
492,60,139021,2,0,P|500:100|488:136,1,76.5000014591217,2|0,3:2|0:0,0:0:0:0:
444,248,139494,1,2,3:0:0:0:
444,248,139730,1,0,0:0:0:0:
328,284,139966,6,0,P|253:215|133:241,1,229.500004377365,4|0,3:2|0:0,0:0:0:0:
216,332,140911,1,2,3:2:0:0:
261,218,141147,1,0,0:0:0:0:
156,152,141383,1,2,3:0:0:0:
201,38,141620,1,0,0:0:0:0:
96,100,141856,6,0,P|76:156|104:212,1,114.750002188683,4|0,3:2|0:0,0:0:0:0:
148,260,142328,2,0,L|224:256,1,76.5000014591217,2|0,3:0|0:0,0:0:0:0:
260,136,142801,2,0,L|336:140,1,76.5000014591217,2|0,3:2|0:0,0:0:0:0:
392,248,143273,2,0,L|468:244,1,76.5000014591217,2|0,3:0|0:0,0:0:0:0:
396,360,143746,6,0,L|282:354,1,114.750002188683,4|0,3:2|0:0,0:0:0:0:
208,348,144218,1,2,3:0:0:0:
120,260,144454,2,0,P|116:244|116:220,2,38.2500007295609,0|0|2,0:0|0:0|3:0,0:0:0:0:
232,212,144927,2,0,P|236:196|236:172,1,38.2500007295609,0|0,0:0|0:0,0:0:0:0:
224,100,145163,1,2,0:0:0:0:
112,48,145399,1,0,0:0:0:0:
24,132,145635,6,0,P|76:160|132:152,1,114.750002188683,4|0,3:2|0:0,0:0:0:0:
200,120,146108,2,0,L|276:124,1,76.5000014591217,2|0,3:0|0:0,0:0:0:0:
384,68,146580,1,2,3:2:0:0:
470,153,146816,1,0,0:0:0:0:
415,261,147053,1,2,3:0:0:0:
295,242,147289,1,0,0:0:0:0:
184,328,147525,6,0,P|53:321|38:244,1,229.500004377365,2|0,3:0|0:2,0:0:0:0:
132,164,148470,1,2,3:2:0:0:
132,164,148706,1,0,0:0:0:0:
244,224,148942,1,2,3:0:0:0:
244,224,149179,1,0,0:0:0:0:
220,344,149415,6,0,P|240:348|272:348,1,45,2|0,3:2|0:0,0:0:0:0:
338,324,149651,2,0,P|354:313|377:290,1,45,0|0,0:0|0:0,0:0:0:0:
408,228,149887,1,2,3:0:0:0:
371,88,150124,2,0,P|356:73|331:54,1,45,0|0,0:0|0:0,0:0:0:0:
265,36,150360,2,0,P|243:35|213:41,1,45,2|0,3:2|3:0,0:0:0:0:
152,76,150596,2,0,P|137:90|118:115,1,45,0|0,3:0|3:0,0:0:0:0:
100,182,150832,2,0,P|99:203|105:234,1,45,2|0,3:0|3:0,0:0:0:0:
140,295,151068,2,0,P|153:309|179:328,1,45,0|0,3:0|3:0,0:0:0:0:
246,347,151305,5,4,3:2:0:0:
456,308,151777,2,2,P|473:270|465:221,1,90,8|0,0:1|0:0,0:0:0:0:
393,257,152131,2,2,B|345:259|345:259|307:242|307:242|260:246,1,135
128,300,152722,1,8,0:1:0:0:
156,160,152958,1,2,0:0:0:0:
260,60,153194,6,0,P|300:42|344:49,1,90,4|2,3:0|0:0,0:0:0:0:
448,156,153667,2,0,P|407:173|363:166,1,90,8|0,0:1|0:0,0:0:0:0:
288,136,154021,2,2,B|240:133|240:133|202:150|202:150|155:146,1,135
12,128,154612,1,8,0:1:0:0:
140,64,154848,1,2,0:0:0:0:
232,172,155084,6,0,P|241:237|209:295,1,135,4|2,3:0|0:0,0:0:0:0:
140,336,155557,1,8,0:1:0:0:
52,220,155793,1,2,0:0:0:0:
55,365,156029,1,0,3:0:0:0:
137,245,156265,1,2,0:0:0:0:
84,112,156501,2,0,P|124:94|168:101,1,90,8|2,0:1|3:2,0:0:0:0:
284,188,156974,6,2,P|324:205|368:198,1,90,4|2,3:0|0:0,0:0:0:0:
437,155,157328,1,0,0:0:0:0:
488,216,157446,2,0,L|484:305,1,90,8|0,0:1|3:2,0:0:0:0:
420,356,157801,2,2,B|382:368|351:353|359:345|328:329|289:341,1,135,2|2,0:0|0:0,0:0:0:0:
152,376,158391,1,8,0:1:0:0:
68,260,158627,1,2,0:0:0:0:
164,152,158864,5,4,3:0:0:0:
164,152,159336,1,8,0:1:0:0:
296,212,159572,1,2,0:0:0:0:
232,340,159809,1,0,3:0:0:0:
354,263,160045,1,2,0:0:0:0:
222,203,160281,1,8,0:1:0:0:
286,75,160517,1,2,0:0:0:0:
428,104,160753,5,4,3:3:0:0:
484,236,160990,2,0,P|460:244|440:244,1,45,0|2,0:0|0:0,0:0:0:0:
360,236,161226,1,8,0:1:0:0:
256,136,161462,1,2,0:2:0:0:
211,277,161698,1,0,3:0:0:0:
107,177,161935,1,2,0:0:0:0:
184,56,162171,1,8,0:1:0:0:
328,56,162407,1,2,0:0:0:0:
405,177,162643,5,4,3:2:0:0:
264,340,162998,1,2,2:0:0:0:
200,292,163116,2,2,P|179:252|180:207,1,90,8|2,0:1|0:0,0:0:0:0:
320,176,163588,2,2,P|340:215|339:260,1,90,0|2,3:0|0:0,0:0:0:0:
196,300,164061,2,2,P|175:260|176:215,1,90,8|2,0:1|0:0,0:0:0:0:
172,52,164533,6,0,P|171:74|163:95,1,45,4|0,3:2|0:0,0:0:0:0:
120,164,164769,2,0,P|108:183|91:197,1,45,2|0,0:0|0:0,0:0:0:0:
18,234,165005,1,8,0:1:0:0:
104,352,165242,2,0,L|156:348,1,45,2|0,0:0|0:0,0:0:0:0:
208,292,165478,2,0,L|258:279,1,45,2|0,3:2|0:0,0:0:0:0:
312,336,165714,2,0,L|364:332,1,45,2|0,0:0|0:0,0:0:0:0:
436,324,165950,1,8,0:1:0:0:
468,184,166186,1,2,0:0:0:0:
468,184,166423,6,0,P|388:200|332:160,1,155.250002961159,4|0,3:2|0:0,0:0:0:0:
292,88,166895,1,8,0:1:0:0:
132,48,167131,1,0,0:0:0:0:
72,104,167249,2,2,B|72:135|83:162|83:162|68:193|68:193|79:221|79:252,1,155.250002961159
224,336,167840,2,0,L|328:332,1,103.500001974106,8|2,0:1|0:0,0:0:0:0:
412,328,168194,1,0,0:0:0:0:
456,256,168312,6,0,P|468:204|453:154,1,103.500001974106,4|2,0:0|0:0,0:0:0:0:
292,160,168785,2,0,P|280:212|295:262,1,103.500001974106,8|0,0:1|0:0,0:0:0:0:
376,240,169139,2,2,B|375:208|364:181|364:181|379:150|379:150|368:122|368:91,1,155.250002961159
512,180,169730,2,0,P|512:200|504:232,1,51.7500009870529,8|0,0:1|0:0,0:0:0:0:
460,300,169966,1,2,0:0:0:0:
304,356,170202,6,0,P|224:372|168:332,1,155.250002961159,4|0,3:2|0:0,0:0:0:0:
120,264,170675,1,8,0:1:0:0:
264,184,170911,1,2,0:0:0:0:
168,48,171147,2,0,P|148:48|116:56,1,51.7500009870529,0|2,3:0|0:0,0:0:0:0:
56,212,171501,1,0,0:0:0:0:
56,212,171620,1,8,0:1:0:0:
180,320,171856,2,0,P|200:320|232:312,1,51.7500009870529,2|0,3:2|0:0,0:0:0:0:
312,300,172092,6,0,P|316:256|244:180,1,155.250002961159,4|0,3:2|0:0,0:0:0:0:
168,144,172564,2,0,P|138:102|140:52,1,103.500001974106,8|0,0:1|0:0,0:0:0:0:
220,76,172919,2,2,B|256:82|256:82|286:77|286:77|321:84,1,103.500001974106,2|2,0:0|0:2,0:0:0:0:
488,104,173391,1,0,0:0:0:0:
472,184,173509,2,0,P|484:236|469:286,1,103.500001974106,8|2,0:1|0:0,0:0:0:0:
304,296,173982,6,2,P|295:220|339:158,1,155.250002961159,4|0,3:2|0:0,0:0:0:0:
416,128,174454,1,8,0:1:0:0:
292,16,174690,1,2,0:0:0:0:
164,120,174927,2,0,P|144:120|112:112,1,51.7500009870529,0|0,3:0|0:0,0:0:0:0:
44,68,175163,1,2,0:0:0:0:
20,232,175399,2,0,P|72:244|122:229,1,103.500001974106,8|2,0:1|0:0,0:0:0:0:
284,216,175872,6,0,B|327:229|362:212|353:203|388:185|433:198,1,155.250002961159,4|2,3:2|0:0,0:0:0:0:
504,244,176344,1,8,0:1:0:0:
384,356,176580,1,2,0:0:0:0:
227,308,176816,1,0,3:0:0:0:
190,148,177053,1,2,0:0:0:0:
310,36,177289,1,8,0:1:0:0:
467,84,177525,2,0,P|467:104|459:136,1,51.7500009870529,2|0,0:0|0:0,0:0:0:0:
400,192,177761,6,0,L|276:180,1,103.500001974106,4|2,3:2|0:0,0:0:0:0:
216,328,178234,2,0,L|340:316,1,103.500001974106,8|2,0:1|0:0,0:0:0:0:
396,184,178706,2,0,L|272:172,1,103.500001974106,0|2,3:0|0:0,0:0:0:0:
212,320,179179,2,0,L|336:308,1,103.500001974106,8|2,0:1|0:0,0:0:0:0:
472,240,179651,6,0,P|488:196|476:140,1,103.500001974106,4|2,3:2|0:2,0:0:0:0:
336,56,180124,2,0,P|289:64|247:102,1,103.500001974106,8|2,0:1|0:2,0:0:0:0:
244,265,180596,2,0,P|274:301|328:319,1,103.500001974106,0|2,3:0|0:2,0:0:0:0:
484,276,181068,1,8,3:1:0:0:
344,188,181305,2,0,P|335:212|333:238,1,51.7500009870529,2|0,3:2|0:0,0:0:0:0:
326,318,181541,5,4,3:2:0:0:
326,318,182013,1,8,0:1:0:0:
216,200,182249,1,2,0:0:0:0:
164,356,182486,1,0,3:0:0:0:
326,318,182722,2,0,P|358:318|382:314,1,51.7500009870529,2|0,0:0|0:0,0:0:0:0:
442,262,182958,2,0,B|438:224|438:224|445:195|445:195|441:159,1,103.500001974106,8|2,0:1|0:2,0:0:0:0:
276,164,183431,6,0,B|280:200|280:200|273:229|273:229|276:266,1,103.500001974106,4|0,3:2|0:0,0:0:0:0:
332,328,183785,1,2,0:0:0:0:
260,368,183903,2,0,P|208:372|160:348,1,103.500001974106,8|2,0:1|0:0,0:0:0:0:
48,232,184375,2,0,P|100:228|148:252,1,103.500001974106,0|2,3:0|0:0,0:0:0:0:
292,176,184848,2,0,P|296:152|296:124,1,51.7500009870529,8|0,0:1|0:0,0:0:0:0:
292,44,185084,1,2,0:0:0:0:
128,28,185320,6,2,P|112:102|154:165,1,155.250002961159,4|2,3:2|3:2,0:0:0:0:
220,220,185793,1,8,0:1:0:0:
376,168,186029,1,2,0:0:0:0:
416,328,186265,1,0,3:0:0:0:
332,320,186383,2,0,L|208:308,1,103.500001974106,2|2,0:0|0:0,0:0:0:0:
164,256,186738,2,0,P|152:240|140:208,1,51.7500009870529,8|0,0:1|0:0,0:0:0:0:
136,128,186974,2,0,P|138:108|152:77,1,51.7500009870529,2|0,0:0|0:0,0:0:0:0:
220,32,187210,6,0,P|296:28|356:84,1,155.250002961159,4|0,3:2|0:0,0:0:0:0:
357,167,187683,2,0,P|322:209|272:226,1,103.500001974106,8|0,0:1|0:0,0:0:0:0:
192,198,188037,2,2,P|164:151|166:99,1,103.500001974106,2|2,0:0|0:2,0:0:0:0:
317,38,188509,1,0,3:0:0:0:
363,108,188627,2,0,P|358:162|327:205,1,103.500001974106,8|2,0:1|0:0,0:0:0:0:
168,160,189100,6,0,P|120:208|124:292,1,155.250002961159,4|2,3:2|0:0,0:0:0:0:
180,352,189572,2,0,L|304:340,1,103.500001974106,8|2,0:1|0:0,0:0:0:0:
404,228,190045,2,0,B|367:231|367:231|338:224|338:224|302:228,1,103.500001974106,0|2,3:0|0:0,0:0:0:0:
136,212,190517,2,0,B|99:215|99:215|70:208|70:208|34:212,1,103.500001974106,8|2,0:1|0:0,0:0:0:0:
56,48,190990,6,0,P|129:31|192:73,1,155.250002961159,4|2,3:2|0:0,0:0:0:0:
244,140,191462,1,8,0:1:0:0:
408,112,191698,1,2,0:0:0:0:
264,32,191935,1,0,3:0:0:0:
264,32,192171,1,2,0:0:0:0:
148,152,192407,1,8,0:1:0:0:
292,232,192643,2,0,P|316:224|344:220,1,51.7500009870529,2|0,0:0|0:0,0:0:0:0:
384,148,192879,6,0,P|420:188|396:284,1,155.250002961159,4|2,3:2|0:0,0:0:0:0:
328,324,193352,2,0,L|204:312,1,103.500001974106,8|2,0:1|0:0,0:0:0:0:
100,208,193824,1,0,3:2:0:0:
188,68,194061,1,2,0:2:0:0:
199,232,194297,1,8,3:1:0:0:
93,105,194533,1,2,0:2:0:0:
253,145,194769,5,4,3:2:0:0:
242,309,195005,1,2,0:2:0:0:
348,182,195242,1,8,0:1:0:0:
188,222,195478,1,2,0:0:0:0:
341,285,195714,1,4,3:2:0:0:
448,158,195950,1,2,0:0:0:0:
361,17,196186,1,8,0:1:0:0:
200,56,196423,1,4,0:0:0:0:
