osu file format v14

[General]
AudioFilename: audio.mp3
AudioLeadIn: 0
PreviewTime: -1
Countdown: 1
SampleSet: None
StackLeniency: 0.7
Mode: 0
LetterboxInBreaks: 0
WidescreenStoryboard: 0

[Editor]
DistanceSpacing: 1.6
BeatDivisor: 4
GridSize: 32
TimelineZoom: 1

[Metadata]
Title:Budowniczy
TitleUnicode:Budowniczy
Artist:Bob
ArtistUnicode:Bob
Creator:WORSTPOLACKEU
Version:ZAWSZE DA RADE
Source:
Tags:
BeatmapID:1621154
BeatmapSetID:771090

[Difficulty]
HPDrainRate:5
CircleSize:3.8
OverallDifficulty:9
ApproachRate:9
SliderMultiplier:1.8
SliderTickRate:1

[Events]
//Background and Video events
0,0,"Bob-budowniczy-tapety-na-pulpit-6.jpg",0,0
//Break Periods
//Storyboard Layer 0 (Background)
//Storyboard Layer 1 (Fail)
//Storyboard Layer 2 (Pass)
//Storyboard Layer 3 (Foreground)
//Storyboard Sound Samples

[TimingPoints]
1595.80402369281,446.096654275093,4,2,0,100,1,0
5164,-66.6666666666667,4,2,0,65,0,0
5499,-66.6666666666667,4,2,0,5,0,0
5610,-66.6666666666667,4,2,0,65,0,0
5945,-66.6666666666667,4,2,0,5,0,0
6056,-66.6666666666667,4,2,0,65,0,0
6893,447.761194029851,4,2,0,100,1,0
6893,-76.9230769230769,4,2,0,65,0,0
21168,-66.6666666666667,4,2,0,65,0,0
26594,-57.1428571428571,4,2,0,65,0,0
26930,-57.1428571428571,4,2,0,5,0,0
27042,-57.1428571428571,4,2,0,65,0,0
27378,-57.1428571428571,4,2,0,5,0,0
27490,-57.1428571428571,4,2,0,65,0,0
35549,-50,4,2,0,65,0,0
35885,-50,4,2,0,5,0,0
35997,-50,4,2,0,65,0,0

[Colours]
Combo1 : 191,255,128
Combo2 : 87,87,255
Combo3 : 255,74,74

[HitObjects]
256,192,3380,12,0,4718,0:0:0:0:
195,223,5164,6,0,B|200:159|200:159|264:202|264:202|272:134,1,202.500007724762
350,90,5610,2,0,B|401:93|401:93|402:188|402:188|378:210|307:176,1,202.500007724762
154,34,6056,2,0,B|48:61|80:78|75:87|83:121|122:132|156:147|132:161|97:184|66:192|36:186|20:179,1,270.000010299683
306,304,6893,6,0,L|182:291,1,116.999994644165
275,157,7340,1,0,0:0:0:0:
364,377,7564,1,0,0:0:0:0:
335,85,7788,2,0,P|365:129|354:203,1,116.999994644165
200,204,8236,1,0,0:0:0:0:
392,273,8460,1,0,0:0:0:0:
110,203,8684,6,0,P|174:115|275:157,1,233.999989288331
36,265,9355,2,0,B|2:135|82:121|30:26,1,233.999989288331
274,156,10027,2,0,L|395:168,1,116.999994644165
177,269,10475,5,0,0:0:0:0:
224,64,10698,2,0,L|94:84,1,116.999994644165
339,249,11146,1,0,0:0:0:0:
355,78,11370,1,0,0:0:0:0:
216,180,11594,1,0,0:0:0:0:
429,304,11818,2,0,P|441:237|406:179,1,116.999994644165
260,334,12266,5,0,0:0:0:0:
216,180,12490,1,0,0:0:0:0:
119,332,12713,2,0,L|-5:349,1,116.999994644165
154,125,13161,6,0,B|166:85|220:54|220:54|288:96|299:181,1,233.999989288331
296,163,14057,6,0,L|419:153,1,116.999994644165
313,278,14504,1,0,0:0:0:0:
372,79,14728,1,0,0:0:0:0:
394,313,14952,2,0,P|358:358|274:361,1,116.999994644165
144,238,15400,1,0,0:0:0:0:
445,198,15624,1,0,0:0:0:0:
445,198,15736,1,0,0:0:0:0:
445,198,15848,6,0,L|456:137,1,58.4999973220827
491,277,16072,1,0,0:0:0:0:
491,277,16519,2,0,L|513:248,2,29.2499986610413
477,304,16743,2,0,L|324:295,1,116.999994644165
185,155,17191,2,0,P|125:203|87:200,1,116.999994644165
240,38,17639,6,0,L|371:57,1,116.999994644165
292,223,18087,1,0,0:0:0:0:
87,73,18310,1,0,0:0:0:0:
380,137,18534,1,0,0:0:0:0:
173,267,18758,2,0,L|44:288,1,116.999994644165
258,138,19206,1,0,0:0:0:0:
340,340,19430,5,0,0:0:0:0:
134,196,19654,1,0,0:0:0:0:
354,255,19878,2,0,P|407:285|420:360,1,116.999994644165
395,109,20325,1,0,0:0:0:0:
340,340,20549,1,0,0:0:0:0:
253,21,20773,1,0,0:0:0:0:
368,226,20997,1,0,0:0:0:0:
368,226,21109,1,0,0:0:0:0:
368,226,21221,6,0,L|197:240,1,135.000005149842
109,66,21669,1,0,0:0:0:0:
395,109,21893,1,0,0:0:0:0:
194,314,22116,2,0,P|154:258|162:188,1,135.000005149842
501,80,22564,2,0,L|483:235,1,135.000005149842
167,42,23012,5,0,0:0:0:0:
412,304,23236,1,0,0:0:0:0:
66,239,23460,1,0,0:0:0:0:
374,39,23684,1,0,0:0:0:0:
247,348,23907,1,0,0:0:0:0:
70,66,24131,1,0,0:0:0:0:
328,216,24355,2,0,L|297:52,1,135.000005149842
372,296,24803,6,0,P|417:314|507:276,1,135.000005149842
226,99,25251,1,0,0:0:0:0:
197,279,25475,1,0,0:0:0:0:
201,16,25698,2,0,L|63:44,1,135.000005149842
370,159,26146,2,0,P|388:86|357:21,1,135.000005149842
188,315,26594,6,0,B|193:239|193:239|268:290|268:290|278:210,1,236.250002253056
370,159,27040,2,0,B|429:162|429:162|430:273|430:273|402:299|319:259,1,236.250002253056
140,94,27486,2,0,B|16:125|53:145|47:155|57:195|102:207|142:226|114:242|73:269|37:279|1:272|-16:263,1,315.000003004074
279,51,28385,6,0,L|449:39,1,157.500001502037
389,232,28833,1,0,0:0:0:0:
216,145,29057,1,0,0:0:0:0:
470,183,29281,1,0,0:0:0:0:
267,323,29504,1,0,0:0:0:0:
346,98,29728,2,0,L|517:110,1,157.500001502037
155,277,30176,5,0,0:0:0:0:
409,351,30400,2,0,P|416:306|378:195,1,157.500001502037
108,204,30848,1,0,0:0:0:0:
243,38,31072,2,0,L|417:28,1,157.500001502037
203,341,31519,2,0,L|34:320,1,157.500001502037
279,180,31967,5,0,0:0:0:0:
472,311,32191,2,0,P|500:219|480:141,1,157.500001502037
322,285,32639,1,0,0:0:0:0:
206,126,32863,1,0,0:0:0:0:
479,72,33087,1,0,0:0:0:0:
190,221,33310,2,0,L|24:237,1,157.500001502037
98,68,33758,5,0,0:0:0:0:
122,322,33982,1,0,0:0:0:0:
305,114,34206,1,0,0:0:0:0:
51,158,34430,1,0,0:0:0:0:
351,262,34654,1,0,0:0:0:0:
430,51,34878,1,0,0:0:0:0:
430,51,34990,1,0,0:0:0:0:
430,51,35101,2,0,L|328:54,1,78.7500007510185
124,170,35325,2,0,L|226:173,1,78.7500007510185
436,302,35549,6,0,B|351:194|464:143|464:143|451:184|371:264,1,270
318,293,35997,1,0,0:0:0:0:
74,55,36221,1,0,0:0:0:0:
75,316,36445,2,0,P|116:344|253:329,1,180
437,68,36893,2,0,P|396:40|259:55,1,180
75,221,37340,5,0,0:0:0:0:
392,204,37564,1,0,0:0:0:0:
61,88,37788,1,0,0:0:0:0:
345,318,38012,1,0,0:0:0:0:
243,15,38236,1,0,0:0:0:0:
135,360,38460,1,0,0:0:0:0:
364,104,38684,2,0,B|497:102|497:102|484:198,1,180
344,341,39131,6,0,P|338:266|477:328,1,270
434,366,39579,1,0,0:0:0:0:
86,189,39803,1,0,0:0:0:0:
235,11,40027,2,0,L|252:214,1,180
29,298,40475,2,0,L|44:118,1,180
213,313,40922,5,0,0:0:0:0:
186,54,41146,2,0,P|141:22|13:48,1,180
103,343,41594,1,0,0:0:0:0:
327,97,41818,1,0,0:0:0:0:
140,216,42042,1,0,0:0:0:0:
444,154,42266,1,0,0:0:0:0:
5,117,42490,1,0,0:0:0:0:
256,192,42713,12,0,43609,0:0:0:0:
