osu file format v14

[General]
AudioFilename: audio.mp3
AudioLeadIn: 0
PreviewTime: 63538
Countdown: 0
SampleSet: Normal
StackLeniency: 0.7
Mode: 1
LetterboxInBreaks: 0
WidescreenStoryboard: 0

[Editor]
DistanceSpacing: 2
BeatDivisor: 4
GridSize: 32
TimelineZoom: 2.2

[Metadata]
Title:How do you pronounce Boaz?
TitleUnicode:How do you pronounce Boaz?
Artist:Boaz Sound Team "ptar124"
ArtistUnicode:Boaz Sound Team "ptar124"
Creator:ptar124
Version:Ura Oni
Source:Mapping to Pander: Taiko #1
Tags:boaz op45667 electronic english rick astley never gonna give you up toby fox megalovania hopes and dreams gmtn furioso melodia frums silentroom aegleseeker ice L2 m2p
BeatmapID:3762852
BeatmapSetID:1832938

[Difficulty]
HPDrainRate:6
CircleSize:5
OverallDifficulty:6
ApproachRate:5
SliderMultiplier:1.4
SliderTickRate:1

[Events]
//Background and Video events
0,0,"boaz-thumbnail.png",0,0
//Break Periods
2,66473,73632
//Storyboard Layer 0 (Background)
//Storyboard Layer 1 (Fail)
//Storyboard Layer 2 (Pass)
//Storyboard Layer 3 (Foreground)
//Storyboard Layer 4 (Overlay)
//Storyboard Sound Samples

[TimingPoints]
1421,352.941176470588,4,1,0,100,1,0
1421,-100,4,1,0,20,0,0
7068,-100,4,1,0,60,0,0
18362,-100,4,1,0,50,0,0
28244,-100,4,1,0,70,0,0
63538,-100,4,1,0,60,0,0
86126,-90.9090909090909,4,1,0,85,0,0
97420,-86.9565217391304,4,1,0,85,0,1
109068,-83.3333333333333,4,1,0,85,0,1
129891,-83.3333333333333,4,1,0,85,0,0
134126,-33.3333333333333,4,1,0,85,0,0

[HitObjects]
256,192,1421,12,0,6362,0:0:0:0:
256,192,7068,5,4,0:0:0:0:
256,192,7420,1,8,0:0:0:0:
256,192,7597,1,0,0:0:0:0:
256,192,7950,1,8,0:0:0:0:
256,192,8126,1,0,0:0:0:0:
256,192,8303,1,8,0:0:0:0:
256,192,8391,1,8,0:0:0:0:
256,192,8479,1,0,0:0:0:0:
256,192,8568,1,0,0:0:0:0:
256,192,8656,1,0,0:0:0:0:
256,192,8832,1,0,0:0:0:0:
256,192,9009,1,8,0:0:0:0:
256,192,9185,1,0,0:0:0:0:
256,192,9273,1,0,0:0:0:0:
256,192,9362,1,8,0:0:0:0:
256,192,9538,1,8,0:0:0:0:
256,192,9626,1,8,0:0:0:0:
256,192,9715,1,0,0:0:0:0:
256,192,9891,1,4,0:0:0:0:
256,192,10244,1,12,0:0:0:0:
256,192,10420,1,4,0:0:0:0:
256,192,10773,1,12,0:0:0:0:
256,192,10950,1,4,0:0:0:0:
256,192,11126,1,4,0:0:0:0:
256,192,11303,1,4,0:0:0:0:
256,192,11656,1,12,0:0:0:0:
256,192,11832,1,4,0:0:0:0:
256,192,12185,1,12,0:0:0:0:
256,192,12715,5,4,0:0:0:0:
256,192,13067,1,8,0:0:0:0:
256,192,13244,1,0,0:0:0:0:
256,192,13597,1,8,0:0:0:0:
256,192,13773,1,0,0:0:0:0:
256,192,13950,1,8,0:0:0:0:
256,192,14038,1,8,0:0:0:0:
256,192,14126,1,0,0:0:0:0:
256,192,14215,1,8,0:0:0:0:
256,192,14303,1,0,0:0:0:0:
256,192,14479,1,0,0:0:0:0:
256,192,14656,1,8,0:0:0:0:
256,192,14832,1,0,0:0:0:0:
256,192,14920,1,0,0:0:0:0:
256,192,15009,1,8,0:0:0:0:
256,192,15185,1,0,0:0:0:0:
256,192,15273,1,8,0:0:0:0:
256,192,15362,1,0,0:0:0:0:
256,192,15538,1,4,0:0:0:0:
256,192,15891,1,8,0:0:0:0:
256,192,16068,1,0,0:0:0:0:
256,192,16244,1,4,0:0:0:0:
256,192,16597,1,0,0:0:0:0:
256,192,16773,1,8,0:0:0:0:
256,192,16950,1,4,0:0:0:0:
256,192,17303,1,4,0:0:0:0:
256,192,17656,1,4,0:0:0:0:
256,192,17832,1,4,0:0:0:0:
256,192,18009,1,4,0:0:0:0:
256,192,18185,1,4,0:0:0:0:
256,192,18362,1,8,0:0:0:0:
256,192,18715,1,8,0:0:0:0:
256,192,19068,1,8,0:0:0:0:
256,192,19332,1,0,0:0:0:0:
256,192,19420,1,8,0:0:0:0:
256,192,19597,1,0,0:0:0:0:
256,192,19773,1,8,0:0:0:0:
256,192,20126,1,8,0:0:0:0:
256,192,20479,1,8,0:0:0:0:
256,192,20744,1,0,0:0:0:0:
256,192,20832,1,8,0:0:0:0:
256,192,21009,1,0,0:0:0:0:
256,192,21185,1,8,0:0:0:0:
256,192,21538,1,8,0:0:0:0:
256,192,21891,1,8,0:0:0:0:
256,192,22156,1,0,0:0:0:0:
256,192,22244,1,8,0:0:0:0:
256,192,22420,1,0,0:0:0:0:
256,192,22597,1,8,0:0:0:0:
256,192,22862,1,0,0:0:0:0:
256,192,22950,1,8,0:0:0:0:
256,192,23126,1,0,0:0:0:0:
256,192,23303,1,8,0:0:0:0:
256,192,23479,1,0,0:0:0:0:
256,192,23656,1,8,0:0:0:0:
256,192,23832,1,0,0:0:0:0:
256,192,24009,1,8,0:0:0:0:
256,192,24362,1,8,0:0:0:0:
256,192,24715,1,8,0:0:0:0:
256,192,24979,1,0,0:0:0:0:
256,192,25068,1,8,0:0:0:0:
256,192,25244,1,0,0:0:0:0:
256,192,25420,1,8,0:0:0:0:
256,192,25773,1,8,0:0:0:0:
256,192,26126,1,8,0:0:0:0:
256,192,26391,1,0,0:0:0:0:
256,192,26479,1,8,0:0:0:0:
256,192,26656,1,0,0:0:0:0:
256,192,26832,1,8,0:0:0:0:
256,192,27185,1,8,0:0:0:0:
256,192,27538,1,8,0:0:0:0:
256,192,27803,1,0,0:0:0:0:
256,192,27891,1,8,0:0:0:0:
256,192,28068,1,0,0:0:0:0:
256,192,28244,1,8,0:0:0:0:
256,192,28332,1,8,0:0:0:0:
256,192,28420,1,0,0:0:0:0:
256,192,28509,1,0,0:0:0:0:
256,192,28597,1,8,0:0:0:0:
256,192,28685,1,0,0:0:0:0:
256,192,28773,1,0,0:0:0:0:
256,192,28862,1,8,0:0:0:0:
256,192,28950,1,0,0:0:0:0:
256,192,29038,1,8,0:0:0:0:
256,192,29126,1,0,0:0:0:0:
256,192,29215,1,0,0:0:0:0:
256,192,29303,1,8,0:0:0:0:
256,192,29391,1,8,0:0:0:0:
256,192,29479,1,8,0:0:0:0:
256,192,29568,1,8,0:0:0:0:
256,192,29656,1,0,0:0:0:0:
256,192,29920,1,8,0:0:0:0:
256,192,30009,1,0,0:0:0:0:
256,192,30185,1,8,0:0:0:0:
256,192,30362,1,0,0:0:0:0:
256,192,30626,1,8,0:0:0:0:
256,192,30715,1,0,0:0:0:0:
256,192,30891,1,0,0:0:0:0:
256,192,31068,1,0,0:0:0:0:
256,192,31332,1,8,0:0:0:0:
256,192,31420,1,0,0:0:0:0:
256,192,31597,1,8,0:0:0:0:
256,192,31773,1,0,0:0:0:0:
256,192,32038,1,8,0:0:0:0:
256,192,32126,1,0,0:0:0:0:
256,192,32303,1,8,0:0:0:0:
256,192,32391,1,8,0:0:0:0:
256,192,32479,1,0,0:0:0:0:
256,192,32744,1,8,0:0:0:0:
256,192,32833,1,0,0:0:0:0:
256,192,33009,1,8,0:0:0:0:
256,192,33186,1,0,0:0:0:0:
256,192,33450,1,8,0:0:0:0:
256,192,33539,1,0,0:0:0:0:
256,192,33715,1,0,0:0:0:0:
256,192,33892,1,0,0:0:0:0:
256,192,34156,1,8,0:0:0:0:
256,192,34244,1,0,0:0:0:0:
256,192,34421,1,8,0:0:0:0:
256,192,34509,1,0,0:0:0:0:
256,192,34597,1,0,0:0:0:0:
256,192,34685,1,8,0:0:0:0:
256,192,34862,1,8,0:0:0:0:
256,192,34950,1,0,0:0:0:0:
256,192,35038,1,0,0:0:0:0:
256,192,35127,1,8,0:0:0:0:
256,192,35215,1,8,0:0:0:0:
256,192,35303,1,0,0:0:0:0:
256,192,35568,1,8,0:0:0:0:
256,192,35657,1,0,0:0:0:0:
256,192,35833,1,8,0:0:0:0:
256,192,36010,1,0,0:0:0:0:
256,192,36274,1,8,0:0:0:0:
256,192,36363,1,0,0:0:0:0:
256,192,36539,1,0,0:0:0:0:
256,192,36716,1,0,0:0:0:0:
256,192,36891,1,8,0:0:0:0:
256,192,37068,1,0,0:0:0:0:
256,192,37245,1,8,0:0:0:0:
256,192,37421,1,8,0:0:0:0:
256,192,37597,1,0,0:0:0:0:
256,192,37774,1,8,0:0:0:0:
256,192,37862,1,0,0:0:0:0:
256,192,37951,1,0,0:0:0:0:
256,192,38039,1,8,0:0:0:0:
256,192,38127,1,0,0:0:0:0:
256,192,38392,1,8,0:0:0:0:
256,192,38479,1,0,0:0:0:0:
256,192,38657,1,8,0:0:0:0:
256,192,38832,1,0,0:0:0:0:
256,192,39098,1,8,0:0:0:0:
256,192,39185,1,0,0:0:0:0:
256,192,39363,1,0,0:0:0:0:
256,192,39538,1,0,0:0:0:0:
256,192,39804,1,8,0:0:0:0:
256,192,39892,1,0,0:0:0:0:
256,192,39979,1,8,0:0:0:0:
256,192,40069,1,8,0:0:0:0:
256,192,40156,1,8,0:0:0:0:
256,192,40245,1,0,0:0:0:0:
256,192,40420,1,0,0:0:0:0:
256,192,40598,1,8,0:0:0:0:
256,192,40773,1,8,0:0:0:0:
256,192,40862,1,8,0:0:0:0:
256,192,40950,1,4,0:0:0:0:
256,192,41303,1,8,0:0:0:0:
256,192,41656,1,0,0:0:0:0:
256,192,41832,1,0,0:0:0:0:
256,192,41920,1,8,0:0:0:0:
256,192,42097,1,8,0:0:0:0:
256,192,42185,1,0,0:0:0:0:
256,192,42362,1,0,0:0:0:0:
256,192,42715,1,8,0:0:0:0:
256,192,43068,1,0,0:0:0:0:
256,192,43244,1,0,0:0:0:0:
256,192,43332,1,8,0:0:0:0:
256,192,43509,1,8,0:0:0:0:
256,192,43597,1,0,0:0:0:0:
256,192,43773,2,0,L|320:192,4,35
256,192,44479,1,0,0:0:0:0:
256,192,44656,1,0,0:0:0:0:
256,192,44744,1,8,0:0:0:0:
256,192,44920,1,0,0:0:0:0:
256,192,45009,1,8,0:0:0:0:
256,192,45097,1,8,0:0:0:0:
256,192,45185,1,0,0:0:0:0:
256,192,45362,1,8,0:0:0:0:
256,192,45450,1,0,0:0:0:0:
256,192,45626,1,0,0:0:0:0:
256,192,45715,1,8,0:0:0:0:
256,192,45803,1,0,0:0:0:0:
256,192,45891,1,8,0:0:0:0:
256,192,46068,1,8,0:0:0:0:
256,192,46156,1,0,0:0:0:0:
256,192,46244,1,8,0:0:0:0:
256,192,46597,2,0,L|320:192,4,35
256,192,47303,1,8,0:0:0:0:
256,192,47479,1,0,0:0:0:0:
256,192,47568,1,8,0:0:0:0:
256,192,47744,1,8,0:0:0:0:
256,192,47832,1,0,0:0:0:0:
256,192,48009,1,0,0:0:0:0:
256,192,48362,1,8,0:0:0:0:
256,192,48715,1,8,0:0:0:0:
256,192,48891,1,0,0:0:0:0:
256,192,48979,1,8,0:0:0:0:
256,192,49156,1,0,0:0:0:0:
256,192,49244,1,8,0:0:0:0:
256,192,49332,1,8,0:0:0:0:
256,192,49420,1,0,0:0:0:0:
256,192,49509,1,0,0:0:0:0:
256,192,49597,1,8,0:0:0:0:
256,192,49773,1,8,0:0:0:0:
256,192,50038,1,8,0:0:0:0:
256,192,50215,1,0,0:0:0:0:
256,192,50391,1,8,0:0:0:0:
256,192,50568,1,0,0:0:0:0:
256,192,50656,1,8,0:0:0:0:
256,192,50744,1,8,0:0:0:0:
256,192,50832,1,0,0:0:0:0:
256,192,51009,1,8,0:0:0:0:
256,192,51097,1,8,0:0:0:0:
256,192,51273,1,0,0:0:0:0:
256,192,51362,1,0,0:0:0:0:
256,192,51450,1,8,0:0:0:0:
256,192,51538,1,0,0:0:0:0:
256,192,51626,1,8,0:0:0:0:
256,192,51715,1,0,0:0:0:0:
256,192,51803,1,0,0:0:0:0:
256,192,51891,1,8,0:0:0:0:
256,192,51979,1,8,0:0:0:0:
256,192,52068,1,8,0:0:0:0:
256,192,52156,1,8,0:0:0:0:
256,192,52244,1,4,0:0:0:0:
256,192,52597,1,8,0:0:0:0:
256,192,52950,1,0,0:0:0:0:
256,192,53126,1,0,0:0:0:0:
256,192,53214,1,8,0:0:0:0:
256,192,53391,1,8,0:0:0:0:
256,192,53479,1,0,0:0:0:0:
256,192,53656,1,0,0:0:0:0:
256,192,54009,1,8,0:0:0:0:
256,192,54362,1,0,0:0:0:0:
256,192,54538,1,0,0:0:0:0:
256,192,54626,1,8,0:0:0:0:
256,192,54803,1,8,0:0:0:0:
256,192,54891,1,0,0:0:0:0:
256,192,55067,2,0,L|320:192,4,35
256,192,55773,1,0,0:0:0:0:
256,192,55950,1,0,0:0:0:0:
256,192,56038,1,8,0:0:0:0:
256,192,56214,1,0,0:0:0:0:
256,192,56303,1,8,0:0:0:0:
256,192,56391,1,8,0:0:0:0:
256,192,56479,1,0,0:0:0:0:
256,192,56656,1,8,0:0:0:0:
256,192,56744,1,0,0:0:0:0:
256,192,56920,1,0,0:0:0:0:
256,192,57009,1,8,0:0:0:0:
256,192,57097,1,0,0:0:0:0:
256,192,57185,1,8,0:0:0:0:
256,192,57362,1,8,0:0:0:0:
256,192,57450,1,0,0:0:0:0:
256,192,57538,1,8,0:0:0:0:
256,192,57891,2,0,L|320:192,4,35
256,192,58597,1,8,0:0:0:0:
256,192,58773,1,0,0:0:0:0:
256,192,58862,1,8,0:0:0:0:
256,192,59038,1,8,0:0:0:0:
256,192,59126,1,0,0:0:0:0:
256,192,59303,1,0,0:0:0:0:
256,192,59656,1,8,0:0:0:0:
256,192,60009,1,0,0:0:0:0:
256,192,60185,1,0,0:0:0:0:
256,192,60273,1,8,0:0:0:0:
256,192,60362,1,0,0:0:0:0:
256,192,60450,1,0,0:0:0:0:
256,192,60538,1,0,0:0:0:0:
256,192,60626,1,0,0:0:0:0:
256,192,60715,1,8,0:0:0:0:
256,192,60891,1,0,0:0:0:0:
256,192,60979,1,8,0:0:0:0:
256,192,61156,1,8,0:0:0:0:
256,192,61244,1,0,0:0:0:0:
256,192,61420,1,0,0:0:0:0:
256,192,61509,1,8,0:0:0:0:
256,192,61597,1,0,0:0:0:0:
256,192,61773,1,0,0:0:0:0:
256,192,61862,1,0,0:0:0:0:
256,192,61950,1,0,0:0:0:0:
256,192,62038,1,0,0:0:0:0:
256,192,62126,1,8,0:0:0:0:
256,192,62215,1,0,0:0:0:0:
256,192,62303,1,0,0:0:0:0:
256,192,62391,1,8,0:0:0:0:
256,192,62479,1,0,0:0:0:0:
256,192,62568,1,0,0:0:0:0:
256,192,62656,1,8,0:0:0:0:
256,192,62744,1,8,0:0:0:0:
256,192,62832,1,0,0:0:0:0:
256,192,62920,1,8,0:0:0:0:
256,192,63009,1,0,0:0:0:0:
256,192,63097,1,0,0:0:0:0:
256,192,63185,1,8,0:0:0:0:
256,192,63273,1,8,0:0:0:0:
256,192,63362,1,8,0:0:0:0:
256,192,63450,1,8,0:0:0:0:
256,192,63538,1,4,0:0:0:0:
256,192,63891,1,8,0:0:0:0:
256,192,64068,1,0,0:0:0:0:
256,192,64420,1,8,0:0:0:0:
256,192,64596,1,0,0:0:0:0:
256,192,64773,1,8,0:0:0:0:
256,192,64861,1,8,0:0:0:0:
256,192,64949,1,0,0:0:0:0:
256,192,65038,1,0,0:0:0:0:
256,192,65126,1,0,0:0:0:0:
256,192,65302,1,0,0:0:0:0:
256,192,65479,1,8,0:0:0:0:
256,192,65655,1,0,0:0:0:0:
256,192,65743,1,0,0:0:0:0:
256,192,65832,1,8,0:0:0:0:
256,192,66008,1,8,0:0:0:0:
256,192,66096,1,8,0:0:0:0:
256,192,66185,1,0,0:0:0:0:
256,192,66273,1,8,0:0:0:0:
256,192,74832,5,12,0:0:0:0:
256,192,75185,1,8,0:0:0:0:
256,192,75362,1,0,0:0:0:0:
256,192,75715,1,8,0:0:0:0:
256,192,75891,1,0,0:0:0:0:
256,192,76420,1,0,0:0:0:0:
256,192,76773,1,8,0:0:0:0:
256,192,77126,1,8,0:0:0:0:
256,192,77303,1,0,0:0:0:0:
256,192,77479,1,8,0:0:0:0:
256,192,77656,1,0,0:0:0:0:
256,192,78009,1,8,0:0:0:0:
256,192,78185,1,0,0:0:0:0:
256,192,78538,1,8,0:0:0:0:
256,192,78715,1,0,0:0:0:0:
256,192,79244,1,0,0:0:0:0:
256,192,79597,1,8,0:0:0:0:
256,192,79950,1,8,0:0:0:0:
256,192,80479,1,0,0:0:0:0:
256,192,80832,1,8,0:0:0:0:
256,192,81009,1,0,0:0:0:0:
256,192,81362,1,8,0:0:0:0:
256,192,81538,1,0,0:0:0:0:
256,192,82067,1,0,0:0:0:0:
256,192,82420,1,8,0:0:0:0:
256,192,82773,1,8,0:0:0:0:
256,192,82950,1,0,0:0:0:0:
256,192,83126,1,8,0:0:0:0:
256,192,83303,12,0,85773,0:0:0:0:
256,192,86126,5,4,0:0:0:0:
256,192,86479,1,0,0:0:0:0:
256,192,86656,1,8,0:0:0:0:
256,192,86832,1,0,0:0:0:0:
256,192,87009,1,8,0:0:0:0:
256,192,87068,1,8,0:0:0:0:
256,192,87126,1,8,0:0:0:0:
256,192,87185,1,0,0:0:0:0:
256,192,87362,1,0,0:0:0:0:
256,192,87538,1,8,0:0:0:0:
256,192,87626,1,0,0:0:0:0:
256,192,87715,1,8,0:0:0:0:
256,192,87803,1,0,0:0:0:0:
256,192,87891,1,8,0:0:0:0:
256,192,87979,1,8,0:0:0:0:
256,192,88068,1,0,0:0:0:0:
256,192,88156,1,8,0:0:0:0:
256,192,88244,1,0,0:0:0:0:
256,192,88332,1,0,0:0:0:0:
256,192,88420,1,8,0:0:0:0:
256,192,88509,1,0,0:0:0:0:
256,192,88597,1,8,0:0:0:0:
256,192,88656,1,8,0:0:0:0:
256,192,88715,1,8,0:0:0:0:
256,192,88773,1,8,0:0:0:0:
256,192,88832,1,8,0:0:0:0:
256,192,88891,1,8,0:0:0:0:
256,192,88950,1,0,0:0:0:0:
256,192,89303,1,0,0:0:0:0:
256,192,89479,1,8,0:0:0:0:
256,192,89656,1,0,0:0:0:0:
256,192,89832,1,8,0:0:0:0:
256,192,89891,1,8,0:0:0:0:
256,192,89950,1,8,0:0:0:0:
256,192,90009,1,0,0:0:0:0:
256,192,90185,1,0,0:0:0:0:
256,192,90362,1,8,0:0:0:0:
256,192,90538,1,8,0:0:0:0:
256,192,90626,1,8,0:0:0:0:
256,192,90715,1,8,0:0:0:0:
256,192,90891,1,0,0:0:0:0:
256,192,91068,1,0,0:0:0:0:
256,192,91156,1,8,0:0:0:0:
256,192,91244,1,8,0:0:0:0:
256,192,91332,1,0,0:0:0:0:
256,192,91420,1,8,0:0:0:0:
256,192,91479,1,8,0:0:0:0:
256,192,91538,1,8,0:0:0:0:
256,192,91597,1,8,0:0:0:0:
256,192,91656,1,8,0:0:0:0:
256,192,91715,1,8,0:0:0:0:
256,192,91773,1,0,0:0:0:0:
256,192,92126,1,0,0:0:0:0:
256,192,92303,1,8,0:0:0:0:
256,192,92479,1,0,0:0:0:0:
256,192,92568,1,8,0:0:0:0:
256,192,92656,1,0,0:0:0:0:
256,192,92744,1,8,0:0:0:0:
256,192,92832,1,0,0:0:0:0:
256,192,93009,1,8,0:0:0:0:
256,192,93185,1,0,0:0:0:0:
256,192,93538,1,8,0:0:0:0:
256,192,93891,1,0,0:0:0:0:
256,192,94068,1,0,0:0:0:0:
256,192,94244,1,8,0:0:0:0:
256,192,94420,1,0,0:0:0:0:
256,192,94597,1,8,0:0:0:0:
256,192,94773,1,8,0:0:0:0:
256,192,94950,1,0,0:0:0:0:
256,192,95126,1,0,0:0:0:0:
256,192,95303,1,8,0:0:0:0:
256,192,95479,1,0,0:0:0:0:
256,192,95656,1,8,0:0:0:0:
256,192,95832,1,8,0:0:0:0:
256,192,96009,1,0,0:0:0:0:
256,192,96097,1,0,0:0:0:0:
256,192,96185,1,8,0:0:0:0:
256,192,96273,1,8,0:0:0:0:
256,192,96362,1,0,0:0:0:0:
256,192,96450,1,8,0:0:0:0:
256,192,96538,1,0,0:0:0:0:
256,192,96597,1,0,0:0:0:0:
256,192,96656,1,0,0:0:0:0:
256,192,96715,1,8,0:0:0:0:
256,192,96891,1,8,0:0:0:0:
256,192,96950,1,0,0:0:0:0:
256,192,97009,1,0,0:0:0:0:
256,192,97068,1,8,0:0:0:0:
256,192,97156,1,8,0:0:0:0:
256,192,97244,1,0,0:0:0:0:
256,192,97420,1,8,0:0:0:0:
256,192,97509,1,8,0:0:0:0:
256,192,97597,1,8,0:0:0:0:
256,192,97685,1,0,0:0:0:0:
256,192,97773,1,8,0:0:0:0:
256,192,97862,1,8,0:0:0:0:
256,192,97950,1,0,0:0:0:0:
256,192,98038,1,0,0:0:0:0:
256,192,98126,1,8,0:0:0:0:
256,192,98215,1,8,0:0:0:0:
256,192,98303,1,8,0:0:0:0:
256,192,98391,1,8,0:0:0:0:
256,192,98479,1,0,0:0:0:0:
256,192,98568,1,0,0:0:0:0:
256,192,98656,1,0,0:0:0:0:
256,192,98744,1,0,0:0:0:0:
256,192,98832,1,8,0:0:0:0:
256,192,98920,1,8,0:0:0:0:
256,192,99009,1,8,0:0:0:0:
256,192,99097,1,0,0:0:0:0:
256,192,99185,1,8,0:0:0:0:
256,192,99273,1,0,0:0:0:0:
256,192,99362,1,0,0:0:0:0:
256,192,99450,1,0,0:0:0:0:
256,192,99538,1,8,0:0:0:0:
256,192,99626,1,8,0:0:0:0:
256,192,99715,1,8,0:0:0:0:
256,192,99803,1,8,0:0:0:0:
256,192,99891,1,0,0:0:0:0:
256,192,99979,1,0,0:0:0:0:
256,192,100068,1,0,0:0:0:0:
256,192,100156,1,0,0:0:0:0:
256,192,100244,1,8,0:0:0:0:
256,192,100332,1,8,0:0:0:0:
256,192,100420,1,0,0:0:0:0:
256,192,100509,1,8,0:0:0:0:
256,192,100597,1,0,0:0:0:0:
256,192,100685,1,0,0:0:0:0:
256,192,100773,1,0,0:0:0:0:
256,192,100862,1,0,0:0:0:0:
256,192,100950,1,8,0:0:0:0:
256,192,101038,1,8,0:0:0:0:
256,192,101126,1,0,0:0:0:0:
256,192,101215,1,8,0:0:0:0:
256,192,101303,1,0,0:0:0:0:
256,192,101391,1,0,0:0:0:0:
256,192,101479,1,0,0:0:0:0:
256,192,101568,1,0,0:0:0:0:
256,192,101656,1,8,0:0:0:0:
256,192,101744,1,0,0:0:0:0:
256,192,101832,1,8,0:0:0:0:
256,192,101920,1,8,0:0:0:0:
256,192,102009,1,0,0:0:0:0:
256,192,102097,1,0,0:0:0:0:
256,192,102185,1,8,0:0:0:0:
256,192,102273,1,8,0:0:0:0:
256,192,102362,1,0,0:0:0:0:
256,192,102450,1,8,0:0:0:0:
256,192,102538,1,0,0:0:0:0:
256,192,102626,1,0,0:0:0:0:
256,192,102715,1,8,0:0:0:0:
256,192,102803,1,0,0:0:0:0:
256,192,102891,1,8,0:0:0:0:
256,192,102979,1,8,0:0:0:0:
256,192,103068,1,0,0:0:0:0:
256,192,103156,1,0,0:0:0:0:
256,192,103244,1,0,0:0:0:0:
256,192,103332,1,8,0:0:0:0:
256,192,103420,1,0,0:0:0:0:
256,192,103509,1,0,0:0:0:0:
256,192,103597,1,0,0:0:0:0:
256,192,103685,1,8,0:0:0:0:
256,192,103773,1,0,0:0:0:0:
256,192,103862,1,0,0:0:0:0:
256,192,103950,1,8,0:0:0:0:
256,192,104038,1,8,0:0:0:0:
256,192,104126,1,0,0:0:0:0:
256,192,104215,1,0,0:0:0:0:
256,192,104303,1,8,0:0:0:0:
256,192,104391,1,8,0:0:0:0:
256,192,104479,1,0,0:0:0:0:
256,192,104568,1,0,0:0:0:0:
256,192,104656,1,0,0:0:0:0:
256,192,104744,1,8,0:0:0:0:
256,192,104832,1,0,0:0:0:0:
256,192,104920,1,0,0:0:0:0:
256,192,105009,1,0,0:0:0:0:
256,192,105097,1,8,0:0:0:0:
256,192,105185,1,0,0:0:0:0:
256,192,105273,1,8,0:0:0:0:
256,192,105362,1,8,0:0:0:0:
256,192,105450,1,8,0:0:0:0:
256,192,105538,1,0,0:0:0:0:
256,192,105626,1,8,0:0:0:0:
256,192,105715,1,0,0:0:0:0:
256,192,105803,1,0,0:0:0:0:
256,192,105891,1,8,0:0:0:0:
256,192,105979,1,8,0:0:0:0:
256,192,106068,1,0,0:0:0:0:
256,192,106156,1,0,0:0:0:0:
256,192,106244,1,8,0:0:0:0:
256,192,106332,1,0,0:0:0:0:
256,192,106420,1,0,0:0:0:0:
256,192,106509,1,0,0:0:0:0:
256,192,106597,1,8,0:0:0:0:
256,192,106685,1,8,0:0:0:0:
256,192,106773,1,0,0:0:0:0:
256,192,106862,1,0,0:0:0:0:
256,192,106950,1,8,0:0:0:0:
256,192,107038,1,0,0:0:0:0:
256,192,107126,1,0,0:0:0:0:
256,192,107215,1,0,0:0:0:0:
256,192,107303,1,8,0:0:0:0:
256,192,107391,1,8,0:0:0:0:
256,192,107479,1,0,0:0:0:0:
256,192,107568,1,0,0:0:0:0:
256,192,107656,1,8,0:0:0:0:
256,192,107744,1,8,0:0:0:0:
256,192,107832,1,0,0:0:0:0:
256,192,107891,1,0,0:0:0:0:
256,192,107950,1,0,0:0:0:0:
256,192,108009,1,8,0:0:0:0:
256,192,108097,1,8,0:0:0:0:
256,192,108185,1,0,0:0:0:0:
256,192,108244,1,0,0:0:0:0:
256,192,108303,1,0,0:0:0:0:
256,192,108362,1,8,0:0:0:0:
256,192,108450,1,8,0:0:0:0:
256,192,108538,1,0,0:0:0:0:
256,192,108626,1,0,0:0:0:0:
256,192,108715,1,12,0:0:0:0:
256,192,109068,1,0,0:0:0:0:
256,192,109156,1,0,0:0:0:0:
256,192,109244,1,8,0:0:0:0:
256,192,109332,1,8,0:0:0:0:
256,192,109420,1,0,0:0:0:0:
256,192,109509,1,0,0:0:0:0:
256,192,109597,1,8,0:0:0:0:
256,192,109685,1,8,0:0:0:0:
256,192,109773,1,0,0:0:0:0:
256,192,109862,1,8,0:0:0:0:
256,192,109950,1,0,0:0:0:0:
256,192,110038,1,0,0:0:0:0:
256,192,110126,1,8,0:0:0:0:
256,192,110215,1,0,0:0:0:0:
256,192,110303,1,8,0:0:0:0:
256,192,110391,1,8,0:0:0:0:
256,192,110479,1,8,0:0:0:0:
256,192,110568,1,0,0:0:0:0:
256,192,110656,1,8,0:0:0:0:
256,192,110744,1,0,0:0:0:0:
256,192,110832,1,8,0:0:0:0:
256,192,110920,1,0,0:0:0:0:
256,192,111009,1,8,0:0:0:0:
256,192,111097,1,8,0:0:0:0:
256,192,111185,1,8,0:0:0:0:
256,192,111273,1,0,0:0:0:0:
256,192,111362,1,8,0:0:0:0:
256,192,111450,1,8,0:0:0:0:
256,192,111538,1,0,0:0:0:0:
256,192,111626,1,0,0:0:0:0:
256,192,111715,1,0,0:0:0:0:
256,192,111803,1,8,0:0:0:0:
256,192,111891,1,0,0:0:0:0:
256,192,111979,1,8,0:0:0:0:
256,192,112068,1,8,0:0:0:0:
256,192,112156,1,8,0:0:0:0:
256,192,112244,1,0,0:0:0:0:
256,192,112332,1,0,0:0:0:0:
256,192,112420,1,0,0:0:0:0:
256,192,112509,1,8,0:0:0:0:
256,192,112597,1,0,0:0:0:0:
256,192,112685,1,8,0:0:0:0:
256,192,112773,1,8,0:0:0:0:
256,192,112862,1,8,0:0:0:0:
256,192,112950,1,0,0:0:0:0:
256,192,113038,1,0,0:0:0:0:
256,192,113126,1,8,0:0:0:0:
256,192,113215,1,8,0:0:0:0:
256,192,113303,1,0,0:0:0:0:
256,192,113391,1,8,0:0:0:0:
256,192,113479,1,8,0:0:0:0:
256,192,113568,1,8,0:0:0:0:
256,192,113656,1,0,0:0:0:0:
256,192,113744,1,0,0:0:0:0:
256,192,113832,1,8,0:0:0:0:
256,192,113920,1,8,0:0:0:0:
256,192,114009,1,0,0:0:0:0:
256,192,114097,1,8,0:0:0:0:
256,192,114185,1,8,0:0:0:0:
256,192,114273,1,8,0:0:0:0:
256,192,114362,1,0,0:0:0:0:
256,192,114450,1,8,0:0:0:0:
256,192,114538,1,0,0:0:0:0:
256,192,114626,1,0,0:0:0:0:
256,192,114715,1,8,0:0:0:0:
256,192,114803,1,8,0:0:0:0:
256,192,114891,1,8,0:0:0:0:
256,192,114979,1,8,0:0:0:0:
256,192,115068,1,0,0:0:0:0:
256,192,115156,1,8,0:0:0:0:
256,192,115244,1,0,0:0:0:0:
256,192,115332,1,0,0:0:0:0:
256,192,115420,1,8,0:0:0:0:
256,192,115509,1,8,0:0:0:0:
256,192,115597,1,8,0:0:0:0:
256,192,115685,1,8,0:0:0:0:
256,192,115773,1,0,0:0:0:0:
256,192,115862,1,0,0:0:0:0:
256,192,115950,1,8,0:0:0:0:
256,192,116038,1,8,0:0:0:0:
256,192,116126,1,0,0:0:0:0:
256,192,116215,1,8,0:0:0:0:
256,192,116303,1,0,0:0:0:0:
256,192,116391,1,0,0:0:0:0:
256,192,116479,1,8,0:0:0:0:
256,192,116568,1,8,0:0:0:0:
256,192,116656,1,0,0:0:0:0:
256,192,116744,1,0,0:0:0:0:
256,192,116832,1,8,0:0:0:0:
256,192,116920,1,0,0:0:0:0:
256,192,117009,1,8,0:0:0:0:
256,192,117097,1,8,0:0:0:0:
256,192,117185,1,0,0:0:0:0:
256,192,117273,1,8,0:0:0:0:
256,192,117362,1,0,0:0:0:0:
256,192,117450,1,0,0:0:0:0:
256,192,117538,1,8,0:0:0:0:
256,192,117626,1,0,0:0:0:0:
256,192,117715,1,8,0:0:0:0:
256,192,117803,1,8,0:0:0:0:
256,192,117891,1,0,0:0:0:0:
256,192,117979,1,8,0:0:0:0:
256,192,118068,1,0,0:0:0:0:
256,192,118156,1,0,0:0:0:0:
256,192,118244,1,8,0:0:0:0:
256,192,118332,1,0,0:0:0:0:
256,192,118420,1,8,0:0:0:0:
256,192,118509,1,8,0:0:0:0:
256,192,118597,1,0,0:0:0:0:
256,192,118685,1,0,0:0:0:0:
256,192,118773,1,8,0:0:0:0:
256,192,118862,1,8,0:0:0:0:
256,192,118950,1,0,0:0:0:0:
256,192,119038,1,0,0:0:0:0:
256,192,119126,1,8,0:0:0:0:
256,192,119185,1,8,0:0:0:0:
256,192,119244,1,8,0:0:0:0:
256,192,119303,1,0,0:0:0:0:
256,192,119391,1,0,0:0:0:0:
256,192,119479,1,8,0:0:0:0:
256,192,119538,1,8,0:0:0:0:
256,192,119597,1,8,0:0:0:0:
256,192,119656,1,0,0:0:0:0:
256,192,119744,1,0,0:0:0:0:
256,192,119832,1,8,0:0:0:0:
256,192,119920,1,8,0:0:0:0:
256,192,120009,1,4,0:0:0:0:
256,192,120362,1,0,0:0:0:0:
256,192,120450,1,0,0:0:0:0:
256,192,120538,1,8,0:0:0:0:
256,192,120626,1,8,0:0:0:0:
256,192,120715,1,0,0:0:0:0:
256,192,120803,1,8,0:0:0:0:
256,192,120891,1,8,0:0:0:0:
256,192,120979,1,8,0:0:0:0:
256,192,121068,1,0,0:0:0:0:
256,192,121156,1,0,0:0:0:0:
256,192,121244,1,8,0:0:0:0:
256,192,121332,1,0,0:0:0:0:
256,192,121420,1,8,0:0:0:0:
256,192,121509,1,8,0:0:0:0:
256,192,121597,1,8,0:0:0:0:
256,192,121685,1,0,0:0:0:0:
256,192,121773,1,8,0:0:0:0:
256,192,121862,1,0,0:0:0:0:
256,192,121950,1,8,0:0:0:0:
256,192,122038,1,0,0:0:0:0:
256,192,122126,1,8,0:0:0:0:
256,192,122215,1,8,0:0:0:0:
256,192,122303,1,8,0:0:0:0:
256,192,122391,1,0,0:0:0:0:
256,192,122479,1,8,0:0:0:0:
256,192,122568,1,0,0:0:0:0:
256,192,122656,1,8,0:0:0:0:
256,192,122744,1,8,0:0:0:0:
256,192,122832,1,0,0:0:0:0:
256,192,122920,1,8,0:0:0:0:
256,192,123009,1,0,0:0:0:0:
256,192,123097,1,0,0:0:0:0:
256,192,123185,1,8,0:0:0:0:
256,192,123273,1,0,0:0:0:0:
256,192,123362,1,8,0:0:0:0:
256,192,123450,1,8,0:0:0:0:
256,192,123538,1,0,0:0:0:0:
256,192,123626,1,8,0:0:0:0:
256,192,123715,1,0,0:0:0:0:
256,192,123803,1,0,0:0:0:0:
256,192,123891,1,8,0:0:0:0:
256,192,123979,1,0,0:0:0:0:
256,192,124068,1,8,0:0:0:0:
256,192,124156,1,8,0:0:0:0:
256,192,124244,1,0,0:0:0:0:
256,192,124332,1,8,0:0:0:0:
256,192,124420,1,8,0:0:0:0:
256,192,124509,1,0,0:0:0:0:
256,192,124597,1,8,0:0:0:0:
256,192,124685,1,0,0:0:0:0:
256,192,124773,1,8,0:0:0:0:
256,192,124862,1,8,0:0:0:0:
256,192,124950,1,0,0:0:0:0:
256,192,125038,1,8,0:0:0:0:
256,192,125126,1,8,0:0:0:0:
256,192,125215,1,0,0:0:0:0:
256,192,125303,1,8,0:0:0:0:
256,192,125391,1,0,0:0:0:0:
256,192,125479,1,8,0:0:0:0:
256,192,125568,1,8,0:0:0:0:
256,192,125656,1,0,0:0:0:0:
256,192,125744,1,0,0:0:0:0:
256,192,125832,1,8,0:0:0:0:
256,192,125920,1,8,0:0:0:0:
256,192,126009,1,0,0:0:0:0:
256,192,126097,1,0,0:0:0:0:
256,192,126185,1,8,0:0:0:0:
256,192,126273,1,0,0:0:0:0:
256,192,126362,1,8,0:0:0:0:
256,192,126450,1,8,0:0:0:0:
256,192,126538,1,0,0:0:0:0:
256,192,126626,1,0,0:0:0:0:
256,192,126715,1,8,0:0:0:0:
256,192,126803,1,8,0:0:0:0:
256,192,126891,1,0,0:0:0:0:
256,192,126979,1,8,0:0:0:0:
256,192,127068,1,0,0:0:0:0:
256,192,127156,1,0,0:0:0:0:
256,192,127244,1,0,0:0:0:0:
256,192,127332,1,8,0:0:0:0:
256,192,127420,1,0,0:0:0:0:
256,192,127509,1,8,0:0:0:0:
256,192,127597,1,8,0:0:0:0:
256,192,127685,1,0,0:0:0:0:
256,192,127773,1,8,0:0:0:0:
256,192,127862,1,8,0:0:0:0:
256,192,127950,1,8,0:0:0:0:
256,192,128038,1,0,0:0:0:0:
256,192,128126,1,8,0:0:0:0:
256,192,128215,1,0,0:0:0:0:
256,192,128303,1,0,0:0:0:0:
256,192,128391,1,8,0:0:0:0:
256,192,128479,1,0,0:0:0:0:
256,192,128568,1,8,0:0:0:0:
256,192,128656,1,0,0:0:0:0:
256,192,128744,1,0,0:0:0:0:
256,192,128832,1,8,0:0:0:0:
256,192,128920,1,8,0:0:0:0:
256,192,129009,1,8,0:0:0:0:
256,192,129097,1,0,0:0:0:0:
256,192,129185,1,8,0:0:0:0:
256,192,129273,1,0,0:0:0:0:
256,192,129362,1,8,0:0:0:0:
256,192,129450,1,8,0:0:0:0:
256,192,129538,1,0,0:0:0:0:
256,192,129626,1,0,0:0:0:0:
256,192,129715,1,0,0:0:0:0:
256,192,129803,1,8,0:0:0:0:
256,192,129891,12,0,131303,0:0:0:0:
256,192,134126,5,12,0:0:0:0:
