osu file format v14

[General]
AudioFilename: audio.mp3
AudioLeadIn: 0
PreviewTime: 113988
Countdown: 0
SampleSet: Soft
StackLeniency: 0.7
Mode: 0
LetterboxInBreaks: 0
WidescreenStoryboard: 1

[Editor]
DistanceSpacing: 0.7
BeatDivisor: 6
GridSize: 32
TimelineZoom: 2.5

[Metadata]
Title:Time After Time
TitleUnicode:원
Artist:BoA, WENDY, NINGNING
ArtistUnicode:보아, 웬디, 닝닝
Creator:[Akito]
Version:Love has always been a cruel thing
Source:
Tags:Korean Kpop K-Pop Won Vocals Ballad Female Pop Girl Soul Trio Harmony Love SMTOWN SMCU Red Velvet Got the Beat aespa
BeatmapID:3990735
BeatmapSetID:1931735

[Difficulty]
HPDrainRate:5
CircleSize:4.5
OverallDifficulty:6
ApproachRate:7.5
SliderMultiplier:1.2
SliderTickRate:1

[Events]
//Background and Video events
0,0,"boa.jpg",0,0
//Break Periods
//Storyboard Layer 0 (Background)
//Storyboard Layer 1 (Fail)
//Storyboard Layer 2 (Pass)
//Storyboard Layer 3 (Foreground)
//Storyboard Layer 4 (Overlay)
//Storyboard Sound Samples

[TimingPoints]
655,476.190476190476,4,2,1,30,1,0
7639,-100,4,2,1,40,0,0
7956,-100,4,2,1,60,0,0
10179,-83.3333333333333,4,2,1,60,0,0
11448,-83.3333333333333,4,2,1,40,0,0
11766,-83.3333333333333,4,2,1,30,0,0
12083,-76.9230769230769,4,2,1,60,0,0
13036,-100,4,2,1,60,0,0
13194,-100,4,2,1,5,0,0
13353,-100,4,2,1,60,0,0
13511,-100,4,2,1,5,0,0
13671,-100,4,2,1,60,0,0
13829,-100,4,2,1,5,0,0
13988,-83.3333333333333,4,2,1,60,0,0
14782,-83.3333333333333,4,2,1,5,0,0
14940,-83.3333333333333,4,2,1,60,0,0
15258,-83.3333333333333,4,2,1,40,0,0
15575,-83.3333333333333,4,2,1,30,0,0
15893,-71.4285714285714,4,2,1,60,0,0
16845,-83.3333333333333,4,2,1,60,0,0
19067,-100,4,2,1,60,0,0
19702,-76.9230769230769,4,2,1,60,0,0
21607,-100,4,2,1,60,0,0
22400,-100,4,2,1,5,0,0
22559,-66.6666666666667,4,2,1,60,0,0
23352,-66.6666666666667,4,2,1,5,0,0
23512,-100,4,2,1,60,0,0
26686,-100,4,2,1,40,0,0
27004,-100,4,2,1,30,0,0
27321,-66.6666666666667,4,2,1,60,0,0
28591,-100,4,2,1,60,0,0
29226,-83.3333333333333,4,2,1,60,0,0
30179,-66.6666666666667,4,2,1,60,0,0
30496,-66.6666666666667,4,2,1,40,0,0
30813,-66.6666666666667,4,2,1,30,0,0
31131,-66.6666666666667,4,2,1,60,0,0
32083,-66.6666666666667,4,2,1,50,0,0
33036,-66.6666666666667,4,2,1,60,0,0
34940,-100,4,2,1,60,0,0
35893,-80,4,2,1,65,0,0
36845,-66.6666666666667,4,2,1,70,0,0
37638,-66.6666666666667,4,2,1,5,0,0
37798,-66.6666666666667,4,2,1,70,0,0
38591,-66.6666666666667,4,2,1,5,0,0
38750,-200,4,2,1,50,0,0
41289,-200,4,2,1,5,0,0
41607,-133.333333333333,4,2,1,50,0,0
42559,-200,4,2,1,50,0,0
46369,-100,4,2,1,50,0,0
47321,-133.333333333333,4,2,1,50,0,0
48274,-100,4,2,1,50,0,0
51131,-100,4,2,20,50,0,0
51210,-100,4,2,1,50,0,0
51766,-100,4,2,1,5,0,0
52083,-133.333333333333,4,2,1,50,0,0
53036,-133.333333333333,4,2,1,60,0,0
53353,-133.333333333333,4,2,1,50,0,0
53671,-133.333333333333,4,2,1,40,0,0
53988,-80,4,2,1,70,0,1
54226,-80,4,2,1,70,0,0
54940,-100,4,2,1,70,0,0
55098,-100,4,2,1,5,0,0
55258,-100,4,2,1,70,0,0
55416,-100,4,2,1,5,0,0
55575,-100,4,2,1,70,0,0
55733,-100,4,2,1,5,0,0
55893,-100,4,2,1,70,0,0
57798,-83.3333333333333,4,2,1,70,0,0
61607,-76.9230769230769,4,2,1,70,0,0
62559,-100,4,2,1,70,0,0
63512,-76.9230769230769,4,2,1,70,0,0
64464,-100,4,2,1,70,0,0
67321,-83.3333333333333,4,2,1,70,0,0
68591,-83.3333333333333,4,2,1,50,0,0
68909,-83.3333333333333,4,2,1,40,0,0
69226,-83.3333333333333,4,2,1,70,0,0
69544,-66.6666666666667,4,2,1,70,0,0
69702,-66.6666666666667,4,2,1,5,0,0
69861,-66.6666666666667,4,2,1,70,0,0
70019,-66.6666666666667,4,2,1,5,0,0
70179,-66.6666666666667,4,2,1,70,0,0
70337,-66.6666666666667,4,2,1,35,0,0
70496,-66.6666666666667,4,2,1,70,0,0
70654,-66.6666666666667,4,2,1,35,0,0
70813,-66.6666666666667,4,2,1,70,0,0
70971,-66.6666666666667,4,2,1,35,0,0
71131,-83.3333333333333,4,2,1,70,0,0
72401,-83.3333333333333,4,2,1,50,0,0
72718,-83.3333333333333,4,2,1,40,0,0
73036,-66.6666666666667,4,2,1,70,0,0
73194,-66.6666666666667,4,2,1,5,0,0
73353,-66.6666666666667,4,2,1,70,0,0
73511,-66.6666666666667,4,2,1,5,0,0
73671,-66.6666666666667,4,2,1,70,0,0
73829,-66.6666666666667,4,2,1,5,0,0
73988,-66.6666666666667,4,2,1,70,0,0
74146,-66.6666666666667,4,2,1,5,0,0
74306,-66.6666666666667,4,2,1,70,0,0
74464,-66.6666666666667,4,2,1,5,0,0
74623,-66.6666666666667,4,2,1,70,0,0
74781,-66.6666666666667,4,2,1,5,0,0
74940,-83.3333333333333,4,2,1,70,0,0
75574,-83.3333333333333,4,2,1,60,0,0
75734,-83.3333333333333,4,2,1,50,0,0
75892,-83.3333333333333,4,2,1,70,0,0
76845,-66.6666666666667,4,2,1,70,0,0
77083,-66.6666666666667,4,2,1,5,0,0
77163,-66.6666666666667,4,2,1,70,0,0
77401,-66.6666666666667,4,2,1,5,0,0
77480,-66.6666666666667,4,2,1,70,0,0
78036,-66.6666666666667,4,2,1,5,0,0
78115,-66.6666666666667,4,2,1,70,0,0
78353,-66.6666666666667,4,2,1,5,0,0
78432,-66.6666666666667,4,2,1,70,0,0
78988,-66.6666666666667,4,2,1,5,0,0
79067,-66.6666666666667,4,2,1,70,0,0
79305,-66.6666666666667,4,2,1,5,0,0
79385,-66.6666666666667,4,2,1,70,0,0
80020,-83.3333333333333,4,2,1,70,0,0
80258,-83.3333333333333,4,2,1,5,0,0
80337,-66.6666666666667,4,2,1,70,0,0
80575,-66.6666666666667,4,2,1,5,0,0
80655,-66.6666666666667,4,2,1,70,0,0
81607,-80,4,2,1,70,0,0
82559,-66.6666666666667,4,2,1,70,0,0
83511,-66.6666666666667,4,2,1,50,0,0
84464,-83.3333333333333,4,2,1,80,0,1
84622,-83.3333333333333,4,2,1,5,0,1
84702,-83.3333333333333,4,2,1,5,0,0
84782,-83.3333333333333,4,2,1,80,0,0
84940,-83.3333333333333,4,2,1,5,0,0
85099,-71.4285714285714,4,2,1,80,0,0
85257,-71.4285714285714,4,2,1,5,0,0
85417,-71.4285714285714,4,2,1,80,0,0
85575,-71.4285714285714,4,2,1,5,0,0
85734,-62.5,4,2,1,80,0,0
85892,-62.5,4,2,1,5,0,0
86052,-62.5,4,2,1,80,0,0
86210,-62.5,4,2,1,5,0,0
86369,-83.3333333333333,4,2,1,80,0,0
87639,-83.3333333333333,4,2,1,60,0,0
87956,-83.3333333333333,4,2,1,50,0,0
88274,-83.3333333333333,4,2,1,80,0,0
88432,-83.3333333333333,4,2,1,5,0,0
88591,-83.3333333333333,4,2,1,80,0,0
88749,-83.3333333333333,4,2,1,5,0,0
88909,-71.4285714285714,4,2,1,80,0,0
89067,-71.4285714285714,4,2,1,5,0,0
89226,-71.4285714285714,4,2,1,80,0,0
89384,-71.4285714285714,4,2,1,5,0,0
89544,-62.5,4,2,1,80,0,0
89702,-62.5,4,2,1,5,0,0
89861,-62.5,4,2,1,80,0,0
90019,-62.5,4,2,1,5,0,0
90179,-83.3333333333333,4,2,1,80,0,0
91131,-71.4285714285714,4,2,1,80,0,0
91448,-71.4285714285714,4,2,1,60,0,0
91766,-71.4285714285714,4,2,1,50,0,0
92083,-66.6666666666667,4,2,1,80,0,0
93036,-100,4,2,1,80,0,0
93988,-66.6666666666667,4,2,1,80,0,0
94940,-100,4,2,1,80,0,0
95893,-66.6666666666667,4,2,1,80,0,0
97798,-80,4,2,1,80,0,0
99067,-80,4,2,1,60,0,0
99385,-80,4,2,1,50,0,0
99702,-100,4,2,1,50,0,0
107004,-100,4,2,1,40,0,0
107321,-100,4,2,1,50,0,0
108274,-100,4,2,40,50,0,0
108353,-100,4,2,1,50,0,0
111131,-90.9090909090909,4,2,1,50,0,0
112083,-90.9090909090909,4,2,40,50,0,0
112163,-90.9090909090909,4,2,1,50,0,0
112718,-90.9090909090909,4,2,1,5,0,0
113036,-303.030303030303,4,2,1,50,0,0
113829,-303.030303030303,4,2,1,5,0,0
113988,-303.030303030303,4,2,1,30,0,0
114306,-303.030303030303,4,2,1,40,0,0
114623,-303.030303030303,4,2,1,50,0,0
114940,-66.6666666666667,4,2,1,60,0,0
115893,-80,4,2,1,60,0,0
116845,-100,4,2,1,60,0,0
118750,-66.6666666666667,4,2,1,60,0,0
119702,-80,4,2,1,60,0,0
120655,-100,4,2,1,60,0,0
121925,-100,4,2,1,50,0,0
122242,-100,4,2,1,40,0,0
122559,-80,4,2,1,60,0,0
123352,-80,4,2,1,5,0,0
123512,-66.6666666666667,4,2,1,60,0,0
124464,-80,4,2,1,60,0,0
126369,-66.6666666666667,4,2,1,60,0,0
128274,-57.1428571428571,4,2,1,60,0,0
128988,-57.1428571428571,4,2,1,50,0,0
129544,-57.1428571428571,4,2,1,40,0,0
129861,-57.1428571428571,4,2,1,80,0,0
130178,-66.6666666666667,4,2,1,80,0,1
130337,-66.6666666666667,4,2,1,5,0,1
130496,-66.6666666666667,4,2,1,80,0,1
130654,-66.6666666666667,4,2,1,5,0,1
130813,-58.8235294117647,4,2,1,80,0,1
130971,-58.8235294117647,4,2,1,5,0,1
131131,-58.8235294117647,4,2,1,80,0,1
131289,-58.8235294117647,4,2,1,5,0,1
131448,-52.6315789473684,4,2,1,80,0,1
131606,-52.6315789473684,4,2,1,5,0,1
131766,-52.6315789473684,4,2,1,80,0,1
131924,-52.6315789473684,4,2,1,5,0,1
132083,-66.6666666666667,4,2,1,80,0,1
133353,-66.6666666666667,4,2,1,70,0,1
133671,-66.6666666666667,4,2,1,60,0,1
134146,-66.6666666666667,4,2,1,5,0,1
134306,-66.6666666666667,4,2,1,80,0,1
134464,-66.6666666666667,4,2,1,5,0,1
134623,-58.8235294117647,4,2,1,80,0,1
134781,-58.8235294117647,4,2,1,5,0,1
134940,-58.8235294117647,4,2,1,80,0,1
135098,-58.8235294117647,4,2,1,5,0,1
135258,-52.6315789473684,4,2,1,80,0,1
135416,-52.6315789473684,4,2,1,5,0,1
135575,-52.6315789473684,4,2,1,80,0,1
135733,-52.6315789473684,4,2,1,5,0,1
135893,-66.6666666666667,4,2,1,80,0,1
137163,-66.6666666666667,4,2,1,60,0,1
137480,-66.6666666666667,4,2,1,50,0,1
137798,-66.6666666666667,4,2,1,80,0,1
138750,-80,4,2,1,80,0,1
139702,-66.6666666666667,4,2,1,80,0,1
140655,-80,4,2,1,80,0,1
141925,-44.4444444444445,4,2,1,80,0,1
142163,-44.4444444444445,4,2,1,5,0,1
142242,-44.4444444444445,4,2,1,80,0,1
142480,-44.4444444444445,4,2,1,5,0,1
142559,-44.4444444444445,4,2,1,80,0,1
143115,-44.4444444444445,4,2,1,5,0,1
143194,-44.4444444444445,4,2,1,80,0,1
143432,-44.4444444444445,4,2,1,5,0,1
143512,-66.6666666666667,4,2,1,80,0,0
144781,-66.6666666666667,4,2,1,60,0,0
145099,-66.6666666666667,4,2,1,50,0,0
145416,-66.6666666666667,4,2,1,80,0,1
145575,-66.6666666666667,4,2,1,5,0,1
145734,-66.6666666666667,4,2,1,80,0,1
145892,-66.6666666666667,4,2,1,5,0,1
146052,-58.8235294117647,4,2,1,80,0,1
146210,-58.8235294117647,4,2,1,5,0,1
146369,-58.8235294117647,4,2,1,80,0,1
146527,-58.8235294117647,4,2,1,5,0,1
146686,-52.6315789473684,4,2,1,80,0,1
146844,-52.6315789473684,4,2,1,5,0,1
147004,-52.6315789473684,4,2,1,80,0,1
147162,-52.6315789473684,4,2,1,5,0,1
147321,-66.6666666666667,4,2,1,80,0,1
148591,-66.6666666666667,4,2,1,70,0,1
148909,-66.6666666666667,4,2,1,60,0,1
149226,-66.6666666666667,4,2,1,80,0,1
149384,-66.6666666666667,4,2,1,5,0,1
149544,-66.6666666666667,4,2,1,80,0,1
149702,-66.6666666666667,4,2,1,5,0,1
149861,-58.8235294117647,4,2,1,80,0,1
150019,-58.8235294117647,4,2,1,5,0,1
150179,-58.8235294117647,4,2,1,80,0,1
150337,-58.8235294117647,4,2,1,5,0,1
150496,-58.8235294117647,4,2,1,80,0,1
151131,-66.6666666666667,4,2,1,80,0,1
152401,-66.6666666666667,4,2,1,60,0,1
152718,-66.6666666666667,4,2,1,50,0,1
153035,-66.6666666666667,4,2,1,80,0,0
153988,-50,4,2,1,70,0,0
154305,-50,4,2,1,40,0,0
154464,-47.6190476190476,4,2,1,70,0,0
154781,-47.6190476190476,4,2,1,40,0,0
154940,-40,4,2,1,80,0,0
155417,-50,4,2,1,80,0,0
156845,-66.6666666666667,4,2,1,80,0,0
159702,-80,4,2,1,80,0,0
160019,-80,4,2,1,70,0,0
160337,-80,4,2,1,60,0,0
160655,-66.6666666666667,4,2,1,70,0,0
160813,-66.6666666666667,4,2,1,5,0,0
160972,-66.6666666666667,4,2,1,70,0,0
161130,-66.6666666666667,4,2,1,5,0,0
161290,-66.6666666666667,4,2,1,70,0,0
161448,-66.6666666666667,4,2,1,5,0,0
161607,-62.5,4,2,1,70,0,0
161765,-62.5,4,2,1,5,0,0
161925,-62.5,4,2,1,70,0,0
162083,-62.5,4,2,1,5,0,0
162242,-62.5,4,2,1,70,0,0
162400,-62.5,4,2,1,5,0,0
162559,-58.8235294117647,4,2,1,70,0,0
162717,-58.8235294117647,4,2,1,5,0,0
162877,-58.8235294117647,4,2,1,70,0,0
163035,-58.8235294117647,4,2,1,5,0,0
163194,-58.8235294117647,4,2,1,70,0,0
163352,-58.8235294117647,4,2,1,5,0,0
163512,-58.8235294117647,4,2,1,70,0,0
164464,-66.6666666666667,4,2,1,70,0,0
164622,-66.6666666666667,4,2,1,5,0,0
164782,-66.6666666666667,4,2,1,70,0,0
164940,-66.6666666666667,4,2,1,5,0,0
165099,-66.6666666666667,4,2,1,70,0,0
165257,-66.6666666666667,4,2,1,5,0,0
165417,-62.5,4,2,1,70,0,0
165575,-62.5,4,2,1,5,0,0
165734,-62.5,4,2,1,70,0,0
165892,-62.5,4,2,1,5,0,0
166052,-62.5,4,2,1,70,0,0
166210,-62.5,4,2,1,5,0,0
166369,-58.8235294117647,4,2,1,70,0,0
166527,-58.8235294117647,4,2,1,5,0,0
166686,-58.8235294117647,4,2,1,70,0,0
166844,-58.8235294117647,4,2,1,5,0,0
167004,-58.8235294117647,4,2,1,70,0,0
167162,-58.8235294117647,4,2,1,5,0,0
167321,-58.8235294117647,4,2,1,70,0,0
167639,-58.8235294117647,4,2,1,50,0,0
167956,-58.8235294117647,4,2,1,40,0,0
168274,-66.6666666666667,4,2,1,70,0,0
169226,-80,4,2,1,70,0,0
170179,-66.6666666666667,4,2,1,70,0,0
172083,-80,4,2,1,70,0,0
173988,-100,4,2,1,60,0,0
175575,-100,4,2,1,50,0,0
175893,-100,4,2,1,40,0,0
179702,-100,4,2,1,5,0,0

[Colours]
Combo1 : 235,149,20
Combo2 : 207,150,92
Combo3 : 162,200,196
Combo4 : 111,62,57

[HitObjects]
54,92,7162,5,8,3:0:0:0:
70,96,7242,1,8,3:0:0:0:
86,99,7321,1,8,3:0:0:0:
202,70,7639,1,8,3:0:0:0:
318,40,7956,1,8,3:0:0:0:
161,173,8274,6,0,B|139:194|120:199|87:196|87:196|96:206|136:244|152:262|85:283|112:324|150:352,1,240,4|10,1:0|1:2,2:0:0:0:
227,370,9544,1,2,2:0:0:0:
311,318,9861,1,2,1:2:0:0:
281,217,10179,2,0,B|329:200|372:207|374:271|442:268|502:239|483:175|441:128|393:178,1,288,2|10,1:2|1:0,2:0:0:0:
314,131,11448,1,2,2:1:0:0:
388,82,11766,1,2,2:1:0:0:
299,292,12083,6,0,B|259:300|230:286|210:267|200:235|200:235|171:254|143:245|122:231,1,207.999990478516,2|0,1:0|2:0,2:0:0:0:
23,139,13036,2,0,P|51:144|79:142,1,40,10|0,1:2|2:0,2:0:0:0:
185,105,13353,2,0,P|157:110|129:108,1,40,2|0,2:0|2:0,2:0:0:0:
14,43,13671,2,0,P|42:48|70:46,1,40,2|0,1:2|2:0,2:0:0:0:
232,50,13988,2,0,B|264:74|262:110|253:134|253:134|274:108|293:87|327:59|366:45|420:79,1,288,2|10,1:2|1:0,2:0:0:0:
473,147,15258,1,2,2:1:0:0:
503,209,15575,1,2,2:1:0:0:
282,310,15893,6,0,B|356:340|382:270|432:269|465:288|471:337|439:362,1,224,2|0,1:0|2:0,2:0:0:0:
314,237,16845,2,0,P|251:236|210:344,1,192,10|0,1:2|1:0,2:0:0:0:
0,160,17798,1,2,1:2:0:0:
25,173,18115,2,0,B|86:203|116:173|147:142|208:173,1,192,2|8,2:0|1:2,2:0:0:0:
358,222,19067,2,0,P|318:222|281:209,1,80,2|2,2:0|1:2,2:0:0:0:
458,135,19702,6,0,P|489:228|437:332,1,208,2|0,1:2|2:0,2:0:0:0:
300,308,20655,1,10,1:2:0:0:
266,315,21290,1,2,1:2:0:0:
55,358,21607,2,0,B|105:323|106:274|83:239|66:216|66:216|88:222|111:214,1,200,2|0,1:2|2:0,2:0:0:0:
158,160,22559,2,0,B|204:162|220:110|187:67|145:57|98:78|68:117|62:157|79:197|103:217,1,300,8|0,1:2|2:0,2:0:0:0:
153,269,23512,6,0,B|206:304|238:279|269:254|323:289|323:289|330:252|371:234,1,240,4|10,1:2|1:2,2:0:0:0:
449,206,24782,1,2,2:0:0:0:
496,122,25099,1,2,1:2:0:0:
347,160,25417,2,0,P|279:156|238:66,1,160,2|0,1:2|2:0,2:0:0:0:
210,2,26369,1,10,1:0:0:0:
147,108,26686,1,2,2:1:0:0:
89,204,27004,1,2,1:0:0:0:
346,146,27321,6,0,B|401:160|449:203|469:238|454:293|399:279|344:264|358:208|393:188|456:175|512:190,1,360,2|8,1:0|1:2,2:0:0:0:
468,325,28591,2,0,P|431:338|378:332,1,80,2|2,2:0|1:2,2:0:0:0:
217,291,29226,2,0,P|257:297|309:281,1,96,2|2,1:2|2:0,2:0:0:0:
390,213,29861,1,2,2:0:0:0:
192,134,30179,2,0,P|148:129|71:160,1,120,10|2,1:0|2:1,2:0:0:0:
2,223,30813,1,2,1:0:0:0:
246,193,31131,6,0,P|271:144|243:73,2,120,2|2|2,1:0|2:0|2:0,2:0:0:0:
359,157,32083,1,10,1:2:0:0:
422,173,32401,1,2,2:0:0:0:
405,110,32718,1,2,1:2:0:0:
250,322,33036,6,0,B|214:336|195:315|176:293|134:311,2,120,2|2|2,1:2|2:0|2:0,2:0:0:0:
481,367,33988,1,10,1:2:0:0:
462,352,34623,1,2,1:2:0:0:
480,266,34940,6,0,P|486:224|445:103,1,160,2|0,1:2|2:0,2:0:0:0:
210,175,35893,2,0,B|234:175|256:161|256:161|262:196|287:221|323:235|362:222|386:191,1,200,10|2,1:2|1:2,2:0:0:0:
95,121,36845,6,0,B|63:84|18:98|-14:124|-14:180|9:224|82:184|114:227|120:263|124:284,1,300,2|0,1:2|2:0,2:0:0:0:
124,284,37798,2,0,B|123:263|123:227|147:179|226:205|242:158|232:102|195:83|149:77|123:117,1,300,8|0,1:2|2:0,2:0:0:0:
83,181,38750,6,0,P|72:196|61:222,5,40,2|2|2|2|2|2,2:0|2:0|2:0|2:1|2:0|2:0,2:0:0:0:
10,269,40655,2,0,P|45:291|87:289,1,80,2|0,2:0|2:0,2:0:0:0:
223,356,41607,2,0,B|223:313|171:293|176:239,1,120,2|0,2:1|2:0,2:0:0:0:
312,272,42559,6,0,P|331:276|357:278,5,40,2|2|2|2|2|2,2:0|2:0|2:0|2:1|2:0|2:0,2:0:0:0:
398,217,44464,2,0,P|427:259|408:329,1,120,2|2,2:0|2:1,2:0:0:0:
404,335,46052,1,2,2:0:0:0:
239,323,46369,6,0,B|200:323|173:330|129:365|129:365|142:348|154:315,1,160,2|2,2:0|2:0,2:0:0:0:
121,218,47321,2,0,P|121:256|49:253,1,120,2|2,2:1|2:0,2:0:0:0:
84,147,48274,6,0,B|136:120|163:147|189:173|242:147,1,160,2|2,2:0|2:0,2:0:0:0:
319,115,49226,1,2,2:1:0:0:
357,124,49861,1,2,2:0:0:0:
490,57,50179,6,0,B|525:128|490:164|454:200|493:270|493:270|498:279|524:324|501:350|473:375|414:357|418:306,1,400,2|0,2:0|2:0,2:0:0:0:
270,198,52083,6,0,P|327:201|338:260,1,120,2|0,2:0|2:0,2:0:0:0:
244,305,53036,1,2,2:1:0:0:
149,277,53353,1,2,2:1:0:0:
73,293,53671,1,2,1:0:0:0:
278,152,53988,6,0,B|308:133|331:90|324:37|324:37|341:81|385:101,1,200,4|0,1:0|0:0,2:0:0:0:
498,140,54940,2,0,P|474:144|449:142,1,40,10|0,1:2|2:0,2:0:0:0:
366,200,55258,2,0,P|390:204|415:202,1,40,2|0,2:0|2:0,2:0:0:0:
512,271,55575,2,0,P|488:275|463:273,1,40,2|0,1:2|2:0,2:0:0:0:
313,314,55893,2,0,P|371:367|463:371,1,160,2|0,1:2|2:0,2:0:0:0:
512,168,56845,1,8,1:0:0:0:
394,192,57163,1,2,2:1:0:0:
256,151,57480,1,2,1:0:0:0:
156,16,57798,6,0,P|176:58|68:136,1,192,2|0,1:0|2:0,2:0:0:0:
153,333,58750,1,10,1:2:0:0:
120,242,59067,1,2,2:0:0:0:
59,316,59385,1,2,1:2:0:0:
214,259,59702,6,0,B|284:232|314:269|344:306|414:280|414:280|380:273|343:235,1,288,2|8,1:2|1:0,2:0:0:0:
255,334,60972,1,2,2:0:0:0:
270,185,61290,1,2,2:0:0:0:
289,17,61607,6,0,B|353:63|393:33|434:4|498:50,1,208,2|0,1:2|2:0,2:0:0:0:
428,215,62559,2,0,P|423:176|434:138,1,80,10|0,1:2|2:0,2:0:0:0:
502,182,63194,1,2,1:2:0:0:
298,263,63512,6,0,B|259:281|223:265|223:265|240:278|279:295|323:285|357:242,1,208,2|0,1:2|2:0,2:0:0:0:
477,333,64464,2,0,P|436:338|391:320,1,80,10|0,1:2|2:0,2:0:0:0:
445,255,65099,1,2,1:2:0:0:
281,341,65417,2,0,B|247:336|229:315|229:315|229:333|223:359|195:388|165:384|121:378|106:322,1,240,2|8,1:2|1:0,2:0:0:0:
63,374,67321,6,0,P|80:265|163:358,1,288,2|8,1:2|1:0,2:0:0:0:
106,325,68591,1,2,2:0:0:0:
256,304,68909,1,2,1:2:0:0:
480,340,69226,5,6,1:2:0:0:
449,311,69385,1,0,2:0:0:0:
416,284,69544,2,0,P|385:277|352:281,1,60,2|0,2:0|2:0,2:0:0:0:
423,140,69861,2,0,P|458:141|486:137,1,60,2|0,2:0|2:0,2:0:0:0:
368,22,70179,2,0,P|334:19|300:24,1,60,10|0,1:2|2:0,2:0:0:0:
170,95,70496,2,0,P|202:86|237:85,1,60,2|0,2:0|2:0,2:0:0:0:
360,166,70813,2,0,P|327:157|292:156,1,60,2|0,1:2|2:0,2:0:0:0:
160,260,71131,6,0,B|222:291|253:260|285:228|347:260,1,192,2|0,1:2|2:0,2:0:0:0:
429,310,72083,1,10,1:0:0:0:
304,366,72401,1,2,2:1:0:0:
451,203,72718,1,2,1:0:0:0:
205,375,73036,6,0,P|198:341|215:297,1,60,2|0,1:0|2:0,2:0:0:0:
298,215,73353,2,0,P|275:234|247:244,1,60,2|0,2:0|2:0,2:0:0:0:
113,214,73671,2,0,P|141:223|164:242,1,60,2|0,2:0|2:0,2:0:0:0:
293,310,73988,2,0,P|323:313|355:306,1,60,10|0,1:2|2:0,2:0:0:0:
458,200,74306,2,0,P|426:196|396:207,1,60,2|0,2:0|2:0,2:0:0:0:
249,120,74623,2,0,P|280:118|309:132,1,60,2|0,1:2|2:0,2:0:0:0:
489,61,74940,6,0,B|433:19|397:44|361:69|305:28,1,192,2|2,1:2|2:0,2:0:0:0:
199,71,75734,1,2,2:0:0:0:
199,71,75893,2,0,P|170:69|139:56,1,48,10|2,1:2|2:0,2:0:0:0:
273,132,76210,2,0,P|297:131|320:125,1,48,2|2,2:0|2:0,2:0:0:0:
187,190,76528,2,0,P|163:188|140:182,1,48,2|2,1:2|2:0,2:0:0:0:
274,233,76845,6,0,P|322:241|375:221,1,89.9999999999999,6|0,1:2|2:0,2:0:0:0:
448,196,77163,2,0,L|425:284,1,89.9999999999999,2|0,2:0|2:0,2:0:0:0:
405,357,77480,1,2,2:0:0:0:
175,341,77798,6,0,P|129:331|65:349,1,89.9999999999999,10|0,1:2|2:0,2:0:0:0:
5,347,78115,2,0,L|24:256,1,89.9999999999999,2|0,2:0|2:0,2:0:0:0:
36,180,78432,1,2,1:2:0:0:
294,64,78750,6,0,P|288:92|241:140,1,89.9999999999999,2|0,1:2|2:0,2:0:0:0:
230,212,79067,2,0,L|321:198,1,89.9999999999999,2|0,2:0|2:0,2:0:0:0:
396,186,79385,1,2,2:0:0:0:
496,369,79702,5,10,1:2:0:0:
391,266,80020,2,0,P|398:227|422:197,1,72,2|0,2:0|2:0,2:0:0:0:
367,268,80337,2,0,P|372:221|396:184,1,89.9999999999999,2|0,1:2|2:0,2:0:0:0:
512,101,80655,6,0,P|415:108|469:21,1,240,2|2,1:2|2:0,2:0:0:0:
310,163,81607,2,0,B|246:195|214:163|182:131|118:163,1,200,10|2,1:2|2:0,2:0:0:0:
366,98,82559,6,0,P|226:146|338:243,1,360,2|10,1:2|1:0,2:0:0:0:
373,234,84464,6,0,P|400:241|439:243,1,48,4|0,1:0|2:0,2:0:0:0:
433,178,84782,2,0,P|405:170|367:169,1,48,2|0,2:0|2:0,2:0:0:0:
367,240,85099,2,0,P|394:247|433:249,1,56,2|0,2:0|2:0,2:0:0:0:
438,172,85417,2,0,P|410:164|372:163,1,56,10|0,1:2|2:0,2:0:0:0:
362,247,85734,2,0,P|389:254|428:256,1,64,2|0,2:0|2:0,2:0:0:0:
443,164,86052,2,0,P|415:156|377:155,1,64,2|0,1:2|2:0,2:0:0:0:
292,291,86369,6,0,P|367:323|480:316,1,192,2|0,1:2|2:0,2:0:0:0:
512,135,87321,1,10,1:2:0:0:
390,187,87639,1,2,2:1:0:0:
467,156,87956,1,2,1:0:0:0:
108,86,88274,6,0,P|101:112|99:151,1,48,2|0,1:0|2:0,2:0:0:0:
163,145,88591,2,0,P|171:117|172:79,1,48,2|0,2:0|2:0,2:0:0:0:
101,79,88909,2,0,P|94:105|92:145,1,56,2|0,2:0|2:0,2:0:0:0:
170,150,89226,2,0,P|178:122|179:84,1,56,10|0,1:2|2:0,2:0:0:0:
95,74,89544,2,0,P|88:101|86:140,1,64,2|0,2:0|2:0,2:0:0:0:
178,155,89861,2,0,P|186:126|187:88,1,64,2|0,1:2|2:0,2:0:0:0:
48,4,90179,6,0,P|15:79|22:192,1,192,2|0,1:2|2:0,2:0:0:0:
178,329,91131,2,0,P|138:293|76:299,1,112,8|0,1:0|2:0,2:0:0:0:
107,375,91766,1,2,1:2:0:0:
248,181,92083,6,0,B|284:170|312:181|312:181|260:155|235:155|209:155|183:155|144:181,1,240,2|2,1:2|2:0,2:0:0:0:
257,331,93036,2,0,P|273:295|282:256,1,80,10|2,1:2|2:0,2:0:0:0:
389,325,93671,1,2,1:2:0:0:
365,129,93988,2,0,P|406:85|468:200,1,240,2|2,1:2|2:0,2:0:0:0:
352,36,94940,2,0,P|389:17|441:15,1,80,10|2,1:2|2:0,2:0:0:0:
429,146,95575,1,2,1:2:0:0:
230,50,95893,6,0,B|166:18|134:50|102:82|38:50|38:50|52:57|118:89|112:108|153:126|191:115,1,360,2|8,1:2|1:0,2:0:0:0:
191,125,97480,1,0,1:0:0:0:
348,191,97798,2,0,B|387:176|414:189|428:228|428:228|414:189|426:162|465:148,1,200,2|0,1:2|2:0,2:0:0:0:
512,284,98750,1,10,1:0:0:0:
428,338,99067,1,2,2:1:0:0:
324,292,99385,1,2,2:1:0:0:
228,247,99702,6,0,B|219:266|194:273|153:271|131:234|152:252|134:272|115:273|96:275|76:257|93:237|77:276|46:290|11:281|0:262,2,240,6|2|2,2:0|2:0|2:0,2:0:0:0:
252,176,102559,1,2,2:0:0:0:
355,222,102877,1,2,2:1:0:0:
480,182,103194,1,2,2:1:0:0:
365,87,103512,6,0,B|338:67|305:91|307:76|310:62|284:43|255:38|227:33|196:42|193:56|191:71|167:37|136:46,2,240,2|2|2,2:1|2:0|2:0,2:0:0:0:
443,78,106369,1,2,2:0:0:0:
512,175,106686,1,2,2:1:0:0:
388,230,107004,1,2,2:1:0:0:
212,201,107321,6,0,B|261:192|303:133|303:133|282:162|291:212|300:262|283:316|238:350|238:350|261:333|308:312|363:328,1,480,2|2,2:1|2:0,2:0:0:0:
433,352,110179,1,2,2:0:0:0:
501,274,110496,1,2,2:1:0:0:
472,143,110813,1,2,2:1:0:0:
323,67,111131,6,0,B|281:72|251:48|251:48|278:83|311:127|311:185|252:234|252:234|250:181|217:126|148:128,1,440,2|0,2:1|2:0,2:0:0:0:
159,222,113036,6,0,P|141:246|112:268,1,66,2|0,2:0|2:0,2:0:0:0:
112,267,113988,1,0,1:0:0:0:
170,356,114306,1,2,1:0:0:0:
297,339,114623,1,2,1:0:0:0:
392,212,114940,6,0,P|450:222|490:265,1,120,6|0,1:0|2:0,2:0:0:0:
461,355,115575,1,0,2:0:0:0:
305,215,115893,2,0,P|256:226|219:259,1,100,10|0,1:2|2:0,2:0:0:0:
184,356,116528,1,2,1:2:0:0:
390,249,116845,2,0,P|385:172|324:125,1,160,2|0,1:2|2:0,2:0:0:0:
141,40,117798,1,10,1:2:0:0:
250,57,118115,1,2,2:0:0:0:
380,29,118432,1,2,1:0:0:0:
210,153,118750,6,0,P|155:164|80:142,1,120,2|0,1:0|2:0,2:0:0:0:
1,97,119385,1,0,2:0:0:0:
34,273,119702,2,0,P|73:283|137:268,1,100,10|0,1:2|2:0,2:0:0:0:
219,223,120337,1,2,1:2:0:0:
366,323,120655,2,0,B|314:297|288:323|262:348|211:323,1,160,2|0,1:2|2:0,2:0:0:0:
123,192,121607,1,10,1:2:0:0:
53,337,121925,1,2,2:1:0:0:
106,224,122242,1,2,1:0:0:0:
177,43,122559,6,0,B|207:41|252:30|288:68|288:68|339:55|352:93|377:93|415:68,1,250,2|0,1:0|2:0,2:0:0:0:
412,69,123512,2,0,B|455:43|514:76|518:162|463:181|424:183|369:159,1,240,10|0,1:2|1:0,2:0:0:0:
283,248,124464,2,0,P|366:294|480:263,1,200,2|0,1:2|2:0,2:0:0:0:
300,367,125417,1,10,1:2:0:0:
385,212,125734,1,2,2:0:0:0:
321,329,126052,1,2,1:2:0:0:
483,113,126369,6,0,B|427:63|386:87|345:110|289:61|289:61|239:117|175:99|151:58,1,360,2|8,1:2|1:0,2:0:0:0:
157,67,128274,6,0,B|205:163|157:195|109:227|157:355|157:355|147:341|124:321|120:293|87:287|45:287,1,420,2|2,2:1|2:1,2:0:0:0:
261,271,129544,1,0,2:0:0:0:
66,366,129861,1,0,1:0:0:0:
114,141,130179,6,0,P|138:124|167:121,1,60,4|0,1:0|2:0,2:0:0:0:
190,193,130496,2,0,P|165:209|136:212,1,60,2|0,2:0|2:0,2:0:0:0:
107,138,130813,2,0,P|135:118|169:115,1,68,2|0,2:0|2:0,2:0:0:0:
195,197,131131,2,0,P|166:216|132:219,1,68,10|0,1:2|2:0,2:0:0:0:
103,135,131448,2,0,P|134:113|171:110,1,76,2|0,2:0|2:0,2:0:0:0:
199,200,131766,2,0,P|167:221|130:224,1,76,2|0,1:2|2:0,2:0:0:0:
20,123,132083,6,0,P|107:43|226:47,1,240,2|0,1:2|2:0,2:0:0:0:
512,11,133036,1,10,1:2:0:0:
426,72,133353,1,2,2:0:0:0:
293,21,133671,1,2,1:2:0:0:
339,285,133988,6,0,P|368:292|397:284,1,60,2|0,1:2|2:0,2:0:0:0:
396,208,134306,2,0,P|367:201|339:210,1,60,2|0,2:0|2:0,2:0:0:0:
336,290,134623,2,0,P|369:297|402:288,1,68,2|0,2:0|2:0,2:0:0:0:
401,201,134940,2,0,P|368:194|336:204,1,68,10|0,1:2|2:0,2:0:0:0:
331,295,135258,2,0,P|367:303|404:293,1,76,2|0,2:0|2:0,2:0:0:0:
405,198,135575,2,0,P|369:190|333:201,1,76,2|0,1:2|2:0,2:0:0:0:
262,339,135893,6,0,P|373:377|480:329,1,240,2|0,1:2|2:0,2:0:0:0:
256,224,136845,1,8,1:0:0:0:
141,300,137163,1,2,2:1:0:0:
229,243,137480,1,2,1:0:0:0:
103,384,137798,6,0,P|66:354|53:276,1,120,2|0,1:0|2:0,2:0:0:0:
54,176,138432,1,2,2:0:0:0:
141,300,138750,2,0,P|186:308|240:298,1,100,10|2,1:2|2:0,2:0:0:0:
348,262,139385,1,2,1:2:0:0:
450,375,139702,2,0,P|390:382|333:366,1,120,2|0,1:2|2:0,2:0:0:0:
238,298,140337,1,2,2:0:0:0:
323,165,140655,2,0,B|380:207|417:181|454:155|511:198,1,200,10|2,1:2|1:2,2:0:0:0:
383,91,141607,5,2,1:2:0:0:
155,45,141925,2,0,P|204:100|224:171,1,135,2|0,2:1|2:0,2:0:0:0:
222,157,142242,2,0,P|173:102|153:31,1,135,2|0,2:1|2:0,2:0:0:0:
154,44,142559,1,8,1:0:0:0:
77,197,142877,2,0,P|75:259|40:315,1,135,2|0,2:1|2:0,2:0:0:0:
36,318,143194,2,0,P|36:250|72:196,1,135,2|0,1:0|2:3,2:3:0:0:
72,195,143512,6,0,B|151:219|151:219|155:220|197:233|230:217|260:198|305:222,1,240,2|0,1:2|2:0,2:0:0:0:
512,255,144464,2,0,P|455:277|391:266,1,120,10|2,1:2|2:0,2:0:0:0:
313,324,145099,1,2,2:0:0:0:
346,108,145417,6,0,P|374:112|397:131,1,60,4|0,1:0|2:0,2:0:0:0:
362,198,145734,2,0,P|333:191|310:173,1,60,2|0,2:0|2:0,2:0:0:0:
343,100,146052,2,0,P|376:105|403:127,1,68,2|0,2:0|2:0,2:0:0:0:
363,204,146369,2,0,P|329:196|302:175,1,68,10|0,1:2|2:0,2:0:0:0:
342,95,146686,2,0,P|379:101|407:125,1,76,2|0,2:0|2:0,2:0:0:0:
364,209,147004,2,0,P|326:201|298:177,1,76,2|0,1:2|2:0,2:0:0:0:
292,28,147321,6,0,P|410:32|491:119,1,240,2|0,1:2|2:0,2:0:0:0:
512,354,148274,1,10,1:2:0:0:
418,285,148591,1,2,2:0:0:0:
504,149,148909,1,2,1:2:0:0:
305,290,149226,6,0,P|275:291|248:278,1,60,2|0,1:2|2:0,2:0:0:0:
262,204,149544,2,0,P|291:202|317:215,1,60,2|0,2:0|2:0,2:0:0:0:
307,295,149861,2,0,P|273:296|242:281,1,68,2|0,2:0|2:0,2:0:0:0:
258,196,150179,2,0,P|291:194|321:210,1,68,10|0,1:2|2:0,2:0:0:0:
487,274,150496,1,2,2:0:0:0:
449,136,150813,1,2,1:2:0:0:
371,356,151131,6,0,P|244:374|124:325,1,240,2|0,1:2|2:0,2:0:0:0:
3,176,152083,1,8,1:0:0:0:
128,217,152401,1,2,2:1:0:0:
221,175,152718,1,2,1:0:0:0:
367,26,153036,6,0,P|407:65|415:144,1,120,2|0,1:0|2:0,2:0:0:0:
405,250,153671,1,2,2:0:0:0:
178,88,153988,6,0,B|238:128|238:128|325:111,2,160,10|0|0,1:2|2:0|1:0,2:0:0:0:
2,102,154940,6,0,L|188:222,1,200,2|2,1:0|2:0,2:0:0:0:
234,291,155417,2,0,B|164:335|121:300|77:266|4:313,1,240,2|8,2:1|1:0,2:0:0:0:
72,377,156528,1,2,1:2:0:0:
312,346,156845,6,0,B|334:330|368:326|368:326|333:309|287:327|239:345|185:300,1,240,2|0,1:2|2:0,2:0:0:0:
76,216,157798,1,10,1:2:0:0:
160,152,158750,6,0,B|199:119|237:132|286:141|315:216|228:262|199:215,1,240,2|0,1:0|2:0,2:0:0:0:
322,264,159702,2,0,P|344:219|346:170,1,100,10|0,1:0|2:0,2:0:0:0:
328,79,160337,1,2,1:2:0:0:
87,235,160655,6,0,P|111:216|139:206,1,60,4|0,1:0|2:0,2:0:0:0:
185,63,160972,2,0,P|190:93|185:123,1,60,2|0,2:0|2:0,2:0:0:0:
284,235,161290,2,0,P|256:225|233:206,1,60,2|0,2:0|2:0,2:0:0:0:
76,216,161607,6,0,P|106:206|137:206,1,64,10|0,1:2|2:0,2:0:0:0:
207,63,161925,2,0,P|202:94|186:122,1,64,2|0,2:0|2:0,2:0:0:0:
274,255,162242,2,0,P|251:235|235:208,1,64,2|0,1:2|2:0,2:0:0:0:
72,205,162559,6,0,P|105:200|137:205,1,68,2|0,1:2|2:0,2:0:0:0:
219,65,162877,2,0,P|208:97|187:123,1,68,2|0,2:0|2:0,2:0:0:0:
267,265,163194,2,0,P|246:240|235:208,1,68,2|0,2:0|2:0,2:0:0:0:
76,182,163512,5,10,1:2:0:0:
349,145,163829,1,2,1:0:0:0:
157,384,164147,1,2,1:0:0:0:
186,58,164464,6,0,P|194:86|211:111,1,60,2|0,1:0|2:0,2:0:0:0:
166,252,164782,2,0,P|186:230|200:203,1,60,2|0,2:0|2:0,2:0:0:0:
345,168,165099,2,0,P|316:160|286:162,1,60,2|0,2:0|2:0,2:0:0:0:
166,66,165417,6,0,P|185:91|211:109,1,64,10|0,1:2|2:0,2:0:0:0:
185,264,165734,2,0,P|198:235|201:203,1,64,2|0,2:0|2:0,2:0:0:0:
349,145,166052,2,0,P|317:148|288:162,1,64,2|0,1:2|2:0,2:0:0:0:
155,70,166369,6,0,P|179:93|210:108,1,68,2|0,1:2|2:0,2:0:0:0:
196,270,166686,2,0,P|205:237|202:203,1,68,2|0,2:0|2:0,2:0:0:0:
349,134,167004,2,0,P|316:142|289:163,1,68,2|0,2:0|2:0,2:0:0:0:
145,91,167321,5,10,1:2:0:0:
56,272,167639,1,0,2:0:0:0:
110,166,167956,1,2,2:0:0:0:
236,352,168274,6,0,P|288:366|369:341,1,120,2|0,1:2|2:0,2:0:0:0:
445,298,168909,1,2,2:0:0:0:
295,266,169226,2,0,P|246:255|210:221,1,100,10|0,1:2|2:0,2:0:0:0:
140,116,169861,1,2,1:2:0:0:
361,170,170179,2,0,P|425:170|473:138,1,120,2|0,1:2|2:0,2:0:0:0:
512,36,170813,1,2,2:0:0:0:
304,66,171131,5,10,1:2:0:0:
204,33,171448,1,2,2:1:0:0:
387,0,171766,1,2,1:0:0:0:
328,190,172083,2,0,P|288:201|147:130,1,200,2|0,1:0|2:0,2:0:0:0:
172,369,173036,2,0,P|165:320|254:193,1,200,10|0,1:2|2:0,2:0:0:0:
446,315,173988,6,0,B|396:290|370:316|344:341|293:316,1,160,2|0,1:0|2:0,2:0:0:0:
439,219,174940,2,0,P|475:222|522:255,1,80,10|0,1:0|2:0,2:0:0:0:
446,315,175575,1,2,1:0:0:0:
453,367,175893,1,2,1:0:0:0:
256,192,175972,12,0,179702,2:0:0:0:
