osu file format v14

[General]
AudioFilename: audio.ogg
AudioLeadIn: 0
PreviewTime: 44348
Countdown: 0
SampleSet: Soft
StackLeniency: 0.4
Mode: 0
LetterboxInBreaks: 0
WidescreenStoryboard: 1

[Editor]
Bookmarks: 45279,60162
DistanceSpacing: 2.4
BeatDivisor: 8
GridSize: 16
TimelineZoom: 3.699998

[Metadata]
Title:MASAYUME CHASING (TV Size)
TitleUnicode:MASAYUME CHASING (TV Size)
Artist:BoA
ArtistUnicode:BoA
Creator:Aurorance
Version:iRedi's Insane
Source:FAIRY TAIL
Tags:op15 opening 15 mrgglock iredi never fc on osu pop jpop j-pop anime japanese フェアリーテイル
BeatmapID:3997774
BeatmapSetID:1931438

[Difficulty]
HPDrainRate:5
CircleSize:4
OverallDifficulty:7.5
ApproachRate:9
SliderMultiplier:1.6
SliderTickRate:1

[Events]
//Background and Video events
0,0,"692091.jpg",0,0
Video,0,"video.mp4"
//Break Periods
//Storyboard Layer 0 (Background)
//Storyboard Layer 1 (Fail)
//Storyboard Layer 2 (Pass)
//Storyboard Layer 3 (Foreground)
//Storyboard Layer 4 (Overlay)
//Storyboard Sound Samples

[TimingPoints]
628,465.116279069767,4,2,1,30,1,0
628,-166.666666666667,4,2,1,30,0,0
8069,-142.857142857143,4,2,1,40,0,0
13651,-125,4,2,1,40,0,0
15511,-100,4,2,1,50,0,0
28534,-95.2380952380952,4,2,1,50,0,0
30395,-90.9090909090909,4,2,1,60,0,0
43418,-83.3333333333333,4,2,1,60,0,0
45279,-55.5555555555556,4,2,2,70,0,1
45744,-100,4,2,2,70,0,1
46209,-55.5555555555556,4,2,2,70,0,1
47139,-66.6666666666667,4,2,2,70,0,1
52721,-55.5555555555556,4,2,2,70,0,1
53186,-100,4,2,2,70,0,1
53651,-55.5555555555556,4,2,2,70,0,1
54348,-66.6666666666667,4,2,2,70,0,1
57836,-66.6666666666667,4,2,2,60,0,1
60162,-66.6666666666667,4,2,2,75,0,1
61558,-55.5555555555556,4,2,2,75,0,1
62023,-66.6666666666667,4,2,2,75,0,1
65279,-55.5555555555556,4,2,2,75,0,1
67139,-66.6666666666667,4,2,2,75,0,1
69000,-55.5555555555556,4,2,2,75,0,1
69465,-66.6666666666667,4,2,2,75,0,1
72721,-66.6666666666667,4,2,2,60,0,1
75046,-133.333333333333,4,2,1,50,0,0
75162,-133.333333333333,4,2,1,30,0,0
76907,-166.666666666667,4,2,1,30,0,0
81325,-333.333333333333,4,2,1,30,0,0
86208,-333.333333333333,4,2,1,5,0,0

[Colours]
Combo1 : 255,255,4
Combo2 : 255,70,66
Combo3 : 255,128,64

[HitObjects]
466,31,628,6,0,L|512:18,2,47.9999999999999,2|0|0,0:2|0:0|0:0,0:0:0:0:
413,100,1325,1,2,0:2:0:0:
213,144,2488,6,0,L|166:131,2,47.9999999999999,2|0|0,0:2|0:0|0:0,0:0:0:0:
266,213,3186,1,2,0:2:0:0:
496,303,4348,6,0,B|492:276|492:276|476:253,2,47.9999999999999,2|0|0,0:2|0:0|0:0,0:0:0:0:
440,369,5046,1,2,0:2:0:0:
153,265,6209,6,0,B|156:236|156:236|173:215,2,47.9999999999999,2|0|0,0:2|0:0|0:0,0:0:0:0:
221,324,6907,2,0,B|253:315|253:315|268:289|268:289|299:280,1,95.9999999999998,2|0,0:2|0:0,0:0:0:0:
354,362,7604,1,2,0:2:0:0:
354,362,7721,1,2,0:2:0:0:
354,362,7837,1,2,3:2:0:0:
442,263,8069,6,0,B|448:292|448:292|470:309,2,55.9999999999999,2|0|0,3:2|0:0|0:0,0:0:0:0:
365,213,8767,1,2,0:2:0:0:
451,128,9000,2,0,B|483:68|483:68|452:60|452:60|451:128,1,168,2|0,0:2|0:0,0:0:0:0:
304,117,9930,6,0,L|358:131,2,55.9999999999999,2|0|0,0:2|0:0|0:0,0:0:0:0:
256,44,10627,1,2,0:2:0:0:
156,13,10860,2,0,B|132:72|132:72|179:97|179:97|168:49,1,168,2|0,0:2|0:0,0:0:0:0:
44,77,11790,6,0,B|26:57|26:57|25:27,2,55.9999999999999,2|0|0,3:2|0:0|0:0,0:0:0:0:
99,151,12488,1,2,0:2:0:0:
41,239,12721,2,0,B|53:289|53:289|-9:226|-9:226|41:239,1,168,2|0,0:2|0:0,0:0:0:0:
60,379,13651,6,0,L|114:364,1,32,2|0,0:2|0:0,0:0:0:0:
146,299,13883,1,2,0:2:0:0:
146,299,14000,1,2,0:2:0:0:
146,299,14116,2,0,B|181:304|181:304|197:327,1,64,2|2,0:2|0:2,0:0:0:0:
325,256,14581,5,8,0:2:0:0:
352,264,14697,1,8,0:2:0:0:
389,384,14930,5,8,0:2:0:0:
434,369,15046,1,8,0:2:0:0:
489,260,15279,5,10,0:2:0:0:
470,234,15395,1,8,0:2:0:0:
495,166,15511,6,0,B|528:123|528:123|523:88,1,80,6|2,3:2|0:2,0:0:0:0:
410,55,15976,1,2,3:2:0:0:
410,55,16441,2,0,B|379:46|379:46|323:131|323:131|292:122,1,160,2|0,3:2|3:2,0:0:0:0:
270,23,17139,1,2,0:2:0:0:
128,100,17372,6,0,B|101:76|101:76|117:14,1,80,2|2,3:2|0:2,0:0:0:0:
210,92,17837,2,0,L|243:215,1,120,2|0,3:2|0:0,0:0:0:0:
218,288,18302,2,0,B|186:272|186:272|99:323|99:323|90:368,1,160,2|0,3:2|3:2,0:0:0:0:
19,267,19000,1,2,0:2:0:0:
185,378,19232,6,0,L|262:357,1,80,2|2,3:2|0:2,0:0:0:0:
385,298,19697,2,0,L|364:375,1,80,2|2,3:2|0:2,0:0:0:0:
298,274,20162,1,2,3:2:0:0:
359,212,20395,1,2,0:2:0:0:
464,270,20627,1,2,3:2:0:0:
512,127,20860,6,0,B|478:3|478:3|471:38,1,160,2|0,0:2|0:0,0:0:0:0:
412,143,21558,2,0,L|334:122,1,80,0|2,3:2|0:2,0:0:0:0:
268,26,22023,6,0,B|297:6|297:6|249:89,1,120,0|0,3:2|0:0,0:0:0:0:
169,105,22488,2,0,B|175:74|175:74|196:154,1,80,2|2,3:2|3:2,0:0:0:0:
131,173,22837,1,0,3:2:0:0:
117,198,22953,5,2,3:2:0:0:
190,287,23186,1,2,0:2:0:0:
71,366,23418,2,0,B|36:335|36:335|60:244,1,120,2|0,3:2|0:0,0:0:0:0:
34,190,23883,2,0,B|60:126|60:126|-3:197,1,160,2|0,3:2|3:2,0:0:0:0:
9,59,24581,1,2,0:2:0:0:
131,173,24814,2,0,B|192:156|192:156|204:136,1,80,0|2,3:2|0:2,0:0:0:0:
224,0,25279,6,0,B|208:32|208:32|272:96,1,120,2|0,3:2|0:0,0:0:0:0:
297,162,25744,2,0,B|332:159|332:159|366:36,1,160,2|0,3:2|3:2,0:0:0:0:
512,0,26441,5,2,0:2:0:0:
480,24,26558,1,0,0:0:0:0:
448,48,26674,1,2,3:2:0:0:
512,126,26907,1,2,0:2:0:0:
428,185,27139,1,2,3:2:0:0:
267,91,27372,1,2,0:2:0:0:
283,8,27604,6,0,L|143:45,1,120,2|0,3:2|0:0,0:0:0:0:
124,107,28069,2,0,B|71:88|71:88|105:85,1,80,2|2,3:2|0:2,0:0:0:0:
206,186,28534,6,0,L|195:145,1,42,0|0,3:2|0:0,0:0:0:0:
117,193,28767,1,8,0:2:0:0:
108,221,28883,2,0,B|164:254|164:254|172:300,1,84,8|0,0:2|0:0,0:0:0:0:
117,339,29232,1,8,0:2:0:0:
290,384,29465,5,8,3:2:0:0:
272,339,29581,1,8,0:2:0:0:
374,239,29814,5,8,0:2:0:0:
344,277,29930,1,10,3:2:0:0:
492,384,30162,5,10,0:2:0:0:
463,368,30279,1,8,0:2:0:0:
428,300,30395,6,0,B|454:278|454:278|471:179,1,132,6|0,3:2|0:0,0:0:0:0:
500,106,30860,2,0,B|467:94|467:94|373:129,1,132,10|0,0:2|0:0,0:0:0:0:
295,140,31325,2,0,B|301:173|301:173|378:237,1,132,2|0,3:2|0:0,0:0:0:0:
428,300,31790,1,10,0:2:0:0:
280,358,32023,1,2,0:2:0:0:
315,371,32139,1,0,0:0:0:0:
350,384,32255,5,0,3:2:0:0:
275,274,32488,1,0,0:0:0:0:
128,384,32721,2,0,B|48:320|48:320|96:320,1,132,10|0,0:2|0:0,0:0:0:0:
161,297,33186,2,0,L|126:169,1,132,2|0,3:2|0:0,0:0:0:0:
54,131,33651,1,8,0:2:0:0:
1,227,33883,1,0,0:0:0:0:
161,297,34116,6,0,B|175:258|175:258|283:229,1,132,2|0,3:2|0:0,0:0:0:0:
333,283,34581,1,10,0:2:0:0:
230,360,34814,1,2,0:2:0:0:
445,384,35046,2,0,L|410:256,1,132,2|0,3:2|0:0,0:0:0:0:
345,207,35511,1,10,0:2:0:0:
410,113,35744,6,0,B|452:121|452:121|485:92,1,88,2|0,0:2|3:2,0:0:0:0:
296,0,36209,1,2,0:2:0:0:
322,85,36441,1,10,0:2:0:0:
193,1,36674,6,0,B|179:24|179:24|105:44|105:44|81:30,1,132,2|0,0:2|0:0,0:0:0:0:
0,0,37139,1,2,0:2:0:0:
37,104,37372,1,10,0:2:0:0:
170,136,37604,1,2,0:2:0:0:
264,280,37837,6,0,B|293:259|293:259|260:383,1,132,2|0,3:2|0:0,0:0:0:0:
183,345,38302,2,0,B|185:380|185:380|95:289,1,132,10|0,0:2|0:0,0:0:0:0:
167,242,38767,2,0,B|134:226|134:226|258:193,1,132,2|0,3:2|0:0,0:0:0:0:
264,280,39232,1,10,0:2:0:0:
410,141,39465,1,2,0:2:0:0:
347,77,39697,6,0,L|305:231,1,132,0|0,3:2|0:0,0:0:0:0:
396,234,40162,2,0,B|454:204|454:204|385:274,1,132,10|0,0:2|0:0,0:0:0:0:
378,327,40627,2,0,B|285:351|285:351|262:391,1,132,2|0,3:2|0:0,0:0:0:0:
199,335,41093,1,10,0:2:0:0:
104,384,41325,1,0,0:0:0:0:
0,235,41558,5,2,3:2:0:0:
40,125,41790,2,0,L|15:32,2,88,2|10|2,0:2|0:2|0:2,0:0:0:0:
117,256,42488,5,2,0:2:0:0:
144,162,42721,1,2,0:2:0:0:
221,60,42953,1,10,0:2:0:0:
127,33,43186,1,2,0:2:0:0:
220,213,43418,6,0,L|281:196,1,48,0|0,3:2|0:0,0:0:0:0:
334,116,43651,1,10,0:2:0:0:
323,79,43767,2,0,B|297:108|297:108|361:179,1,96,8|0,0:2|0:0,0:0:0:0:
439,192,44116,1,8,0:2:0:0:
512,338,44348,5,10,3:2:0:0:
483,356,44465,1,8,0:2:0:0:
454,374,44581,2,0,L|392:357,1,48,2|8,3:2|0:2,0:0:0:0:
221,384,44814,5,10,3:2:0:0:
210,349,44930,1,0,3:2:0:0:
202,316,45046,1,10,3:2:0:0:
193,282,45162,1,8,3:2:0:0:
127,229,45279,6,0,B|38:231|10:302|10:302|42:274|83:271,1,216,6|0,3:2|0:0,0:0:0:0:
153,329,45744,2,0,B|154:350|167:368|167:368|140:357|134:328,1,80,10|0,0:2|0:0,0:0:0:0:
12,177,46209,6,0,P|36:74|135:34,1,216,2|0,3:2|0:0,0:0:0:0:
169,131,46674,1,10,0:2:0:0:
348,0,46907,1,2,0:2:0:0:
512,165,47139,6,0,P|501:138|496:107,1,60,2|0,3:2|0:0,0:0:0:0:
399,80,47372,2,0,P|409:107|414:137,1,60,2|0,0:2|0:0,0:0:0:0:
512,271,47604,6,0,B|444:284|416:358|416:358|404:315|435:278,1,180,10|0,0:2|0:0,0:0:0:0:
372,226,48069,1,2,3:2:0:0:
226,378,48302,6,0,B|203:357|203:357|233:364,1,60,8|0,0:2|0:0,0:0:0:0:
127,333,48534,2,0,B|104:312|104:312|134:319,1,60,8|0,0:2|0:0,0:0:0:0:
0,216,48767,5,2,0:0:0:0:
12,169,48883,1,2,0:0:0:0:
24,123,49000,1,0,3:2:0:0:
196,256,49232,6,0,P|188:215|198:194,1,60,2|0,0:2|0:0,0:0:0:0:
113,136,49465,2,0,P|148:116|172:119,1,60,10|0,0:2|0:0,0:0:0:0:
202,20,49697,2,0,P|232:48|235:70,1,60,2|0,0:2|0:0,0:0:0:0:
340,69,49930,2,0,P|322:106|302:117,1,60,2|0,3:2|0:0,0:0:0:0:
336,214,50162,2,0,P|295:208|278:192,1,60,2|0,0:2|0:0,0:0:0:0:
195,199,50395,1,8,0:2:0:0:
381,384,50627,6,0,P|398:294|427:210,1,180,2|0,0:2|0:0,0:0:0:0:
481,100,51093,2,0,P|394:129|307:146,1,180,2|0,0:2|0:0,0:0:0:0:
185,155,51558,2,0,P|253:214|312:282,1,180,2|0,0:2|0:0,0:0:0:0:
261,384,52023,6,0,P|239:346|246:312,1,60,2|0,0:2|0:0,0:0:0:0:
424,286,52255,2,0,P|402:247|369:237,1,60,10|0,0:2|0:0,0:0:0:0:
273,235,52488,2,0,P|294:257|311:281,1,60,2|0,0:2|0:0,0:0:0:0:
456,378,52721,6,0,B|439:297|506:234|506:234|468:173,1,216,2|0,3:2|0:0,0:0:0:0:
352,163,53186,2,0,P|332:141|356:159,1,80,10|0,0:2|0:0,0:0:0:0:
512,0,53651,6,0,P|403:37|303:55,1,216,2|0,3:2|0:0,0:0:0:0:
234,131,54116,1,10,0:2:0:0:
33,104,54348,2,0,P|48:47|93:4,1,120,2|0,0:2|3:2,0:0:0:0:
160,179,54814,1,2,0:2:0:0:
0,348,55046,6,0,B|56:355|87:306|65:298|95:253|166:264,1,180,10|0,0:2|0:0,0:0:0:0:
215,350,55511,1,2,3:2:0:0:
423,329,55744,6,0,B|444:306|444:306|437:336,1,60,8|0,0:2|0:0,0:0:0:0:
468,230,55976,2,0,B|489:207|489:207|482:237,1,60,8|0,0:2|0:0,0:0:0:0:
351,373,56209,1,2,0:2:0:0:
233,246,56441,6,0,P|258:179|334:164,1,120,2|2,3:2|0:2,0:0:0:0:
365,240,56790,1,0,0:0:0:0:
396,209,56907,2,0,P|401:180|411:151,1,60,10|0,0:2|0:0,0:0:0:0:
482,28,57139,6,0,P|413:34|381:77,1,120,2|0,0:2|3:2,0:0:0:0:
227,89,57488,1,0,0:0:0:0:
254,126,57604,2,0,P|266:63|285:10,1,120,2|8,0:2|0:2,0:0:0:0:
167,158,58069,1,10,0:2:0:0:
17,5,58302,5,2,3:2:0:0:
8,35,58418,1,8,0:0:0:0:
0,66,58534,2,0,L|20:143,1,60,10|8,0:0|0:0,0:0:0:0:
167,158,58767,5,10,3:2:0:0:
176,188,58883,1,8,0:0:0:0:
184,219,59000,2,0,L|163:296,1,60,10|8,0:0|0:0,0:0:0:0:
0,384,59232,5,8,3:2:0:0:
32,353,59348,1,8,0:0:0:0:
75,338,59465,1,10,0:0:0:0:
119,341,59581,1,8,0:0:0:0:
159,362,59697,6,2,L|205:349,6,30,10|2|2|2|2|2|2,3:2|0:2|0:2|0:2|0:2|0:2|0:2,0:2:0:0:
298,383,60162,6,0,P|303:338|323:317,1,60,6|0,3:2|0:0,0:0:0:0:
442,269,60395,1,2,0:2:0:0:
442,269,60511,2,0,P|400:287|372:280,1,60,2|10,0:2|0:2,0:0:0:0:
272,202,60744,2,0,P|308:228|316:256,1,60,2|0,0:2|0:0,0:0:0:0:
456,187,60976,1,2,0:2:0:0:
488,148,61093,6,0,P|477:119|472:90,1,60,2|0,3:2|0:0,0:0:0:0:
376,5,61325,2,0,P|371:34|360:62,1,60,2|0,0:2|0:0,0:0:0:0:
208,141,61558,6,0,B|201:85|130:71|130:71|88:134|126:175,1,216,10|0,0:2|0:0,0:0:0:0:
130,299,62023,6,0,P|109:278|97:251,1,60,2|0,3:2|0:0,0:0:0:0:
0,359,62255,1,2,0:2:0:0:
0,359,62372,2,0,P|29:361|58:354,1,60,2|8,0:2|0:2,0:0:0:0:
213,333,62604,2,0,P|221:304|238:280,1,60,2|0,0:2|0:0,0:0:0:0:
368,384,62837,1,2,0:2:0:0:
322,316,62953,6,0,P|376:278|370:148,1,180,2|0,3:2|0:0,0:0:0:0:
359,68,63418,2,0,P|305:106|311:236,1,180,10|0,0:2|0:0,0:0:0:0:
197,238,63883,6,0,P|221:254|238:279,1,60,2|0,3:2|0:0,0:0:0:0:
102,168,64116,1,2,0:2:0:0:
102,168,64232,2,0,P|75:181|45:183,1,60,2|8,0:2|0:2,0:0:0:0:
211,121,64465,2,0,P|212:91|225:64,1,60,2|0,0:2|0:0,0:0:0:0:
51,99,64697,1,2,0:2:0:0:
21,64,64814,6,0,P|31:36|36:6,1,60,2|0,3:2|0:0,0:0:0:0:
102,168,65046,2,0,P|106:197|117:225,1,60,2|0,0:2|0:0,0:0:0:0:
274,274,65279,6,0,B|326:250|338:191|338:191|381:234|435:230,1,216,10|0,0:2|0:0,0:0:0:0:
512,295,65744,5,2,3:2:0:0:
243,178,65976,1,2,0:2:0:0:
428,130,66209,1,10,0:2:0:0:
246,352,66441,1,2,0:2:0:0:
208,338,66558,1,0,0:0:0:0:
170,324,66674,1,0,3:2:0:0:
36,384,66907,1,2,0:2:0:0:
3,193,67139,2,0,B|65:200|105:265|105:265|106:224|70:196,1,180,10|0,0:2|0:0,0:0:0:0:
83,118,67604,6,0,P|107:88|140:74,1,60,2|0,3:2|0:0,0:0:0:0:
218,176,67837,1,2,0:2:0:0:
218,176,67953,2,0,P|180:170|151:148,1,60,2|10,0:2|0:2,0:0:0:0:
201,31,68186,2,0,P|214:66|210:102,1,60,2|0,0:2|0:0,0:0:0:0:
299,215,68418,1,2,0:2:0:0:
349,233,68534,6,0,P|393:202|398:182,1,60,2|0,3:2|0:0,0:0:0:0:
308,87,68767,2,0,P|325:110|353:121,1,60,2|0,0:2|0:0,0:0:0:0:
512,80,69000,2,0,P|478:179|456:288,1,216,10|0,0:2|0:0,0:0:0:0:
348,372,69465,6,0,P|336:342|332:314,1,60,2|0,3:2|0:0,0:0:0:0:
229,323,69697,1,2,0:2:0:0:
229,323,69814,2,0,P|240:293|244:265,1,60,2|8,0:2|0:2,0:0:0:0:
129,216,70046,2,0,P|134:246|145:274,1,60,2|0,0:2|0:0,0:0:0:0:
217,174,70279,1,2,0:2:0:0:
261,146,70395,6,0,P|168:126|133:28,1,180,2|0,3:2|0:0,0:0:0:0:
42,0,70860,2,0,P|-2:75|28:157,1,180,10|0,0:2|0:0,0:0:0:0:
129,216,71325,6,0,P|134:246|145:274,1,60,2|0,3:2|0:0,0:0:0:0:
57,378,71558,1,2,0:2:0:0:
57,378,71674,2,0,P|28:373|0:363,1,60,2|8,0:2|0:2,0:0:0:0:
0,240,71907,2,0,P|19:263|42:282,1,60,2|0,0:2|0:0,0:0:0:0:
151,365,72139,1,2,0:2:0:0:
198,343,72255,6,0,P|224:361|242:392,1,60,2|0,3:2|0:0,0:0:0:0:
331,282,72488,2,0,P|328:313|310:344,1,60,2|0,0:2|0:0,0:0:0:0:
202,179,72721,6,0,P|294:203|341:167,1,120,10|10,0:2|0:2,0:0:0:0:
415,248,73069,1,8,0:0:0:0:
415,248,73186,5,2,3:2:0:0:
424,218,73302,1,8,0:0:0:0:
432,187,73418,2,0,L|412:110,1,60,10|8,0:0|0:0,0:0:0:0:
267,0,73651,5,10,3:2:0:0:
258,30,73767,1,8,0:0:0:0:
250,61,73883,2,0,L|270:138,1,60,10|8,0:0|0:0,0:0:0:0:
174,267,74116,5,8,3:2:0:0:
133,247,74232,1,8,0:0:0:0:
90,233,74348,1,10,0:0:0:0:
46,224,74465,1,8,0:0:0:0:
1,219,74581,6,0,L|-12:167,5,40,10|8|8|8|8|8,3:2|0:0|0:0|3:0|0:0|0:0,0:0:0:0:
86,153,75046,6,0,B|128:120|169:53|47:31|74:-46|139:-65|188:-7|123:65|187:101|245:98,1,360.000000000001,2|0,1:2|0:0,0:0:0:0:
378,46,76907,6,0,L|390:-1,2,47.9999999999999,2|0|0,0:2|0:0|0:0,0:0:0:0:
411,126,77604,1,2,0:2:0:0:
508,340,78767,6,0,B|504:367|504:367|488:390,2,47.9999999999999,2|0|0,0:2|0:0|0:0,0:0:0:0:
452,274,79465,1,2,0:2:0:0:
235,181,80627,6,0,B|238:210|238:210|255:231,2,47.9999999999999,2|0|0,0:2|0:0|0:0,0:0:0:0:
265,95,81325,2,0,B|248:38|178:-29|17:-8|15:207|157:223|157:223|125:203|118:167,1,504,2|0,0:2|0:0,0:0:0:0:
