osu file format v14

[General]
AudioFilename: BoA -Masayume Chasing (Full Version) (www.mp3fun.cc).mp3
AudioLeadIn: 0
PreviewTime: 44560
Countdown: 0
SampleSet: Soft
StackLeniency: 0.7
Mode: 0
LetterboxInBreaks: 0
EpilepsyWarning: 1
WidescreenStoryboard: 1

[Editor]
DistanceSpacing: 1.3
BeatDivisor: 4
GridSize: 4
TimelineZoom: 1

[Metadata]
Title:MASAYUME CHASING
TitleUnicode:MASAYUME CHASING
Artist:BoA
ArtistUnicode:BoA
Creator:-Nya-
Version:Insane
Source:フェアリーテイル
Tags:opening full version fairy tail natsu dragneel lucy heartfilia gray fullbuster erza scarlet 10nya -_t_e_n_n_y_a_- a true dream who's back? Kwon Bo Ah
BeatmapID:853094
BeatmapSetID:391671

[Difficulty]
HPDrainRate:6
CircleSize:4
OverallDifficulty:7
ApproachRate:8.5
SliderMultiplier:1.6
SliderTickRate:1

[Events]
//Background and Video events
0,0,"Team.jpg",0,0
//Break Periods
2,157318,163420
//Storyboard Layer 0 (Background)
//Storyboard Layer 1 (Fail)
//Storyboard Layer 2 (Pass)
//Storyboard Layer 3 (Foreground)
//Storyboard Sound Samples

[TimingPoints]
840,465.116279069767,4,2,1,20,1,0
840,-200,4,2,1,20,0,0
8281,-133.333333333333,4,2,1,30,0,0
14095,-100,4,2,1,40,0,0
30607,-100,4,2,1,50,0,0
45491,-83.3333333333333,4,2,1,70,0,1
58514,-83.3333333333333,4,2,1,50,0,1
60374,-83.3333333333333,4,2,1,70,0,1
61770,-58.8235294117647,4,2,1,70,0,1
62235,-83.3333333333333,4,2,1,70,0,1
63165,-58.8235294117647,4,2,1,70,0,1
64095,-83.3333333333333,4,2,1,70,0,1
65491,-58.8235294117647,4,2,1,70,0,1
65956,-83.3333333333333,4,2,1,70,0,1
69212,-58.8235294117647,4,2,1,70,0,1
69677,-83.3333333333333,4,2,1,70,0,1
70607,-58.8235294117647,4,2,1,70,0,1
71537,-83.3333333333333,4,2,1,70,0,1
72002,-58.8235294117647,4,2,1,70,0,1
72467,-83.3333333333333,4,2,1,70,0,1
72933,-58.8235294117647,4,2,1,70,0,1
73398,-83.3333333333333,4,2,1,50,0,1
75258,-100,4,2,1,70,0,0
78049,-133.333333333333,4,2,1,30,0,0
82700,-100,4,2,1,40,0,0
97584,-100,4,2,1,50,0,0
112467,-83.3333333333333,4,2,1,70,0,1
125491,-83.3333333333333,4,2,1,50,0,1
127351,-83.3333333333333,4,2,1,70,0,1
128746,-58.8235294117647,4,2,1,70,0,1
129212,-83.3333333333333,4,2,1,70,0,1
130142,-58.8235294117647,4,2,1,70,0,1
131072,-83.3333333333333,4,2,1,70,0,1
132467,-58.8235294117647,4,2,1,70,0,1
132933,-83.3333333333333,4,2,1,70,0,1
136188,-58.8235294117647,4,2,1,70,0,1
136653,-83.3333333333333,4,2,1,70,0,1
137584,-58.8235294117647,4,2,1,70,0,1
138514,-83.3333333333333,4,2,1,70,0,1
138979,-58.8235294117647,4,2,1,70,0,1
139444,-83.3333333333333,4,2,1,70,0,1
139909,-58.8235294117647,4,2,1,70,0,1
140374,-83.3333333333333,4,2,1,50,0,1
142235,-100,4,2,1,50,0,0
150142,-58.8235294117647,4,2,1,50,0,0
150607,-100,4,2,1,50,0,0
152002,-58.8235294117647,4,2,1,50,0,0
152467,-100,4,2,1,50,0,0
154328,-100,4,2,1,30,0,0
164095,-100,4,2,1,50,0,0
173863,-100,4,2,1,50,0,1
173979,-100,4,2,1,50,0,0
177584,-83.3333333333333,4,2,1,70,0,1
186886,-83.3333333333333,4,2,1,50,0,1
188746,-83.3333333333333,4,2,1,70,0,1
190141,-58.8235294117647,4,2,1,70,0,1
190606,-83.3333333333333,4,2,1,70,0,1
191536,-58.8235294117647,4,2,1,70,0,1
192466,-83.3333333333333,4,2,1,70,0,1
193862,-58.8235294117647,4,2,1,70,0,1
194327,-83.3333333333333,4,2,1,70,0,1
197583,-58.8235294117647,4,2,1,70,0,1
198048,-83.3333333333333,4,2,1,70,0,1
198978,-58.8235294117647,4,2,1,70,0,1
199908,-83.3333333333333,4,2,1,70,0,1
200373,-58.8235294117647,4,2,1,70,0,1
200839,-83.3333333333333,4,2,1,70,0,1
201304,-58.8235294117647,4,2,1,70,0,1
201769,-83.3333333333333,4,2,1,50,0,1
203630,-83.3333333333333,4,2,1,50,0,0
203746,-200,4,2,1,20,0,0

[Colours]
Combo1 : 255,255,138
Combo2 : 255,136,196
Combo3 : 89,164,255
Combo4 : 247,108,130

[HitObjects]
84,44,840,6,0,P|120:56|208:48,1,120,2|2,0:0|0:0,0:0:0:0:
376,96,2700,2,0,L|400:232,1,120,2|2,0:0|0:0,0:0:0:0:
56,176,4560,6,0,P|76:108|76:48,1,120,2|2,0:0|0:0,0:0:0:0:
232,344,6421,2,0,L|352:288,1,120,2|2,0:0|0:0,0:0:0:0:
266,44,7816,1,2,0:0:0:0:
270,49,7932,1,0,0:0:0:0:
275,54,8048,1,2,0:0:0:0:
328,120,8281,6,0,B|356:152|356:152|372:244,1,120.000004577637,2|0,0:0|0:0,0:0:0:0:
300,276,8979,1,0,0:0:0:0:
340,348,9212,2,0,P|392:376|472:356,1,120.000004577637,4|0,1:1|0:0,0:0:0:0:
480,292,9909,1,0,0:0:0:0:
480,208,10142,6,0,P|472:148|484:84,1,120.000004577637,2|0,0:0|0:0,0:0:0:0:
444,16,10839,1,0,0:0:0:0:
364,36,11072,2,0,L|244:64,1,120.000004577637,4|0,1:1|0:0,0:0:0:0:
164,84,11770,1,0,0:0:0:0:
104,144,12002,6,0,P|80:88|100:28,1,120.000004577637,2|0,0:0|0:0,0:0:0:0:
164,84,12700,1,0,0:0:0:0:
193,162,12933,2,0,L|229:286,1,120.000004577637,4|0,1:1|0:0,0:0:0:0:
248,356,13630,1,0,0:0:0:0:
328,380,13863,5,2,0:0:0:0:
428,320,14095,1,2,3:3:0:0:
432,308,14212,1,2,3:3:0:0:
436,296,14328,1,2,3:3:0:0:
464,188,14560,1,2,3:3:0:0:
412,88,14793,5,2,1:1:0:0:
412,88,14909,1,2,1:1:0:0:
308,48,15142,1,2,1:1:0:0:
308,48,15258,2,0,P|260:52|212:76,1,80,2|2,1:1|1:1,0:0:0:0:
180,84,15607,1,0,0:0:0:0:
148,132,15723,6,0,L|108:208,1,80,8|0,0:0|0:0,0:0:0:0:
64,304,16188,2,0,P|96:328|140:340,1,80,8|0,0:0|0:0,0:0:0:0:
244,328,16653,2,0,P|280:308|388:340,1,160,8|8,0:0|0:0,0:0:0:0:
468,264,17351,1,0,0:0:0:0:
388,124,17584,6,0,P|356:96|300:92,1,80,8|0,0:0|0:0,0:0:0:0:
180,92,18049,2,0,P|212:120|264:124,1,80,8|0,0:0|0:0,0:0:0:0:
204,20,18514,2,0,P|136:28|112:124,1,160,8|8,0:0|0:0,0:0:0:0:
132,216,19212,1,0,0:0:0:0:
260,312,19444,6,0,L|332:364,1,80,8|0,0:0|0:0,0:0:0:0:
344,232,19909,2,0,L|280:184,1,80,8|0,0:0|0:0,0:0:0:0:
396,132,20374,2,0,L|460:180,1,80,8|0,0:0|0:0,0:0:0:0:
508,80,20839,1,8,0:0:0:0:
420,8,21072,1,0,0:0:0:0:
260,20,21305,6,0,P|249:54|248:100,1,80,8|0,0:0|0:0,0:0:0:0:
344,232,21770,2,0,P|354:198|352:152,1,80,8|0,0:0|0:0,0:0:0:0:
247,97,22235,2,0,L|159:77,1,80,8|0,0:0|0:0,0:0:0:0:
56,84,22700,1,8,0:0:0:0:
29,113,22816,1,0,0:0:0:0:
16,151,22932,1,0,0:0:0:0:
12,192,23049,1,0,0:0:0:0:
20,232,23165,6,0,P|32:276|64:320,1,80,8|0,0:0|0:0,0:0:0:0:
156,336,23630,2,0,L|236:324,1,80,8|0,0:0|0:0,0:0:0:0:
336,276,24095,2,0,P|360:220|336:128,1,160
248,56,24793,1,0,0:0:0:0:
396,76,25026,6,0,L|456:144,1,80,8|0,0:0|0:0,0:0:0:0:
440,256,25491,2,0,L|384:200,1,80,8|0,0:0|0:0,0:0:0:0:
280,152,25956,2,0,P|212:172|120:128,1,160,8|8,0:0|0:0,0:0:0:0:
56,60,26653,1,0,0:0:0:0:
60,220,26886,5,8,0:0:0:0:
172,360,27119,1,0,0:0:0:0:
192,220,27351,1,8,0:0:0:0:
56,352,27584,1,0,0:0:0:0:
128,176,27816,2,0,P|184:144|268:204,1,160,8|0,0:0|0:0,0:0:0:0:
304,84,28514,1,0,0:0:0:0:
404,32,28746,1,0,0:0:0:0:
404,156,28979,5,2,3:3:0:0:
404,168,29095,1,2,3:3:0:0:
404,180,29212,1,2,3:3:0:0:
396,292,29444,1,2,3:3:0:0:
292,336,29677,1,2,1:1:0:0:
292,336,29793,1,2,1:1:0:0:
180,320,30026,5,2,1:1:0:0:
140,314,30142,1,2,1:1:0:0:
112,288,30258,1,2,1:1:0:0:
104,249,30374,1,2,1:1:0:0:
119,213,30491,1,2,1:1:0:0:
148,184,30607,6,0,P|184:144|204:40,1,160,8|8,0:0|1:1,0:0:0:0:
316,36,31305,1,0,0:0:0:0:
400,108,31537,2,0,L|504:232,1,160,8|8,0:0|1:1,0:0:0:0:
472,336,32235,1,0,0:0:0:0:
360,328,32467,2,0,P|296:320|204:352,1,160,8|8,0:0|1:1,0:0:0:0:
96,352,33165,1,0,0:0:0:0:
68,244,33398,2,0,P|44:192|84:104,1,160,8|8,0:0|1:1,0:0:0:0:
400,60,34328,6,0,P|400:94|376:136,1,80,8|0,0:0|0:0,0:0:0:0:
272,172,34793,1,8,1:1:0:0:
160,192,35026,1,0,0:0:0:0:
84,332,35258,2,0,P|124:352|160:356,1,80,8|0,0:0|0:0,0:0:0:0:
272,344,35723,1,8,1:1:0:0:
356,272,35956,1,0,0:0:0:0:
412,124,36188,6,0,L|448:40,1,80,8|0,0:0|0:0,0:0:0:0:
340,12,36653,2,0,L|312:88,1,80,8|0,1:1|0:0,0:0:0:0:
288,196,37119,1,8,0:0:0:0:
168,312,37351,1,0,0:0:0:0:
180,164,37584,1,8,1:1:0:0:
268,296,37816,1,0,0:0:0:0:
248,128,38049,6,0,P|200:88|116:120,1,160,8|8,0:0|1:1,0:0:0:0:
48,208,38746,1,0,0:0:0:0:
92,312,38979,2,0,P|128:344|240:368,1,160,8|8,0:0|1:1,0:0:0:0:
340,336,39677,1,0,0:0:0:0:
412,252,39909,2,0,L|452:160,1,80,8|0,0:0|0:0,0:0:0:0:
380,32,40374,6,0,P|316:32|288:16,1,80,8|0,1:1|0:0,0:0:0:0:
240,120,40839,2,0,P|198:70|192:44,1,80,8|0,0:0|0:0,0:0:0:0:
104,124,41305,2,0,P|69:129|24:122,1,80,8|0,1:1|0:0,0:0:0:0:
32,236,41770,1,8,0:0:0:0:
124,304,42002,5,0,0:0:0:0:
248,196,42235,1,8,1:1:0:0:
200,336,42467,1,0,0:0:0:0:
168,168,42700,1,8,0:0:0:0:
260,280,42933,1,0,0:0:0:0:
108,224,43165,1,8,1:1:0:0:
260,280,43398,6,0,P|304:264|324:212,1,80,0|8,0:0|0:0,0:0:0:0:
336,128,43863,1,2,3:3:0:0:
336,128,43979,1,2,3:3:0:0:
336,128,44095,1,2,3:3:0:0:
264,44,44328,1,2,3:3:0:0:
149,38,44560,5,2,1:1:0:0:
110,45,44676,1,2,1:1:0:0:
77,67,44792,1,2,1:1:0:0:
55,101,44908,1,2,1:1:0:0:
47,140,45025,1,2,1:1:0:0:
55,178,45141,1,2,1:1:0:0:
77,211,45257,1,2,1:1:0:0:
110,233,45373,1,2,1:1:0:0:
148,248,45491,6,0,P|192:272|244:316,1,95.9999970703126,4|0,0:0|0:0,0:0:0:0:
360,320,45956,2,0,P|408:300|452:260,1,95.9999970703126,8|0,1:1|0:0,0:0:0:0:
326,75,46421,2,0,L|384:152,1,95.9999970703126,8|0,0:0|0:0,0:0:0:0:
460,60,46886,1,8,1:1:0:0:
488,192,47119,1,0,0:0:0:0:
452,320,47351,5,8,0:0:0:0:
288,168,47584,1,0,0:0:0:0:
348,328,47816,1,8,1:1:0:0:
384,152,48049,1,0,0:0:0:0:
452,320,48281,2,0,P|428:268|376:236,1,95.9999970703126,8|8,0:0|1:1,0:0:0:0:
272,284,48746,2,0,L|184:332,1,95.9999970703126,8|0,1:1|0:0,0:0:0:0:
80,168,49212,5,4,0:0:0:0:
76,36,49444,1,0,0:0:0:0:
204,76,49677,2,0,L|264:160,1,95.9999970703126,8|0,1:1|0:0,0:0:0:0:
358,277,50142,2,0,L|392:188,1,95.9999970703126,8|0,0:0|0:0,0:0:0:0:
272,284,50607,1,8,1:1:0:0:
352,104,50839,6,0,P|404:96|456:124,1,95.9999970703126,0|8,0:0|0:0,0:0:0:0:
304,164,51305,2,0,P|272:108|304:52,1,95.9999970703126,0|8,0:0|1:1,0:0:0:0:
384,196,51770,2,0,P|387:242|358:279,1,95.9999970703126,0|8,0:0|0:0,0:0:0:0:
148,328,52235,1,0,0:0:0:0:
124,136,52467,1,8,1:1:0:0:
296,216,52700,1,0,0:0:0:0:
148,328,52933,6,0,L|244:304,1,95.9999970703126,4|0,0:0|0:0,0:0:0:0:
368,244,53398,2,0,P|388:208|380:152,1,95.9999970703126,8|0,1:1|0:0,0:0:0:0:
384,16,53863,2,0,L|492:60,1,95.9999970703126,8|0,0:0|0:0,0:0:0:0:
381,155,54328,1,8,1:1:0:0:
220,48,54560,1,0,0:0:0:0:
188,216,54793,5,8,0:0:0:0:
296,100,55026,1,0,0:0:0:0:
124,120,55258,1,8,1:1:0:0:
248,28,55491,1,0,0:0:0:0:
392,164,55723,2,0,P|436:164|480:140,1,95.9999970703126,8|8,0:0|1:1,0:0:0:0:
512,252,56188,1,8,1:1:0:0:
428,356,56421,1,0,0:0:0:0:
236,360,56653,6,0,L|128:372,1,95.9999970703126,4|0,0:0|0:0,0:0:0:0:
128,236,57119,2,0,L|240:220,1,95.9999970703126,8|0,1:1|0:0,0:0:0:0:
356,220,57584,2,0,P|340:164|304:128,1,95.9999970703126,8|0,0:0|0:0,0:0:0:0:
204,60,58049,2,0,P|186:90|184:152,1,95.9999970703126,8|0,1:1|0:0,0:0:0:0:
220,256,58514,6,0,L|148:280,3,47.9999985351563,2|2|2|2,1:1|1:1|1:1|1:1,0:0:0:0:
120,232,58979,2,0,L|40:256,3,47.9999985351563,2|2|2|2,1:1|1:1|1:1|1:1,0:0:0:0:
16,216,59444,5,2,1:1:0:0:
7,169,59560,1,2,1:1:0:0:
13,121,59676,1,2,1:1:0:0:
35,78,59792,1,2,1:1:0:0:
68,45,59909,1,2,1:1:0:0:
111,23,60025,1,2,1:1:0:0:
158,17,60141,1,2,1:1:0:0:
205,25,60257,1,2,1:1:0:0:
252,48,60374,6,0,P|304:52|356:48,1,95.9999970703126,4|0,0:0|0:0,0:0:0:0:
404,76,60723,1,0,0:0:0:0:
440,128,60839,2,0,L|476:224,1,95.9999970703126,8|0,1:1|0:0,0:0:0:0:
492,276,61188,1,0,0:0:0:0:
480,336,61305,2,0,P|440:356|384:348,1,95.9999970703126,8|0,0:0|0:0,0:0:0:0:
200,360,61770,6,0,P|152:360|124:260,1,136.000002593994,8|0,1:1|0:0,0:0:0:0:
132,156,62235,6,0,L|176:68,1,95.9999970703126,8|0,0:0|0:0,0:0:0:0:
236,52,62584,1,0,0:0:0:0:
296,72,62700,2,0,L|338:157,1,95.9999970703126,8|0,0:0|0:0,0:0:0:0:
372,212,63049,1,0,0:0:0:0:
364,300,63165,6,0,P|308:334|247:308,1,136.000002593994,8|0,0:0|0:0,0:0:0:0:
400,152,63630,2,0,P|444:106|408:24,1,136.000002593994,8|0,1:1|0:0,0:0:0:0:
296,40,64095,6,0,P|240:52|200:80,1,95.9999970703126,8|0,0:0|0:0,0:0:0:0:
212,136,64444,1,0,0:0:0:0:
240,192,64560,2,0,P|296:180|340:148,1,95.9999970703126,8|0,1:1|0:0,0:0:0:0:
380,128,64909,1,0,0:0:0:0:
420,176,65026,2,0,P|416:224|384:272,1,95.9999970703126,8|0,0:0|0:0,0:0:0:0:
228,328,65491,6,0,P|164:340|112:284,1,136.000002593994,8|0,1:1|0:0,0:0:0:0:
56,180,65956,5,8,0:0:0:0:
172,20,66188,1,0,0:0:0:0:
152,196,66421,1,8,1:1:0:0:
80,12,66653,1,0,0:0:0:0:
208,116,66886,1,8,0:0:0:0:
20,88,67119,1,0,0:0:0:0:
256,196,67351,2,0,P|292:168|292:92,1,95.9999970703126,8|0,1:1|0:0,0:0:0:0:
412,44,67816,6,0,P|472:76|488:104,1,95.9999970703126,4|0,0:0|0:0,0:0:0:0:
496,160,68165,1,0,0:0:0:0:
456,208,68281,2,0,P|411:225|344:208,1,95.9999970703126,8|0,1:1|0:0,0:0:0:0:
308,192,68630,1,0,0:0:0:0:
248,184,68746,2,0,P|236:220|252:284,1,95.9999970703126,8|0,0:0|0:0,0:0:0:0:
396,158,69212,6,0,P|432:98|410:38,1,136.000002593994,8|0,1:1|0:0,0:0:0:0:
276,32,69677,6,0,P|220:44|180:48,1,95.9999970703126,8|0,0:0|0:0,0:0:0:0:
148,100,70026,1,0,0:0:0:0:
172,156,70142,2,0,P|228:168|269:169,1,95.9999970703126,8|0,1:1|0:0,0:0:0:0:
328,176,70491,1,0,0:0:0:0:
380,256,70607,6,0,P|328:300|244:288,1,136.000002593994,8|0,0:0|0:0,0:0:0:0:
108,188,71072,2,0,P|73:129|111:50,1,136.000002593994,8|0,1:1|0:0,0:0:0:0:
244,36,71537,6,0,L|344:20,1,95.9999970703126,8|0,0:0|0:0,0:0:0:0:
480,148,72002,6,0,P|520:208|488:272,1,136.000002593994,8|0,1:1|0:0,0:0:0:0:
380,328,72467,5,8,0:0:0:0:
248,304,72700,1,0,0:0:0:0:
96,192,72933,6,0,P|76:148|128:68,1,136.000002593994,8|0,1:1|0:0,0:0:0:0:
248,80,73398,6,0,L|262:125,3,47.9999985351563,2|2|2|2,1:1|1:1|1:1|1:1,0:0:0:0:
312,164,73863,2,0,L|326:209,3,47.9999985351563,2|2|2|2,1:1|1:1|1:1|1:1,0:0:0:0:
336,272,74328,5,2,1:1:0:0:
313,314,74444,1,2,1:1:0:0:
278,346,74560,1,2,1:1:0:0:
234,365,74676,1,2,1:1:0:0:
186,367,74793,1,2,1:1:0:0:
141,353,74909,1,2,1:1:0:0:
103,324,75025,1,2,1:1:0:0:
76,284,75141,1,2,1:1:0:0:
60,244,75258,5,4,0:0:0:0:
256,192,75374,12,0,77119,0:0:0:0:
144,48,78049,6,0,P|152:72|248:116,1,120.000004577637,4|0,1:1|0:0,0:0:0:0:
312,132,78746,1,0,0:0:0:0:
392,160,78979,2,0,L|428:280,1,120.000004577637,2|0,0:0|0:0,0:0:0:0:
452,356,79677,1,0,0:0:0:0:
368,356,79909,6,0,B|312:356|312:356|240:364,1,120.000004577637,4|0,1:1|0:0,0:0:0:0:
164,364,80607,1,0,0:0:0:0:
104,308,80839,2,0,P|96:260|60:184,1,120.000004577637,2|0,0:0|0:0,0:0:0:0:
36,116,81537,1,0,0:0:0:0:
100,60,81770,6,0,L|224:16,1,120.000004577637,4|0,1:1|0:0,0:0:0:0:
256,20,82351,1,0,0:0:0:0:
292,40,82467,1,0,0:0:0:0:
316,76,82584,1,0,0:0:0:0:
324,116,82700,6,0,P|324:168|308:220,1,80,8|0,0:0|0:0,0:0:0:0:
244,280,83165,2,0,P|222:252|204:208,1,80
320,292,83630,2,0,P|296:340|188:332,1,160,8|0,1:1|0:0,0:0:0:0:
128,256,84328,1,0,0:0:0:0:
176,104,84560,6,0,L|264:92,1,80,8|0,0:0|0:0,0:0:0:0:
368,108,85026,2,0,L|448:176,1,80
484,256,85491,2,0,P|444:292|380:380,1,160,8|0,1:1|0:0,0:0:0:0:
272,352,86188,1,0,0:0:0:0:
120,300,86421,6,0,P|88:280|76:228,1,80,8|0,0:0|0:0,0:0:0:0:
140,148,86886,2,0,P|184:152|220:188,1,80
60,164,87351,2,0,P|68:108|164:68,1,160,8|0,1:1|0:0,0:0:0:0:
264,92,88049,1,0,0:0:0:0:
352,168,88281,6,0,L|400:240,1,80,8|0,0:0|0:0,0:0:0:0:
400,108,88746,2,0,L|360:36,1,80
480,136,89212,2,0,P|488:184|484:296,1,160,8|0,1:1|0:0,0:0:0:0:
456,340,89793,1,0,0:0:0:0:
404,356,89909,1,0,0:0:0:0:
348,368,90026,1,0,0:0:0:0:
292,376,90142,6,0,P|244:384|192:364,1,80,8|0,0:0|0:0,0:0:0:0:
104,356,90607,2,0,P|80:332|68:284,1,80
60,176,91072,2,0,B|64:116|64:116|128:32,1,160,8|0,1:1|0:0,0:0:0:0:
236,28,91770,1,0,0:0:0:0:
372,112,92002,6,0,L|460:160,1,80,8|0,0:0|0:0,0:0:0:0:
404,256,92467,2,0,L|492:300,1,80
344,340,92933,2,0,L|184:264,1,160,8|0,1:1|0:0,0:0:0:0:
96,232,93630,1,0,0:0:0:0:
168,88,93863,6,0,L|200:12,1,80,8|0,0:0|0:0,0:0:0:0:
248,168,94328,2,0,L|212:248,1,80
316,288,94793,2,0,P|356:264|380:240,1,80,8|0,1:1|0:0,0:0:0:0:
420,136,95258,2,0,P|460:160|484:196,1,80
436,276,95723,5,8,0:0:0:0:
284,352,95956,1,0,0:0:0:0:
356,200,96188,1,0,0:0:0:0:
384,368,96421,1,0,0:0:0:0:
260,256,96653,1,2,3:3:0:0:
260,256,96770,1,2,3:3:0:0:
172,192,97002,5,2,1:1:0:0:
155,161,97118,1,2,1:1:0:0:
152,126,97234,1,2,1:1:0:0:
162,93,97350,1,2,1:1:0:0:
185,67,97467,1,2,1:1:0:0:
216,52,97584,6,0,P|252:56|320:48,1,80,8|0,0:0|0:0,0:0:0:0:
464,24,98049,2,0,P|429:21|384:28,1,80,8|0,0:0|0:0,0:0:0:0:
356,136,98514,2,0,L|360:224,1,80,8|0,0:0|0:0,0:0:0:0:
444,288,98979,2,0,L|440:208,1,80,8|0,0:0|0:0,0:0:0:0:
424,96,99444,2,0,P|412:48|376:28,1,80,8|0,0:0|0:0,0:0:0:0:
276,44,99909,5,8,0:0:0:0:
200,208,100142,1,0,0:0:0:0:
188,44,100374,1,8,0:0:0:0:
292,196,100607,1,0,0:0:0:0:
144,128,100839,1,8,0:0:0:0:
332,112,101072,1,0,0:0:0:0:
144,128,101305,6,0,L|104:208,1,80,8|0,0:0|0:0,0:0:0:0:
84,308,101770,2,0,P|100:352|124:380,1,80,8|0,0:0|0:0,0:0:0:0:
232,356,102235,2,0,P|304:360|324:368,1,80,8|0,0:0|0:0,0:0:0:0:
408,304,102700,2,0,L|440:228,1,80,8|0,0:0|0:0,0:0:0:0:
480,128,103165,5,8,0:0:0:0:
336,40,103398,1,0,0:0:0:0:
484,40,103630,1,8,0:0:0:0:
336,128,103863,1,0,0:0:0:0:
480,128,104095,2,0,L|504:208,1,80,8|0,0:0|0:0,0:0:0:0:
492,316,104560,2,0,L|424:372,1,80,8|0,0:0|0:0,0:0:0:0:
268,356,105026,6,0,P|224:356|172:368,1,80,8|0,0:0|0:0,0:0:0:0:
104,288,105491,2,0,L|56:208,1,80,8|0,0:0|0:0,0:0:0:0:
140,140,105956,2,0,L|184:216,1,80,8|0,0:0|0:0,0:0:0:0:
268,280,106421,1,8,0:0:0:0:
316,108,106653,1,0,0:0:0:0:
340,264,106886,1,8,0:0:0:0:
244,104,107119,1,0,0:0:0:0:
396,216,107351,6,0,P|412:256|404:300,1,80,8|0,0:0|0:0,0:0:0:0:
320,364,107816,2,0,P|260:360|216:368,1,80,8|0,0:0|0:0,0:0:0:0:
132,332,108281,2,0,L|56:264,1,80,8|0,0:0|0:0,0:0:0:0:
20,180,108746,1,8,0:0:0:0:
96,96,108979,5,0,0:0:0:0:
264,196,109212,1,0,0:0:0:0:
176,20,109444,1,0,0:0:0:0:
148,216,109677,1,0,0:0:0:0:
272,68,109909,1,0,0:0:0:0:
148,216,110142,1,0,0:0:0:0:
272,68,110374,2,0,P|308:76|364:64,1,80,0|8,0:0|0:0,0:0:0:0:
448,124,110839,5,2,3:3:0:0:
452,180,110956,1,2,3:3:0:0:
452,236,111072,1,2,3:3:0:0:
452,348,111305,1,2,3:3:0:0:
340,344,111537,5,2,1:1:0:0:
301,331,111653,1,2,1:1:0:0:
262,324,111769,1,2,1:1:0:0:
222,320,111885,1,2,1:1:0:0:
182,320,112002,1,2,1:1:0:0:
143,325,112118,1,2,1:1:0:0:
104,334,112234,1,2,1:1:0:0:
66,347,112350,1,2,1:1:0:0:
28,320,112467,6,0,P|8:276|20:212,1,95.9999970703126,4|0,0:0|0:0,0:0:0:0:
100,124,112933,2,0,L|160:44,1,95.9999970703126,8|0,1:1|0:0,0:0:0:0:
384,53,113398,2,0,P|356:88|296:104,1,95.9999970703126,8|0,0:0|0:0,0:0:0:0:
472,92,113863,1,8,1:1:0:0:
492,240,114095,1,0,0:0:0:0:
328,324,114328,5,8,0:0:0:0:
156,252,114560,1,0,0:0:0:0:
372,224,114793,1,8,1:1:0:0:
156,348,115026,1,0,0:0:0:0:
372,224,115258,2,0,L|384:120,1,95.9999970703126,8|8,0:0|1:1,0:0:0:0:
304,36,115723,2,0,L|288:132,1,95.9999970703126,8|0,1:1|0:0,0:0:0:0:
208,304,116188,6,0,P|172:284|112:296,1,95.9999970703126,4|0,0:0|0:0,0:0:0:0:
32,188,116653,1,8,1:1:0:0:
116,80,116886,1,0,0:0:0:0:
248,96,117119,2,0,L|344:164,1,95.9999970703126,8|0,0:0|0:0,0:0:0:0:
428,240,117584,1,8,1:1:0:0:
276,356,117816,6,0,P|244:352|208:288,1,95.9999970703126,0|8,0:0|0:0,0:0:0:0:
216,168,118281,2,0,P|164:156|104:168,1,95.9999970703126,0|8,0:0|1:1,0:0:0:0:
233,270,118746,2,0,P|285:282|333:278,1,95.9999970703126,0|8,0:0|0:0,0:0:0:0:
380,156,119212,1,0,0:0:0:0:
492,36,119444,1,8,1:1:0:0:
504,188,119677,1,0,0:0:0:0:
380,20,119909,6,0,L|260:4,1,95.9999970703126,4|0,0:0|0:0,0:0:0:0:
164,64,120374,2,0,L|101:136,1,95.9999970703126,8|0,1:1|0:0,0:0:0:0:
136,268,120839,2,0,L|200:196,1,95.9999970703126,8|0,0:0|0:0,0:0:0:0:
336,188,121305,1,8,1:1:0:0:
272,304,121537,1,0,0:0:0:0:
136,268,121770,5,8,0:0:0:0:
60,80,122002,1,0,0:0:0:0:
216,208,122235,1,8,1:1:0:0:
24,160,122467,1,0,0:0:0:0:
216,208,122700,2,0,P|208:168|172:120,1,95.9999970703126,8|8,0:0|1:1,0:0:0:0:
288,44,123165,2,0,L|392:72,1,95.9999970703126,8|0,1:1|0:0,0:0:0:0:
456,180,123630,5,8,0:0:0:0:
412,308,123863,1,0,0:0:0:0:
280,324,124095,2,0,P|244:308|212:244,1,95.9999970703126,8|0,1:1|0:0,0:0:0:0:
256,132,124560,2,0,P|288:144|324:192,1,95.9999970703126,8|0,0:0|0:0,0:0:0:0:
188,176,125026,2,0,P|172:136|196:80,1,95.9999970703126,8|0,1:1|0:0,0:0:0:0:
308,48,125491,6,0,L|376:32,3,47.9999985351563,2|2|2|2,1:1|1:1|1:1|1:1,0:0:0:0:
416,60,125956,2,0,L|488:44,3,47.9999985351563,2|2|2|2,1:1|1:1|1:1|1:1,0:0:0:0:
500,104,126421,5,2,1:1:0:0:
512,151,126537,1,2,1:1:0:0:
512,198,126653,1,2,1:1:0:0:
512,246,126769,1,2,1:1:0:0:
498,289,126886,1,2,1:1:0:0:
465,324,127002,1,2,1:1:0:0:
424,348,127118,1,2,1:1:0:0:
378,359,127234,1,2,1:1:0:0:
328,364,127351,6,0,L|224:328,1,95.9999970703126,4|0,0:0|0:0,0:0:0:0:
200,284,127700,1,0,0:0:0:0:
200,220,127816,2,0,L|292:180,1,95.9999970703126,8|0,1:1|0:0,0:0:0:0:
344,156,128165,1,0,0:0:0:0:
400,132,128281,2,0,P|404:80|400:32,1,95.9999970703126,8|0,0:0|0:0,0:0:0:0:
244,24,128746,6,0,P|180:48|144:108,1,136.000002593994,8|0,1:1|0:0,0:0:0:0:
148,232,129212,6,0,P|136:288|128:332,1,95.9999970703126,8|0,0:0|0:0,0:0:0:0:
172,372,129560,1,0,0:0:0:0:
232,356,129677,2,0,L|320:288,1,95.9999970703126,8|0,1:1|0:0,0:0:0:0:
360,264,130026,1,0,0:0:0:0:
416,188,130142,6,0,P|391:136|312:128,1,136.000002593994,8|0,0:0|0:0,0:0:0:0:
160,228,130607,2,0,P|108:256|44:218,1,136.000002593994,8|0,1:1|0:0,0:0:0:0:
116,104,131072,6,0,L|196:32,1,95.9999970703126,8|0,0:0|0:0,0:0:0:0:
248,36,131421,1,0,0:0:0:0:
312,40,131537,2,0,L|383:104,1,95.9999970703126,8|0,1:1|0:0,0:0:0:0:
408,164,131886,1,0,0:0:0:0:
428,224,132002,2,0,P|419:257|376:300,1,95.9999970703126,8|0,0:0|0:0,0:0:0:0:
204,252,132467,6,0,P|186:198|244:140,1,136.000002593994,8|0,1:1|0:0,0:0:0:0:
356,124,132933,5,8,0:0:0:0:
316,344,133165,1,0,0:0:0:0:
464,152,133398,1,8,1:1:0:0:
456,316,133630,1,0,0:0:0:0:
356,124,133863,2,0,P|321:121|260:132,1,95.9999970703126,8|0,0:0|0:0,0:0:0:0:
144,196,134328,2,0,P|109:199|44:196,1,95.9999970703126,8|0,1:1|0:0,0:0:0:0:
168,48,134793,6,0,L|280:28,1,95.9999970703126,4|0,0:0|0:0,0:0:0:0:
320,56,135142,1,0,0:0:0:0:
352,112,135258,2,0,L|408:200,1,95.9999970703126,8|0,1:1|0:0,0:0:0:0:
432,248,135607,1,0,0:0:0:0:
420,308,135723,2,0,P|376:324|304:320,1,95.9999970703126,8|0,0:0|0:0,0:0:0:0:
104,312,136188,6,0,P|68:292|96:192,1,136.000002593994,8|0,1:1|0:0,0:0:0:0:
156,104,136653,6,0,P|196:76|264:64,1,95.9999970703126,8|0,0:0|0:0,0:0:0:0:
304,64,137002,1,0,0:0:0:0:
360,92,137119,2,0,P|378:121|396:188,1,95.9999970703126,8|0,1:1|0:0,0:0:0:0:
404,240,137467,1,0,0:0:0:0:
360,324,137584,6,0,P|316:344|228:304,1,136.000002593994,8|0,0:0|0:0,0:0:0:0:
84,200,138049,2,0,P|76:152|132:72,1,136.000002593994,8|0,1:1|0:0,0:0:0:0:
252,92,138514,6,0,P|284:136|328:152,1,95.9999970703126,8|0,0:0|0:0,0:0:0:0:
464,216,138979,6,0,P|484:268|412:336,1,136.000002593994,8|0,1:1|0:0,0:0:0:0:
308,352,139444,6,0,P|244:356|196:348,1,95.9999970703126,8|0,0:0|0:0,0:0:0:0:
72,224,139909,6,0,P|74:167|137:131,1,136.000002593994,8|0,1:1|0:0,0:0:0:0:
264,140,140374,6,0,L|296:184,3,47.9999985351563,2|2|2|2,1:1|1:1|1:1|1:1,0:0:0:0:
280,244,140839,2,0,L|312:288,3,47.9999985351563,2|2|2|2,1:1|1:1|1:1|1:1,0:0:0:0:
356,332,141305,5,2,1:1:0:0:
402,322,141421,1,2,1:1:0:0:
441,295,141537,1,2,1:1:0:0:
467,254,141653,1,2,1:1:0:0:
474,207,141770,1,2,1:1:0:0:
463,161,141886,1,2,1:1:0:0:
434,123,142002,1,2,1:1:0:0:
393,99,142118,1,2,1:1:0:0:
336,92,142235,6,0,P|292:84|236:96,1,80,4|0,0:0|0:0,0:0:0:0:
164,148,142700,2,0,P|192:180|252:196,1,80,8|0,1:1|0:0,0:0:0:0:
168,56,143165,2,0,P|140:28|88:20,1,80,8|0,0:0|0:0,0:0:0:0:
64,60,143514,2,0,L|12:156,1,80,0|0,0:0|1:1,1:1:0:0:
20,188,143863,1,0,0:0:0:0:
68,316,144095,6,0,P|92:348|128:364,1,80,8|0,0:0|0:0,0:0:0:0:
236,332,144560,2,0,P|216:296|172:276,1,80,8|0,1:1|0:0,0:0:0:0:
136,248,144909,1,0,0:0:0:0:
136,192,145026,1,8,0:0:0:0:
244,104,145258,1,8,1:1:0:0:
280,88,145374,1,0,0:0:0:0:
316,76,145491,1,8,1:1:0:0:
352,64,145607,1,0,0:0:0:0:
388,52,145723,1,0,0:0:0:0:
472,192,145956,6,0,L|468:296,1,80,8|0,0:0|0:0,0:0:0:0:
392,352,146421,2,0,P|332:340|292:348,1,80,8|0,1:1|0:0,0:0:0:0:
204,352,146886,1,8,0:0:0:0:
204,352,147002,1,0,0:0:0:0:
204,352,147119,1,0,0:0:0:0:
96,320,147351,2,0,P|72:272|84:220,1,80,8|0,1:1|0:0,0:0:0:0:
132,152,147816,5,8,0:0:0:0:
304,64,148049,1,0,0:0:0:0:
296,212,148281,1,8,1:1:0:0:
208,88,148514,1,0,0:0:0:0:
48,88,148746,2,0,P|16:124|0:164,1,80,8|0,0:0|0:0,0:0:0:0:
4,208,149095,2,0,L|0:296,1,80
28,336,149444,1,0,0:0:0:0:
184,328,149677,2,0,L|292:312,1,80,8|0,0:0|0:0,0:0:0:0:
412,220,150142,6,0,P|404:160|324:152,1,136.000002593994,8|0,1:1|0:0,0:0:0:0:
228,164,150607,6,0,L|136:196,1,80,8|0,0:0|0:0,0:0:0:0:
104,220,150956,2,0,P|76:256|68:320,1,80
68,344,151305,1,0,0:0:0:0:
228,340,151537,2,0,P|272:332|308:344,1,80,8|0,0:0|0:0,0:0:0:0:
428,196,152002,6,0,P|424:132|368:96,1,136.000002593994,8|0,1:1|0:0,0:0:0:0:
256,96,152467,5,8,0:0:0:0:
364,264,152700,1,8,1:1:0:0:
204,188,152933,1,8,1:1:0:0:
364,104,153165,1,0,0:0:0:0:
364,264,153398,5,8,0:0:0:0:
240,352,153630,1,0,0:0:0:0:
204,188,153863,1,8,1:1:0:0:
320,336,154095,5,0,0:0:0:0:
280,348,154212,1,0,0:0:0:0:
240,352,154328,1,2,1:1:0:0:
200,349,154444,1,2,1:1:0:0:
162,336,154560,1,2,1:1:0:0:
128,315,154676,1,2,1:1:0:0:
100,286,154793,1,2,1:1:0:0:
81,252,154909,1,2,1:1:0:0:
70,213,155025,1,2,1:1:0:0:
69,173,155141,1,2,1:1:0:0:
80,120,155258,6,0,L|124:80,3,40,2|2|2|2,1:1|1:1|1:1|1:1,0:0:0:0:
164,76,155723,2,0,L|212:36,3,40,2|2|2|2,1:1|1:1|1:1|1:1,0:0:0:0:
240,56,156189,5,2,1:1:0:0:
272,69,156305,1,2,1:1:0:0:
299,91,156421,1,2,1:1:0:0:
318,120,156537,1,2,1:1:0:0:
324,160,156653,2,0,L|320:188,8,20,2|2|2|2|2|2|2|2|2,1:1|1:1|1:1|1:1|1:1|1:1|1:1|1:1|1:1,0:0:0:0:
348,64,164095,5,0,0:0:0:0:
388,168,164328,1,0,0:0:0:0:
344,320,164560,6,0,P|296:312|256:324,1,80,8|0,0:0|0:0,0:0:0:0:
108,348,165026,2,0,P|156:356|192:344,1,80,8|0,0:0|0:0,0:0:0:0:
212,240,165491,2,0,L|180:164,1,80,8|0,0:0|0:0,0:0:0:0:
68,96,165956,2,0,L|100:172,1,80,8|0,0:0|0:0,0:0:0:0:
288,220,166421,6,0,P|288:256|256:308,1,80,8|0,0:0|0:0,0:0:0:0:
368,348,166886,2,0,L|476:324,1,80,8|0,0:0|0:0,0:0:0:0:
472,220,167351,1,8,0:0:0:0:
472,204,167816,1,8,0:0:0:0:
472,188,168281,5,8,0:0:0:0:
336,84,168514,1,8,0:0:0:0:
312,256,168746,1,8,0:0:0:0:
472,176,168979,1,8,0:0:0:0:
296,168,169212,1,0,0:0:0:0:
376,312,169444,1,0,0:0:0:0:
412,120,169677,1,8,0:0:0:0:
312,256,169909,1,0,0:0:0:0:
256,192,170142,12,0,172002,0:0:0:0:
256,192,172933,5,2,3:3:0:0:
256,192,173049,1,2,3:3:0:0:
216,88,173281,1,2,3:3:0:0:
216,88,173398,1,2,3:3:0:0:
104,72,173630,1,2,3:3:0:0:
104,72,173746,1,2,3:3:0:0:
104,72,173863,6,0,L|52:172,1,80,4|0,0:0|0:0,0:0:0:0:
76,256,174328,2,0,L|128:356,1,80
224,332,174793,2,0,L|184:256,1,80
152,156,175258,1,0,0:0:0:0:
248,96,175491,5,0,0:0:0:0:
376,232,175723,1,0,0:0:0:0:
152,156,175956,1,0,0:0:0:0:
388,120,176188,2,0,P|388:80|380:36,1,80
268,28,176653,5,2,3:3:0:0:
268,28,176770,1,2,3:3:0:0:
168,76,177002,1,2,3:3:0:0:
168,76,177119,1,2,3:3:0:0:
148,184,177351,1,2,1:1:0:0:
140,240,177467,1,2,1:1:0:0:
140,296,177584,6,0,P|156:336|212:368,1,95.9999970703126,4|0,0:0|0:0,0:0:0:0:
332,360,178049,2,0,L|432:336,1,95.9999970703126,8|0,1:1|0:0,0:0:0:0:
476,208,178514,1,8,0:0:0:0:
400,28,178746,1,0,0:0:0:0:
396,232,178979,1,8,1:1:0:0:
320,48,179212,6,0,L|216:16,1,95.9999970703126,0|8,0:0|0:0,0:0:0:0:
96,164,179677,2,0,P|104:116|144:44,1,95.9999970703126,0|8,0:0|1:1,0:0:0:0:
192,240,180142,2,0,P|184:288|144:360,1,95.9999970703126,0|8,0:0|0:0,0:0:0:0:
44,260,180607,1,0,0:0:0:0:
268,344,180839,1,8,1:1:0:0:
116,384,181072,1,0,0:0:0:0:
312,264,181305,6,0,P|336:220|344:168,1,95.9999970703126,4|0,0:0|0:0,0:0:0:0:
344,40,181770,2,0,P|288:24|224:36,1,95.9999970703126,8|0,1:1|0:0,0:0:0:0:
148,152,182235,2,0,P|112:132|84:84,1,95.9999970703126,8|0,0:0|0:0,0:0:0:0:
112,260,182700,2,0,L|196:312,1,95.9999970703126,8|0,1:1|0:0,0:0:0:0:
320,356,183165,5,8,0:0:0:0:
468,264,183398,1,0,0:0:0:0:
320,176,183630,1,8,1:1:0:0:
416,340,183863,1,0,0:0:0:0:
232,204,184095,2,0,P|209:162|206:114,1,95.9999970703126,8|8,0:0|1:1,0:0:0:0:
244,8,184560,1,8,1:1:0:0:
376,40,184793,1,0,0:0:0:0:
456,216,185026,6,0,L|428:316,1,95.9999970703126,4|0,0:0|0:0,0:0:0:0:
296,320,185491,2,0,L|232:240,1,95.9999970703126,8|0,1:1|0:0,0:0:0:0:
160,132,185956,1,8,0:0:0:0:
60,308,186188,1,0,0:0:0:0:
72,112,186421,1,8,1:1:0:0:
152,328,186653,1,0,0:0:0:0:
296,320,186886,6,0,L|342:310,3,47.9999985351563,2|2|2|2,1:1|1:1|1:1|1:1,0:0:0:0:
372,248,187351,2,0,L|420:232,3,47.9999985351563,2|2|2|2,1:1|1:1|1:1|1:1,0:0:0:0:
480,204,187816,5,2,1:1:0:0:
488,157,187932,1,2,1:1:0:0:
479,110,188048,1,2,1:1:0:0:
453,70,188164,1,2,1:1:0:0:
414,41,188281,1,2,1:1:0:0:
368,29,188397,1,2,1:1:0:0:
321,35,188513,1,2,1:1:0:0:
279,57,188629,1,2,1:1:0:0:
248,104,188746,6,0,P|216:160|220:228,1,95.9999970703126,4|0,0:0|0:0,0:0:0:0:
228,252,189095,1,0,0:0:0:0:
252,308,189211,2,0,P|219:319|144:320,1,95.9999970703126,8|0,1:1|0:0,0:0:0:0:
100,304,189560,1,0,0:0:0:0:
88,244,189676,2,0,L|92:136,1,95.9999970703126,8|0,0:0|0:0,0:0:0:0:
256,52,190141,6,0,P|305:23|380:60,1,136.000002593994,8|0,1:1|0:0,0:0:0:0:
436,172,190606,6,0,L|448:268,1,95.9999970703126,8|0,0:0|0:0,0:0:0:0:
404,312,190956,1,0,0:0:0:0:
344,304,191072,2,0,L|292:204,1,95.9999970703126,8|0,1:1|0:0,0:0:0:0:
268,164,191421,1,0,0:0:0:0:
196,100,191537,6,0,P|136:144|152:212,1,136.000002593994,8|0,0:0|0:0,0:0:0:0:
256,352,192002,2,0,P|334:352|378:299,1,136.000002593994,8|0,1:1|0:0,0:0:0:0:
359,179,192467,6,0,P|303:159|259:167,1,95.9999970703126,8|0,0:0|0:0,0:0:0:0:
212,188,192816,1,0,0:0:0:0:
156,216,192932,2,0,L|100:132,1,95.9999970703126,8|0,1:1|0:0,0:0:0:0:
120,76,193281,1,0,0:0:0:0:
180,64,193397,2,0,L|240:148,1,95.9999970703126,8|0,0:0|0:0,0:0:0:0:
380,268,193862,6,0,P|360:336|292:344,1,136.000002593994,8|0,1:1|0:0,0:0:0:0:
172,320,194327,5,8,0:0:0:0:
180,84,194559,1,0,0:0:0:0:
76,300,194792,1,8,1:1:0:0:
252,108,195025,2,0,P|252:60|224:20,1,95.9999970703126,0|8,0:0|0:0,0:0:0:0:
96,60,195490,1,0,0:0:0:0:
60,188,195723,2,0,P|80:248|104:280,1,95.9999970703126,8|0,1:1|0:0,0:0:0:0:
268,328,196188,6,0,P|320:340|388:312,1,95.9999970703126,4|0,0:0|0:0,0:0:0:0:
412,296,196537,1,0,0:0:0:0:
404,236,196653,2,0,L|368:132,1,95.9999970703126,8|0,1:1|0:0,0:0:0:0:
320,108,197002,1,0,0:0:0:0:
260,116,197118,2,0,L|296:216,1,95.9999970703126,8|0,0:0|0:0,0:0:0:0:
104,244,197583,6,0,P|68:192|100:120,1,136.000002593994,8|0,1:1|0:0,0:0:0:0:
252,76,198048,6,0,P|288:100|320:156,1,95.9999970703126,8|0,0:0|0:0,0:0:0:0:
336,204,198398,1,0,0:0:0:0:
340,264,198513,2,0,L|268:352,1,95.9999970703126,8|0,1:1|0:0,0:0:0:0:
216,340,198863,1,0,0:0:0:0:
128,304,198979,6,0,P|104:216|136:176,1,136.000002593994,8|0,0:0|0:0,0:0:0:0:
236,28,199444,2,0,P|312:8|376:48,1,136.000002593994,8|0,1:1|0:0,0:0:0:0:
432,188,199909,6,0,P|404:236|392:288,1,95.9999970703126,8|0,0:0|0:0,0:0:0:0:
208,312,200374,6,0,P|176:248|208:196,1,136.000002593994,8|0,1:1|0:0,0:0:0:0:
280,84,200839,5,8,0:0:0:0:
412,56,201071,1,0,0:0:0:0:
472,236,201304,6,0,P|496:292|448:360,1,136.000002593994,8|0,1:1|0:0,0:0:0:0:
332,304,201770,6,0,L|288:328,3,47.9999985351563,2|2|2|2,1:1|1:1|1:1|1:1,0:0:0:0:
224,316,202235,2,0,L|180:340,3,47.9999985351563,2|2|2|2,1:1|1:1|1:1|1:1,0:0:0:0:
116,352,202700,5,2,1:1:0:0:
80,319,202816,1,2,1:1:0:0:
56,278,202932,1,2,1:1:0:0:
45,231,203048,1,2,1:1:0:0:
49,184,203165,1,2,1:1:0:0:
66,139,203281,1,2,1:1:0:0:
96,102,203397,1,2,1:1:0:0:
136,75,203513,1,2,1:1:0:0:
184,64,203630,5,4,0:0:0:0:
256,192,203746,12,0,205026,0:0:0:0:
52,236,205490,6,0,P|44:272|68:368,1,120,2|2,0:0|0:0,0:0:0:0:
316,40,207350,2,0,L|356:153,1,120,2|2,0:0|0:0,0:0:0:0:
512,344,209211,6,0,P|464:356|384:344,1,120,2|2,0:0|0:0,0:0:0:0:
