osu file format v14

[General]
AudioFilename: BoA -Masayume Chasing (Full Version) (www.mp3fun.cc).mp3
AudioLeadIn: 0
PreviewTime: 44560
Countdown: 0
SampleSet: Soft
StackLeniency: 0.7
Mode: 0
LetterboxInBreaks: 0
EpilepsyWarning: 1
WidescreenStoryboard: 1

[Editor]
DistanceSpacing: 1.4
BeatDivisor: 4
GridSize: 4
TimelineZoom: 1

[Metadata]
Title:MASAYUME CHASING
TitleUnicode:MASAYUME CHASING
Artist:BoA
ArtistUnicode:BoA
Creator:-Nya-
Version:Hard
Source:フェアリーテイル
Tags:opening full version fairy tail natsu dragneel lucy heartfilia gray fullbuster erza scarlet 10nya -_t_e_n_n_y_a_- a true dream who's back? Kwon Bo Ah
BeatmapID:857268
BeatmapSetID:391671

[Difficulty]
HPDrainRate:5
CircleSize:4
OverallDifficulty:6.5
ApproachRate:7.5
SliderMultiplier:1.4
SliderTickRate:1

[Events]
//Background and Video events
0,0,"Team.jpg",0,0
//Break Periods
2,157319,163735
//Storyboard Layer 0 (Background)
//Storyboard Layer 1 (Fail)
//Storyboard Layer 2 (Pass)
//Storyboard Layer 3 (Foreground)
//Storyboard Sound Samples

[TimingPoints]
840,465.116279069767,4,2,1,20,1,0
14095,-100,4,2,1,40,0,0
30607,-100,4,2,1,50,0,0
45491,-100,4,2,1,70,0,1
58514,-100,4,2,1,50,0,1
60374,-100,4,2,1,70,0,1
73398,-100,4,2,1,50,0,1
75258,-100,4,2,1,50,0,0
75374,-100,4,2,1,20,0,0
82700,-100,4,2,1,40,0,0
97584,-100,4,2,1,50,0,0
112467,-100,4,2,1,70,0,1
125491,-100,4,2,1,50,0,1
127351,-100,4,2,1,70,0,1
140374,-100,4,2,1,50,0,1
142235,-100,4,2,1,50,0,0
150607,-100,4,2,1,50,0,0
152467,-100,4,2,1,50,0,0
154328,-100,4,2,1,30,0,0
164095,-100,4,2,1,50,0,0
173863,-100,4,2,1,50,0,1
173979,-100,4,2,1,50,0,0
177584,-100,4,2,1,70,0,1
186886,-100,4,2,1,50,0,1
188746,-100,4,2,1,70,0,1
201770,-100,4,2,1,50,0,1
203630,-100,4,2,1,20,0,0

[Colours]
Combo1 : 255,255,138
Combo2 : 255,136,196
Combo3 : 89,164,255
Combo4 : 247,108,130

[HitObjects]
56,104,840,6,0,P|96:108|192:52,1,140,2|0,0:0|0:0,0:0:0:0:
276,36,1537,2,0,L|376:224,1,210,0|0,0:0|0:0,0:0:0:0:
212,332,2700,6,0,B|128:320|128:320|64:328,1,140,2|0,0:0|0:0,0:0:0:0:
48,232,3398,2,0,P|64:172|20:28,1,210,0|0,0:0|0:0,0:0:0:0:
220,32,4560,6,0,L|376:76,1,140,2|0,0:0|0:0,0:0:0:0:
416,148,5258,2,0,B|396:204|404:248|404:248|360:268|336:336,1,210,0|0,0:0|0:0,0:0:0:0:
144,344,6421,6,0,P|128:296|64:208,1,140,2|0,0:0|0:0,0:0:0:0:
108,128,7119,2,0,L|316:32,1,210,0|0,0:0|0:0,0:0:0:0:
476,120,8281,6,0,P|464:168|480:268,1,140,2|0,0:0|0:0,0:0:0:0:
508,348,8979,1,0,0:0:0:0:
412,326,9212,2,0,P|356:318|260:342,1,140,4|0,1:1|0:0,0:0:0:0:
180,356,9909,1,0,0:0:0:0:
132,272,10142,6,0,B|132:196|132:196|120:124,1,140,2|0,0:0|0:0,0:0:0:0:
104,36,10839,1,0,0:0:0:0:
204,32,11072,2,0,L|352:40,1,140,4|0,1:1|0:0,0:0:0:0:
440,48,11770,1,0,0:0:0:0:
436,144,12002,6,0,P|424:192|456:296,1,140,2|0,0:0|0:0,0:0:0:0:
508,352,12700,1,0,0:0:0:0:
412,360,12933,2,0,L|260:356,1,140,4|0,1:1|0:0,0:0:0:0:
176,348,13630,1,0,0:0:0:0:
100,288,13863,5,2,0:0:0:0:
88,192,14095,2,0,L|84:152,2,35,2|2|2,3:3|3:3|3:3,0:0:0:0:
100,288,14560,1,2,3:3:0:0:
180,232,14793,2,0,L|216:200,1,35,2|2,1:1|1:1,0:0:0:0:
276,140,15142,2,0,L|292:92,1,35,2|2,1:1|1:1,0:0:0:0:
356,36,15491,1,2,1:1:0:0:
356,36,15607,1,0,0:0:0:0:
356,36,15723,6,0,P|388:92|400:180,1,140,8|8,0:0|0:0,0:0:0:0:
360,256,16421,1,0,0:0:0:0:
420,332,16653,2,0,P|344:352|276:304,1,140,8|8,0:0|0:0,0:0:0:0:
220,260,17351,1,0,0:0:0:0:
204,164,17584,6,0,L|192:92,1,70,8|0,0:0|0:0,0:0:0:0:
292,88,18049,2,0,L|356:24,1,70,8|0,0:0|0:0,0:0:0:0:
440,52,18514,2,0,P|464:96|456:192,1,140,8|8,0:0|0:0,0:0:0:0:
392,256,19212,1,0,0:0:0:0:
264,316,19444,6,0,P|216:316|180:320,1,70,8|0,0:0|0:0,0:0:0:0:
96,332,19909,1,8,0:0:0:0:
36,256,20142,1,0,0:0:0:0:
44,160,20374,2,0,L|72:68,1,70,8|0,0:0|0:0,0:0:0:0:
140,28,20839,1,8,0:0:0:0:
236,44,21072,1,0,0:0:0:0:
292,124,21305,6,0,P|320:100|332:64,1,70,8|0,0:0|0:0,0:0:0:0:
424,40,21770,2,0,L|468:120,1,70,8|0,0:0|0:0,0:0:0:0:
480,196,22235,1,8,0:0:0:0:
468,292,22467,1,0,0:0:0:0:
376,324,22700,1,8,0:0:0:0:
296,268,22933,1,0,0:0:0:0:
296,268,23049,1,0,0:0:0:0:
296,268,23165,6,0,P|280:216|268:192,1,70,8|0,0:0|0:0,0:0:0:0:
168,136,23630,2,0,P|176:169|190:202,1,70,8|0,0:0|0:0,0:0:0:0:
244,120,24095,2,0,P|208:68|124:72,1,140,0|0,0:0|0:0,0:0:0:0:
80,144,24793,1,0,0:0:0:0:
84,244,25026,6,0,L|132:304,1,70,8|0,0:0|0:0,0:0:0:0:
224,288,25491,2,0,L|272:348,1,70,8|0,0:0|0:0,0:0:0:0:
364,348,25956,2,0,P|428:320|444:248,1,140,8|8,0:0|0:0,0:0:0:0:
448,160,26653,1,0,0:0:0:0:
356,56,26886,6,0,P|304:52|288:44,1,70,8|0,0:0|0:0,0:0:0:0:
192,28,27351,1,8,0:0:0:0:
108,80,27584,1,0,0:0:0:0:
68,168,27816,2,0,B|76:224|76:224|64:312,1,140,8|0,0:0|0:0,0:0:0:0:
144,360,28514,1,0,0:0:0:0:
240,352,28746,5,0,0:0:0:0:
272,260,28979,2,0,L|288:212,2,35,2|2|2,3:3|3:3|3:3,0:0:0:0:
240,352,29444,1,2,3:3:0:0:
336,336,29677,2,0,L|384:316,1,35,2|2,1:1|1:1,0:0:0:0:
420,240,30026,2,0,L|436:200,1,35,2|2,1:1|1:1,0:0:0:0:
460,112,30374,1,2,1:1:0:0:
460,112,30491,1,2,1:1:0:0:
460,112,30607,6,0,P|408:76|376:68,1,70,8|0,0:0|0:0,0:0:0:0:
264,64,31072,2,0,P|316:100|348:108,1,70,8|0,1:1|0:0,0:0:0:0:
352,196,31537,2,0,P|300:200|212:160,1,140,8|8,0:0|1:1,0:0:0:0:
140,112,32235,1,0,0:0:0:0:
72,180,32467,6,0,B|60:224|68:252|68:252|56:300|76:348,1,140,8|8,0:0|1:1,0:0:0:0:
160,348,33165,1,0,0:0:0:0:
256,328,33398,2,0,P|316:316|400:340,1,140,8|8,0:0|1:1,0:0:0:0:
488,340,34095,1,0,0:0:0:0:
488,200,34328,6,0,L|472:128,1,70,8|0,0:0|0:0,0:0:0:0:
400,64,34793,1,8,1:1:0:0:
308,36,35026,1,0,0:0:0:0:
220,80,35258,2,0,P|200:120|164:160,1,70,8|0,0:0|0:0,0:0:0:0:
92,176,35723,1,8,1:1:0:0:
40,92,35956,1,0,0:0:0:0:
16,188,36188,6,0,P|56:244|136:240,1,140,8|8,0:0|1:1,0:0:0:0:
216,216,36886,1,0,0:0:0:0:
312,200,37119,1,8,0:0:0:0:
400,240,37351,2,0,L|416:316,2,70,0|8|0,0:0|1:1|0:0,0:0:0:0:
372,104,38049,6,0,P|348:68|256:36,1,140,8|8,0:0|1:1,0:0:0:0:
164,60,38746,1,0,0:0:0:0:
100,136,38979,2,0,P|104:220|108:280,1,140,8|8,0:0|1:1,0:0:0:0:
172,348,39677,1,0,0:0:0:0:
268,328,39909,6,0,P|312:308|328:288,1,70,8|0,0:0|0:0,0:0:0:0:
344,196,40374,2,0,L|328:124,1,70,8|0,1:1|0:0,0:0:0:0:
420,92,40839,2,0,L|435:160,1,70,8|0,0:0|0:0,0:0:0:0:
452,256,41305,1,8,1:1:0:0:
408,344,41537,1,0,0:0:0:0:
312,356,41770,5,8,0:0:0:0:
224,316,42002,1,0,0:0:0:0:
176,232,42235,1,8,1:1:0:0:
196,136,42467,1,0,0:0:0:0:
284,92,42700,1,8,0:0:0:0:
376,124,42933,1,0,0:0:0:0:
408,216,43165,1,8,1:1:0:0:
368,304,43398,1,0,0:0:0:0:
300,236,43630,5,8,0:0:0:0:
208,200,43863,2,0,L|160:184,2,35,2|2|2,3:3|3:3|3:3,0:0:0:0:
300,236,44328,1,2,3:3:0:0:
220,292,44560,2,0,L|176:324,1,35,2|2,1:1|1:1,0:0:0:0:
280,356,44909,2,0,L|308:376,1,35,2|2,1:1|1:1,0:0:0:0:
404,352,45258,1,2,1:1:0:0:
404,352,45374,1,2,1:1:0:0:
404,352,45491,6,0,P|424:280|484:212,1,140,4|8,0:0|1:1,0:0:0:0:
472,132,46188,1,0,0:0:0:0:
396,72,46421,2,0,P|332:32|264:60,1,140,8|8,0:0|1:1,0:0:0:0:
324,136,47119,1,0,0:0:0:0:
240,248,47351,6,0,L|204:308,1,70,8|0,0:0|0:0,0:0:0:0:
168,176,47816,2,0,L|204:116,1,70,8|0,1:1|0:0,0:0:0:0:
148,36,48281,1,8,0:0:0:0:
60,76,48514,1,8,1:1:0:0:
44,172,48746,2,0,P|56:212|96:256,1,70,8|0,1:1|0:0,0:0:0:0:
192,300,49212,5,4,0:0:0:0:
288,272,49444,2,0,P|328:240|348:208,2,70,0|8|0,0:0|1:1|0:0,0:0:0:0:
192,300,50142,2,0,P|212:340|256:368,1,70,8|0,0:0|0:0,0:0:0:0:
328,360,50607,1,8,1:1:0:0:
412,308,50839,6,0,L|448:248,1,70,0|8,0:0|0:0,0:0:0:0:
456,148,51305,2,0,L|420:88,1,70,0|8,0:0|1:1,0:0:0:0:
336,36,51770,2,0,B|288:44|272:68|272:68|232:60|184:100,1,140,0|0,0:0|0:0,0:0:0:0:
124,132,52467,1,8,1:1:0:0:
108,228,52700,1,0,0:0:0:0:
224,308,52933,6,0,P|268:316|300:316,1,70,4|0,0:0|0:0,0:0:0:0:
412,240,53398,2,0,P|377:241|342:248,1,70,8|0,1:1|0:0,0:0:0:0:
260,196,53863,2,0,L|268:108,1,70,8|0,0:0|0:0,0:0:0:0:
352,40,54328,2,0,L|345:109,1,70,8|0,1:1|0:0,0:0:0:0:
428,164,54793,6,0,P|456:176|488:224,1,70,8|0,0:0|0:0,0:0:0:0:
488,304,55258,2,0,P|464:332|356:336,1,140,8|8,1:1|0:0,0:0:0:0:
276,304,55956,1,8,1:1:0:0:
180,304,56188,1,8,1:1:0:0:
156,208,56421,1,0,0:0:0:0:
200,80,56653,6,0,L|264:32,1,70,4|0,0:0|0:0,0:0:0:0:
356,40,57119,2,0,L|412:82,1,70,8|0,1:1|0:0,0:0:0:0:
484,148,57584,1,8,0:0:0:0:
472,244,57816,1,0,0:0:0:0:
384,292,58049,2,0,P|336:300|300:288,1,70,8|0,1:1|0:0,0:0:0:0:
224,256,58514,6,0,L|180:220,3,35,2|2|2|2,1:1|1:1|1:1|1:1,0:0:0:0:
196,184,58979,2,0,L|152:148,3,35,2|2|2|2,1:1|1:1|1:1|1:1,0:0:0:0:
164,112,59444,2,0,L|120:76,3,35,2|2|2|2,1:1|1:1|1:1|1:1,0:0:0:0:
136,40,59909,2,0,L|92:4,3,35,2|2|2|2,1:1|1:1|1:1|1:1,0:0:0:0:
60,24,60374,6,0,P|40:64|44:104,1,70,4|0,0:0|0:0,0:0:0:0:
60,184,60839,2,0,L|80:260,1,70,8|0,1:1|0:0,0:0:0:0:
176,332,61305,2,0,L|158:264,1,70,8|0,0:0|0:0,0:0:0:0:
252,160,61770,6,0,P|312:128|336:132,1,70,8|0,1:1|0:0,0:0:0:0:
452,128,62235,6,0,L|484:56,1,70,8|0,0:0|0:0,0:0:0:0:
388,32,62700,2,0,P|340:40|312:28,1,70,8|0,1:1|0:0,0:0:0:0:
180,44,63165,6,0,L|112:92,1,70,8|0,0:0|0:0,0:0:0:0:
112,184,63630,2,0,L|44:232,1,70,8|0,1:1|0:0,0:0:0:0:
120,348,64095,6,0,B|152:340|152:340|212:336,1,70,8|0,0:0|0:0,0:0:0:0:
288,348,64560,2,0,P|336:356|356:348,1,70,8|0,1:1|0:0,0:0:0:0:
436,292,65026,2,0,L|476:220,1,70,8|0,0:0|0:0,0:0:0:0:
452,92,65491,6,0,P|420:52|416:28,1,70,8|0,1:1|0:0,0:0:0:0:
276,32,65956,5,8,0:0:0:0:
192,80,66188,1,0,0:0:0:0:
172,176,66421,1,8,1:1:0:0:
212,264,66653,2,0,P|176:272|128:260,1,70,0|8,0:0|0:0,0:0:0:0:
48,284,67119,1,0,0:0:0:0:
116,352,67351,2,0,L|200:384,1,70,8|0,1:1|0:0,0:0:0:0:
320,372,67816,6,0,P|364:368|396:372,1,70,4|0,0:0|0:0,0:0:0:0:
464,304,68281,2,0,L|488:236,1,70,8|0,1:1|0:0,0:0:0:0:
496,140,68746,1,8,0:0:0:0:
464,48,68979,1,0,0:0:0:0:
324,52,69212,6,0,L|236:92,1,70,8|0,1:1|0:0,0:0:0:0:
124,128,69677,5,8,0:0:0:0:
96,220,69909,1,0,0:0:0:0:
144,304,70142,2,0,P|184:316|228:312,1,70,8|0,1:1|0:0,0:0:0:0:
348,284,70607,6,0,P|392:252|424:240,1,70,8|0,0:0|0:0,0:0:0:0:
456,160,71072,2,0,P|412:128|380:116,1,70,8|0,1:1|0:0,0:0:0:0:
272,64,71537,6,0,P|232:64|192:56,1,70,8|0,0:0|0:0,0:0:0:0:
92,144,72002,6,0,P|88:184|96:240,1,70,8|0,1:1|0:0,0:0:0:0:
176,324,72467,5,8,0:0:0:0:
276,324,72700,1,0,0:0:0:0:
376,228,72933,6,0,L|392:160,1,70,8|0,1:1|0:0,0:0:0:0:
368,64,73398,6,0,L|316:32,3,35,2|2|2|2,1:1|1:1|1:1|1:1,0:0:0:0:
288,52,73863,2,0,L|236:20,3,35,2|2|2|2,1:1|1:1|1:1|1:1,0:0:0:0:
212,44,74328,2,0,L|160:12,3,35,2|2|2|2,1:1|1:1|1:1|1:1,0:0:0:0:
132,36,74793,2,0,L|80:4,3,35,2|2|2|2,1:1|1:1|1:1|1:1,0:0:0:0:
56,16,75258,5,4,0:0:0:0:
256,192,75374,12,0,77119,0:0:0:0:
184,96,77816,5,0,0:0:0:0:
184,96,78049,2,0,P|176:136|196:252,1,140,4|0,1:1|0:0,0:0:0:0:
252,308,78746,1,0,0:0:0:0:
348,300,78979,6,0,B|420:272|420:272|480:216,1,140,2|0,0:0|0:0,0:0:0:0:
480,132,79677,1,0,0:0:0:0:
412,64,79909,2,0,P|368:56|264:72,1,140,4|0,1:1|0:0,0:0:0:0:
200,132,80607,1,0,0:0:0:0:
176,228,80839,6,0,P|116:188|104:112,1,140,2|0,0:0|0:0,0:0:0:0:
200,132,81537,1,0,0:0:0:0:
256,212,81770,2,0,P|256:256|168:308,1,140,4|0,1:1|0:0,0:0:0:0:
156,304,82351,1,0,0:0:0:0:
132,292,82467,1,0,0:0:0:0:
56,212,82700,6,0,L|40:132,1,70,8|0,0:0|0:0,0:0:0:0:
76,52,83165,2,0,P|124:44|172:44,1,70
236,76,83630,2,0,P|280:84|392:72,1,140,8|0,1:1|0:0,0:0:0:0:
472,56,84328,1,0,0:0:0:0:
484,152,84560,6,0,L|496:232,1,70,8|0,0:0|0:0,0:0:0:0:
428,292,85026,2,0,L|398:228,1,70
300,224,85491,2,0,B|256:232|224:220|224:220|184:224|136:208,1,140,8|0,1:1|0:0,0:0:0:0:
64,200,86188,1,0,0:0:0:0:
100,64,86421,6,0,P|136:24|172:12,1,70,8|0,0:0|0:0,0:0:0:0:
240,56,86886,2,0,P|219:84|190:102,1,70
192,200,87351,2,0,P|260:216|348:208,1,140,8|0,1:1|0:0,0:0:0:0:
404,152,88049,1,0,0:0:0:0:
452,236,88281,6,0,L|464:308,1,70,8|0,0:0|0:0,0:0:0:0:
372,340,88746,2,0,P|320:336|292:344,1,70
208,360,89212,2,0,P|173:365|139:359,1,70,8|0,1:1|0:0,0:0:0:0:
52,316,89677,1,0,0:0:0:0:
52,316,89793,1,0,0:0:0:0:
52,316,89909,1,0,0:0:0:0:
64,220,90142,6,0,P|80:156|92:128,1,70,8|0,0:0|0:0,0:0:0:0:
168,104,90607,2,0,L|232:152,1,70,0|0,0:0|0:0,0:0:0:0:
316,176,91072,2,0,P|384:132|404:76,1,140,8|0,1:1|0:0,0:0:0:0:
488,28,91770,1,0,0:0:0:0:
492,124,92002,6,0,L|480:220,1,70,8|0,0:0|0:0,0:0:0:0:
444,284,92467,2,0,P|392:304|368:324,1,70,0|0,0:0|0:0,0:0:0:0:
288,344,92933,2,0,P|224:356|144:316,1,140,8|0,1:1|0:0,0:0:0:0:
76,276,93630,1,0,0:0:0:0:
80,136,93863,6,0,P|108:96|148:80,1,70,8|0,0:0|0:0,0:0:0:0:
220,112,94328,2,0,P|256:116|308:104,1,70,0|0,0:0|0:0,0:0:0:0:
388,112,94793,2,0,P|416:144|432:168,1,70,8|0,1:1|0:0,0:0:0:0:
452,264,95258,1,0,0:0:0:0:
392,340,95491,1,0,0:0:0:0:
252,344,95723,6,0,B|208:340|168:352|168:352|104:328,1,140,8|0,0:0|0:0,0:0:0:0:
28,292,96421,1,0,0:0:0:0:
36,196,96653,2,0,L|44:128,1,35,2|2,3:3|3:3,0:0:0:0:
108,92,97002,2,0,L|156:72,1,35,2|2,1:1|1:1,0:0:0:0:
236,68,97351,1,2,1:1:0:0:
236,68,97467,1,2,1:1:0:0:
236,68,97584,6,0,L|284:144,1,70,8|0,0:0|0:0,0:0:0:0:
368,152,98049,2,0,L|416:228,1,70,8|0,0:0|0:0,0:0:0:0:
436,304,98514,2,0,P|400:340|368:344,1,70,8|0,0:0|0:0,0:0:0:0:
284,344,98979,1,8,0:0:0:0:
192,312,99212,1,0,0:0:0:0:
140,228,99444,6,0,B|136:172|136:172|96:80,1,140,8|8,0:0|0:0,0:0:0:0:
180,32,100142,1,0,0:0:0:0:
276,28,100374,2,0,P|348:44|436:32,1,140,8|8,0:0|0:0,0:0:0:0:
484,104,101072,1,0,0:0:0:0:
488,244,101305,6,0,P|460:264|444:296,1,70,8|0,0:0|0:0,0:0:0:0:
348,296,101770,2,0,P|332:265|304:244,1,70,8|0,0:0|0:0,0:0:0:0:
208,252,102235,1,8,0:0:0:0:
120,208,102467,1,0,0:0:0:0:
148,104,102700,1,8,0:0:0:0:
244,112,102933,1,0,0:0:0:0:
292,196,103165,6,0,P|332:148|328:68,1,140,8|8,0:0|0:0,0:0:0:0:
244,112,103863,1,0,0:0:0:0:
148,104,104095,1,8,0:0:0:0:
60,144,104328,1,0,0:0:0:0:
40,240,104560,1,8,0:0:0:0:
84,328,104793,1,0,0:0:0:0:
224,312,105026,6,0,P|268:312|300:320,1,70,8|0,0:0|0:0,0:0:0:0:
412,384,105491,2,0,P|368:384|336:376,1,70,8|0,0:0|0:0,0:0:0:0:
364,292,105956,2,0,L|372:216,1,70,8|0,0:0|0:0,0:0:0:0:
372,124,106421,1,8,0:0:0:0:
308,48,106653,1,0,0:0:0:0:
208,44,106886,6,0,P|168:56|124:80,1,70,8|0,0:0|0:0,0:0:0:0:
92,152,107351,2,0,L|88:240,1,70,8|0,0:0|0:0,0:0:0:0:
176,264,107816,2,0,L|172:352,1,70,8|0,0:0|0:0,0:0:0:0:
272,340,108281,2,0,L|275:270,1,70,8|0,0:0|0:0,0:0:0:0:
292,136,108746,5,8,0:0:0:0:
356,64,108979,2,0,P|396:56|444:64,2,70
292,136,109677,2,0,P|252:144|204:136,1,70
136,96,110142,1,0,0:0:0:0:
192,16,110374,1,0,0:0:0:0:
92,16,110607,5,8,0:0:0:0:
36,96,110839,2,0,L|-8:148,2,35,2|2|2,3:3|3:3|3:3,0:0:0:0:
136,96,111305,1,2,3:3:0:0:
148,192,111537,2,0,L|156:232,3,35,2|2|2|2,1:1|1:1|1:1|1:1,0:0:0:0:
200,248,112002,2,0,L|208:288,3,35,2|2|2|2,1:1|1:1|1:1|1:1,0:0:0:0:
228,328,112467,6,0,P|268:340|372:304,1,140,4|8,0:0|1:1,0:0:0:0:
416,232,113165,1,0,0:0:0:0:
424,136,113398,2,0,P|360:76|316:36,1,140,8|8,0:0|1:1,0:0:0:0:
224,32,114095,1,0,0:0:0:0:
128,132,114328,6,0,L|76:184,1,70,8|0,0:0|0:0,0:0:0:0:
64,324,114793,2,0,L|113:274,1,70,8|0,1:1|0:0,0:0:0:0:
192,216,115258,1,8,0:0:0:0:
288,208,115491,1,8,1:1:0:0:
360,276,115723,1,8,1:1:0:0:
324,368,115956,1,0,0:0:0:0:
456,320,116188,5,4,0:0:0:0:
456,220,116421,2,0,P|456:164|460:136,2,70,0|8|0,0:0|1:1|0:0,0:0:0:0:
456,320,117119,1,8,0:0:0:0:
360,276,117351,2,0,L|288:212,1,70,0|8,0:0|1:1,0:0:0:0:
176,176,117816,6,0,P|144:160|120:120,1,70,0|8,0:0|0:0,0:0:0:0:
28,144,118281,2,0,L|56:224,1,70,0|8,0:0|1:1,0:0:0:0:
120,280,118746,2,0,L|196:304,1,70,0|8,0:0|0:0,0:0:0:0:
284,324,119212,1,0,0:0:0:0:
376,292,119444,1,8,1:1:0:0:
440,216,119677,1,0,0:0:0:0:
460,76,119909,6,0,P|424:32|340:24,1,140,4|8,0:0|1:1,0:0:0:0:
268,84,120607,1,0,0:0:0:0:
184,132,120839,2,0,P|140:148|40:148,1,140,8|8,0:0|1:1,0:0:0:0:
20,244,121537,1,0,0:0:0:0:
128,332,121770,6,0,P|168:356|196:364,1,70,8|0,0:0|0:0,0:0:0:0:
288,364,122235,2,0,P|320:352|350:333,1,70,8|0,1:1|0:0,0:0:0:0:
404,252,122700,1,8,0:0:0:0:
412,156,122933,1,0,0:0:0:0:
376,64,123165,1,8,1:1:0:0:
288,24,123398,1,0,0:0:0:0:
156,64,123630,6,0,P|124:76|68:80,1,70,8|0,0:0|0:0,0:0:0:0:
84,180,124095,2,0,P|116:192|172:196,1,70,8|0,1:1|0:0,0:0:0:0:
244,232,124560,2,0,L|204:308,1,70,8|0,0:0|0:0,0:0:0:0:
156,376,125026,1,8,1:1:0:0:
252,380,125258,1,0,0:0:0:0:
300,296,125491,6,0,L|320:256,3,35,2|2|2|2,1:1|1:1|1:1|1:1,0:0:0:0:
360,240,125956,2,0,L|380:200,3,35,2|2|2|2,1:1|1:1|1:1|1:1,0:0:0:0:
420,192,126421,2,0,L|440:152,3,35,2|2|2|2,1:1|1:1|1:1|1:1,0:0:0:0:
480,140,126886,2,0,L|500:100,3,35,2|2|2|2,1:1|1:1|1:1|1:1,0:0:0:0:
500,60,127351,6,0,P|464:44|412:44,1,70,4|0,0:0|0:0,0:0:0:0:
344,80,127816,2,0,L|300:136,1,70,8|0,1:1|0:0,0:0:0:0:
208,148,128281,2,0,L|164:204,1,70,8|0,0:0|0:0,0:0:0:0:
184,344,128746,6,0,P|224:364|260:352,1,70,8|0,1:1|0:0,0:0:0:0:
368,288,129212,6,0,L|420:220,1,70,8|0,0:0|0:0,0:0:0:0:
464,152,129677,2,0,P|432:108|424:76,1,70,8|0,1:1|0:0,0:0:0:0:
292,56,130142,6,0,P|256:84|256:124,1,70,8|0,0:0|0:0,0:0:0:0:
264,244,130607,2,0,P|253:276|223:294,1,70,8|0,1:1|0:0,0:0:0:0:
88,332,131072,5,8,0:0:0:0:
56,240,131305,1,0,0:0:0:0:
108,156,131537,2,0,P|148:204|152:228,1,70,8|0,1:1|0:0,0:0:0:0:
248,216,132002,2,0,L|240:128,1,70,8|0,0:0|0:0,0:0:0:0:
332,36,132467,6,0,P|368:40|400:64,1,70,8|0,1:1|0:0,0:0:0:0:
424,196,132933,5,8,0:0:0:0:
440,292,133165,1,0,0:0:0:0:
352,332,133398,1,8,1:1:0:0:
284,260,133630,2,0,P|268:208|292:120,1,140,0|0,0:0|0:0,0:0:0:0:
360,64,134328,1,8,1:1:0:0:
268,32,134560,1,0,0:0:0:0:
152,112,134793,6,0,L|112:188,1,70,4|0,0:0|0:0,0:0:0:0:
168,260,135258,2,0,L|128:336,1,70,8|0,1:1|0:0,0:0:0:0:
228,352,135723,1,8,0:0:0:0:
324,344,135956,1,0,0:0:0:0:
408,232,136188,6,0,P|404:184|380:152,1,70,8|0,1:1|0:0,0:0:0:0:
292,68,136653,6,0,L|196:48,1,70,8|0,0:0|0:0,0:0:0:0:
200,148,137119,2,0,L|268:162,1,70,8|0,1:1|0:0,0:0:0:0:
312,296,137584,6,0,P|288:328|244:348,1,70,8|0,0:0|0:0,0:0:0:0:
124,344,138049,2,0,P|94:325|74:296,1,70,8|0,1:1|0:0,0:0:0:0:
52,160,138514,5,8,0:0:0:0:
116,88,138746,1,0,0:0:0:0:
256,76,138979,6,0,L|320:120,1,70,8|0,1:1|0:0,0:0:0:0:
388,236,139444,5,8,0:0:0:0:
368,332,139677,1,0,0:0:0:0:
228,340,139909,6,0,P|172:336|128:348,1,70,8|0,1:1|0:0,0:0:0:0:
36,272,140374,6,0,L|24:220,3,35,2|2|2|2,1:1|1:1|1:1|1:1,0:0:0:0:
52,196,140839,2,0,L|40:144,3,35,2|2|2|2,1:1|1:1|1:1|1:1,0:0:0:0:
72,120,141305,2,0,L|60:68,3,35,2|2|2|2,1:1|1:1|1:1|1:1,0:0:0:0:
96,48,141770,2,0,L|84:-4,3,35,2|2|2|2,1:1|1:1|1:1|1:1,0:0:0:0:
136,24,142235,6,0,B|220:36|220:36|276:28,1,140,4|8,0:0|1:1,0:0:0:0:
352,196,143165,2,0,P|340:252|320:284,1,70,8|0,0:0|0:0,0:0:0:0:
240,288,143630,2,0,P|226:320|222:355,1,70,8|0,1:1|0:0,0:0:0:0:
128,328,144095,5,8,0:0:0:0:
92,236,144328,2,0,P|96:184|104:160,1,70,0|8,0:0|1:1,0:0:0:0:
168,96,144793,2,0,L|212:68,2,35,0|0|8,0:0|0:0|0:0,0:0:0:0:
196,188,145258,2,0,L|225:206,2,35,8|0|8,1:1|0:0|1:1,0:0:0:0:
101,167,145723,1,0,0:0:0:0:
24,48,145956,6,0,P|96:32|180:60,1,140,8|8,0:0|1:1,0:0:0:0:
124,324,146886,2,0,L|164:356,2,35,8|0|0,0:0|0:0|0:0,0:0:0:0:
172,248,147351,2,0,L|228:296,1,70,8|0,1:1|0:0,0:0:0:0:
300,356,147816,5,8,0:0:0:0:
380,300,148049,1,0,0:0:0:0:
388,204,148281,1,8,1:1:0:0:
348,116,148514,2,0,L|316:76,2,35,0|0|8,0:0|0:0|0:0,0:0:0:0:
308,204,148979,2,0,L|286:231,2,35,0|0|8,0:0|0:0|1:1,0:0:0:0:
348,116,149444,1,0,0:0:0:0:
484,76,149677,6,0,P|488:136|484:248,1,140,8|8,0:0|1:1,0:0:0:0:
336,340,150607,1,8,0:0:0:0:
240,316,150839,2,0,L|192:292,2,35,0|0|8,0:0|0:0|1:1,0:0:0:0:
336,340,151305,1,0,0:0:0:0:
336,200,151537,6,0,P|336:152|248:136,1,140,8|8,0:0|1:1,0:0:0:0:
44,308,152467,1,8,0:0:0:0:
104,232,152700,1,8,1:1:0:0:
64,144,152933,2,0,P|64:96|84:60,1,70,8|0,1:1|0:0,0:0:0:0:
168,64,153398,6,0,L|240:92,1,70,8|0,0:0|0:0,0:0:0:0:
328,120,153863,1,8,1:1:0:0:
392,44,154095,1,0,0:0:0:0:
444,128,154328,1,2,1:1:0:0:
428,224,154560,5,2,1:1:0:0:
428,236,154677,1,2,1:1:0:0:
428,248,154793,1,2,1:1:0:0:
364,324,155026,1,2,1:1:0:0:
268,308,155258,6,0,P|240:288|184:272,1,70,2|2,1:1|1:1,0:0:0:0:
84,312,155723,2,0,P|112:332|168:348,1,70,2|2,1:1|1:1,0:0:0:0:
132,248,156188,2,0,L|132:176,1,70,2|2,1:1|1:1,0:0:0:0:
136,80,156653,1,2,1:1:0:0:
232,72,156886,1,2,1:1:0:0:
260,168,157119,5,2,1:1:0:0:
120,104,164560,6,0,P|160:136|200:148,1,70,8|0,0:0|0:0,0:0:0:0:
300,140,165026,2,0,P|274:116|242:101,1,70,8|0,0:0|0:0,0:0:0:0:
232,200,165491,2,0,L|216:296,1,70,8|0,0:0|0:0,0:0:0:0:
204,364,165956,1,8,0:0:0:0:
300,364,166188,1,0,0:0:0:0:
384,252,166421,6,0,P|400:208|396:160,2,70,8|0|8,0:0|0:0|0:0,0:0:0:0:
292,288,167119,1,0,0:0:0:0:
240,208,167351,2,0,B|228:164|252:140|252:140|240:104|280:60,1,140,8|8,0:0|0:0,0:0:0:0:
360,52,168049,1,0,0:0:0:0:
440,108,168281,5,8,0:0:0:0:
448,204,168514,2,0,L|456:300,1,70,8|8,0:0|0:0,0:0:0:0:
380,340,168979,2,0,L|374:270,1,70,8|8,0:0|0:0,0:0:0:0:
352,176,169444,1,8,0:0:0:0:
256,156,169677,1,8,0:0:0:0:
256,192,169909,12,0,172002,0:0:0:0:
144,64,172933,6,0,L|176:100,1,35,2|2,3:3|3:3,0:0:0:0:
176,188,173281,2,0,L|152:214,1,35,2|2,3:3|3:3,0:0:0:0:
88,288,173630,1,2,3:3:0:0:
88,288,173746,1,2,3:3:0:0:
88,288,173863,6,0,P|144:328|168:328,1,70,4|0,0:0|0:0,0:0:0:0:
240,332,174328,2,0,L|312:288,1,70,0|0,0:0|0:0,0:0:0:0:
308,196,174793,2,0,L|236:152,1,70,0|0,0:0|0:0,0:0:0:0:
164,108,175258,1,0,0:0:0:0:
240,48,175491,1,0,0:0:0:0:
372,92,175723,6,0,P|404:120|440:136,1,70,0|0,0:0|0:0,0:0:0:0:
448,228,176188,2,0,L|396:304,1,70,0|0,0:0|0:0,0:0:0:0:
328,344,176653,2,0,L|288:360,1,35,2|2,3:3|3:3,0:0:0:0:
196,360,177002,2,0,L|163:347,1,35,2|2,3:3|3:3,0:0:0:0:
80,300,177351,1,2,1:1:0:0:
80,300,177467,1,2,1:1:0:0:
80,300,177584,6,0,P|76:248|88:216,1,70,4|0,0:0|0:0,0:0:0:0:
160,156,178049,2,0,P|166:190|160:224,1,70,8|0,1:1|0:0,0:0:0:0:
228,296,178514,1,8,0:0:0:0:
304,236,178746,1,0,0:0:0:0:
316,140,178979,1,8,1:1:0:0:
264,56,179212,6,0,P|216:36|196:20,1,70,0|8,0:0|0:0,0:0:0:0:
104,28,179677,2,0,P|74:47|41:58,1,70,0|8,0:0|1:1,0:0:0:0:
52,156,180142,2,0,L|128:212,1,70,0|8,0:0|0:0,0:0:0:0:
200,232,180607,1,0,0:0:0:0:
296,216,180839,1,8,1:1:0:0:
352,132,181072,1,0,0:0:0:0:
492,112,181305,6,0,L|492:212,1,70,4|0,0:0|0:0,0:0:0:0:
416,272,181770,2,0,L|416:202,1,70,8|0,1:1|0:0,0:0:0:0:
420,104,182235,2,0,P|392:68|360:60,1,70,8|0,0:0|0:0,0:0:0:0:
232,64,182700,2,0,P|260:100|292:108,1,70,8|0,1:1|0:0,0:0:0:0:
348,180,183165,5,8,0:0:0:0:
344,280,183398,1,0,0:0:0:0:
248,276,183630,1,8,1:1:0:0:
248,176,183863,1,0,0:0:0:0:
152,200,184095,2,0,P|96:172|88:144,1,70,8|8,0:0|1:1,0:0:0:0:
12,112,184560,2,0,L|12:196,1,70,8|0,1:1|0:0,0:0:0:0:
64,312,185026,5,4,0:0:0:0:
152,352,185258,1,0,0:0:0:0:
232,296,185491,1,8,1:1:0:0:
196,204,185723,2,0,P|200:160|208:128,1,70,0|8,0:0|0:0,0:0:0:0:
300,104,186188,2,0,P|296:60|288:28,1,70,0|8,0:0|1:1,0:0:0:0:
192,32,186653,1,0,0:0:0:0:
108,84,186886,6,0,L|76:120,3,35,2|2|2|2,1:1|1:1|1:1|1:1,0:0:0:0:
84,160,187351,2,0,L|52:196,3,35,2|2|2|2,1:1|1:1|1:1|1:1,0:0:0:0:
72,236,187816,2,0,L|40:272,3,35,2|2|2|2,1:1|1:1|1:1|1:1,0:0:0:0:
44,312,188281,2,0,L|12:348,3,35,2|2|2|2,1:1|1:1|1:1|1:1,0:0:0:0:
64,360,188746,6,0,B|100:368|100:368|152:360,1,70,4|0,0:0|0:0,0:0:0:0:
224,320,189212,2,0,L|272:248,1,70,8|0,1:1|0:0,0:0:0:0:
380,224,189677,2,0,L|341:282,1,70,8|0,0:0|0:0,0:0:0:0:
464,348,190142,6,0,P|484:308|472:260,1,70,8|0,1:1|0:0,0:0:0:0:
468,144,190607,5,8,0:0:0:0:
408,68,190839,1,0,0:0:0:0:
312,44,191072,2,0,P|260:40|228:52,1,70,8|0,1:1|0:0,0:0:0:0:
152,152,191537,6,0,L|120:228,1,70,8|0,0:0|0:0,0:0:0:0:
188,344,192002,2,0,L|215:279,1,70,8|0,1:1|0:0,0:0:0:0:
252,144,192467,6,0,P|304:160|328:192,1,70,8|0,0:0|0:0,0:0:0:0:
348,264,192933,1,8,1:1:0:0:
324,360,193165,1,0,0:0:0:0:
412,316,193398,2,0,P|428:276|420:232,1,70,8|0,0:0|0:0,0:0:0:0:
432,108,193863,6,0,P|396:108|360:124,1,70,8|0,1:1|0:0,0:0:0:0:
244,192,194328,5,8,0:0:0:0:
180,120,194560,1,0,0:0:0:0:
84,136,194793,1,8,1:1:0:0:
72,232,195026,2,0,L|68:328,1,70,0|8,0:0|0:0,0:0:0:0:
160,340,195491,1,0,0:0:0:0:
256,340,195723,2,0,P|320:344|348:352,1,70,8|0,1:1|0:0,0:0:0:0:
436,260,196188,6,0,P|440:208|428:164,1,70,4|0,0:0|0:0,0:0:0:0:
372,116,196653,1,8,1:1:0:0:
272,120,196886,1,0,0:0:0:0:
208,196,197119,2,0,P|180:168|176:128,1,70,8|0,0:0|0:0,0:0:0:0:
64,52,197584,6,0,L|36:136,1,70,8|0,1:1|0:0,0:0:0:0:
32,260,198049,5,8,0:0:0:0:
88,340,198281,1,0,0:0:0:0:
184,328,198514,1,8,1:1:0:0:
240,248,198746,1,0,0:0:0:0:
220,108,198979,6,0,P|264:80|304:76,1,70,8|0,0:0|0:0,0:0:0:0:
416,116,199444,2,0,P|372:144|332:148,1,70,8|0,1:1|0:0,0:0:0:0:
316,284,199909,6,0,L|352:348,1,70,8|0,0:0|0:0,0:0:0:0:
212,368,200374,6,0,L|180:300,1,70,8|0,1:1|0:0,0:0:0:0:
136,172,200839,5,8,0:0:0:0:
188,88,201072,1,0,0:0:0:0:
328,88,201305,6,0,P|372:92|428:80,1,70,8|0,1:1|0:0,0:0:0:0:
464,152,201770,6,0,L|480:204,3,35,2|2|2|2,1:1|1:1|1:1|1:1,0:0:0:0:
444,220,202235,2,0,L|460:272,3,35,2|2|2|2,1:1|1:1|1:1|1:1,0:0:0:0:
424,288,202700,2,0,L|440:340,3,35,2|2|2|2,1:1|1:1|1:1|1:1,0:0:0:0:
396,348,203165,2,0,L|412:400,3,35,2|2|2|2,1:1|1:1|1:1|1:1,0:0:0:0:
256,192,203630,12,0,205026,0:0:0:0:
104,52,205491,6,0,P|136:88|240:88,1,140,2|0,0:0|0:0,0:0:0:0:
320,88,206188,2,0,L|384:288,1,210,0|0,0:0|0:0,0:0:0:0:
196,344,207351,6,0,B|156:332|156:332|56:328,1,140,2|0,0:0|0:0,0:0:0:0:
44,232,208049,2,0,P|56:184|24:12,1,210
228,32,209212,6,0,L|268:180,1,140,2|0,0:0|0:0,0:0:0:0:
284,264,209909,1,2,0:0:0:0:
