osu file format v14

[General]
AudioFilename: BoA+-+lookbook.mp3
AudioLeadIn: 0
PreviewTime: 51212
Countdown: 0
SampleSet: Soft
StackLeniency: 0.7
Mode: 0
LetterboxInBreaks: 0
WidescreenStoryboard: 1

[Editor]
Bookmarks: 21927,33355
DistanceSpacing: 1.7
BeatDivisor: 6
GridSize: 4
TimelineZoom: 1.9

[Metadata]
Title:Lookbook
TitleUnicode:Lookbook
Artist:BoA
ArtistUnicode:BoA
Creator:Irreversible
Version:HIGH QUALITY
Source:
Tags:Gero Mao Nekomata come on and follow me now everytime we checking this out yeah 권보아 보아 kiss my lips beat of angel ショートVer. avex group ルックブック
BeatmapID:833967
BeatmapSetID:379890

[Difficulty]
HPDrainRate:7
CircleSize:4.2
OverallDifficulty:8
ApproachRate:8.8
SliderMultiplier:1.92
SliderTickRate:1

[Events]
//Background and Video events
0,0,"Anime-desktop-background.jpg",0,0
Video,0,"lookbook_mv.avi"
//Break Periods
//Storyboard Layer 0 (Background)
//Storyboard Layer 1 (Fail)
//Storyboard Layer 2 (Pass)
//Storyboard Layer 3 (Foreground)
//Storyboard Sound Samples

[TimingPoints]
11451,476.190476190476,4,2,2,60,1,0
34308,-133.333333333333,4,2,1,60,0,0
40379,-133.333333333333,4,2,1,5,0,0
40498,-133.333333333333,4,2,1,60,0,0
40855,-133.333333333333,4,2,1,5,0,0
40974,-133.333333333333,4,2,1,60,0,0
41331,-133.333333333333,4,2,1,5,0,0
41450,-133.333333333333,4,2,1,60,0,0
43831,-133.333333333333,4,2,1,70,0,0
45260,-66.6666666666667,4,2,1,70,0,0
45736,-66.6666666666667,4,2,1,60,0,1
51450,-133.333333333333,4,2,1,60,0,1
51808,-100,4,2,1,60,0,1
52165,-76.9230769230769,4,2,1,60,0,1
52522,-66.6666666666667,4,2,1,60,0,1
52879,-50,4,2,1,60,0,1
53355,-66.6666666666667,4,2,1,60,0,1
59069,-133.333333333333,4,2,1,60,0,1
59427,-100,4,2,1,60,0,1
59784,-80,4,2,1,60,0,1
60141,-66.6666666666667,4,2,1,60,0,1
60498,-50,4,2,1,60,0,1
60974,-133.333333333333,4,2,1,50,0,0
68593,-66.6666666666667,4,2,1,70,0,1
74308,-100,4,2,1,70,0,0
75022,-71.4285714285714,4,2,1,60,0,0
75379,-71.4285714285714,4,2,1,60,0,0
75736,-58.8235294117647,4,2,1,60,0,0
75974,-58.8235294117647,4,2,1,5,0,0
76450,-133.333333333333,4,2,1,40,0,0
77403,-100,4,2,1,40,0,0
77760,-100,4,2,1,5,0,0
77879,-100,4,2,1,40,0,0
78236,-100,4,2,1,5,0,0
78355,-133.333333333333,4,2,1,40,0,0
79308,-100,4,2,1,40,0,0
79903,-100,4,2,1,5,0,0
80022,-200,4,2,1,40,0,0
83355,-50,4,2,1,40,0,0
83831,-66.6666666666667,4,2,1,60,0,1
88593,-35,4,2,1,80,0,1
88950,-50,4,2,1,80,0,1
89308,-66.6666666666667,4,2,1,60,0,1
91331,-76.9230769230769,4,2,2,60,0,0
94665,-76.9230769230769,4,2,1,60,0,0
95260,-133.333333333333,4,2,2,60,0,0
98117,-133.333333333333,4,2,1,35,0,0
99070,-133.333333333333,4,2,1,60,0,1
100974,-133.333333333333,4,2,1,60,0,0
105141,-133.333333333333,4,2,1,5,0,0
105260,-133.333333333333,4,2,1,60,0,0
105617,-133.333333333333,4,2,1,5,0,0
105736,-133.333333333333,4,2,1,60,0,0
108593,-133.333333333333,4,2,1,60,0,0
110022,-66.6666666666667,4,2,1,60,0,0
110498,-66.6666666666667,4,2,1,60,0,1
116212,-133.333333333333,4,2,1,60,0,1
116570,-100,4,2,1,60,0,1
116927,-76.9230769230769,4,2,1,60,0,1
117284,-66.6666666666667,4,2,1,60,0,1
117641,-50,4,2,1,60,0,1
118117,-66.6666666666667,4,2,1,60,0,1
123831,-100,4,2,1,60,0,1
124546,-80,4,2,1,60,0,1
124903,-66.6666666666667,4,2,1,60,0,1
125260,-50,4,2,1,60,0,1
125736,-133.333333333333,4,2,1,40,0,0
140974,-100,4,2,2,60,0,0
147641,-100,4,2,1,60,0,0
148593,-100,4,2,2,60,0,0
155736,-100,4,2,2,45,0,0

[Colours]
Combo1 : 102,102,255
Combo2 : 196,136,255
Combo3 : 255,168,255
Combo4 : 255,106,181

[HitObjects]
68,308,10736,5,0,0:0:0:0:
68,308,10855,1,4,0:3:0:0:
68,308,10974,1,8,0:2:0:0:
172,332,11212,1,0,3:2:0:0:
304,196,11450,6,0,P|320:148|308:104,1,96,4|0,0:0|0:0,0:0:0:0:
224,52,11927,2,0,L|116:60,1,96,8|0,0:0|0:0,0:0:0:0:
68,136,12403,2,0,B|100:176|100:176|64:320,1,192,2|8,0:0|0:0,0:0:0:0:
144,372,13117,1,0,0:0:0:0:
260,272,13355,6,0,B|339:226|340:320|460:288|400:228|376:256,1,192,2|8,0:0|0:0,0:0:0:0:
300,336,14070,1,0,0:0:0:0:
164,192,14308,1,2,0:0:0:0:
164,192,14427,1,0,0:0:0:0:
164,192,14546,1,0,0:0:0:0:
40,320,14784,2,0,L|148:308,1,96,8|0,0:0|0:0,0:0:0:0:
300,336,15260,5,2,0:0:0:0:
164,192,15498,1,0,0:0:0:0:
377,254,15736,1,8,0:0:0:0:
241,110,15974,1,0,0:0:0:0:
471,181,16212,6,0,P|462:266|371:245,1,192,4|8,3:0|0:0,0:0:0:0:
368,120,16927,1,0,1:0:0:0:
292,296,17165,2,0,B|188:308|188:308|236:276,1,144,4|2,3:0|0:3,0:0:0:0:
220,286,17641,2,0,L|164:382,1,96,8|2,0:0|0:3,0:0:0:0:
40,296,18117,5,4,0:0:0:0:
52,272,18236,1,2,3:0:0:0:
52,272,18355,2,0,L|44:220,1,48,8|0,3:0|0:0,0:0:0:0:
0,156,18593,2,0,L|7:108,2,48,2|0|2,3:0|0:0|3:0,0:0:0:0:
76,52,18951,2,4,P|176:24|176:128,1,240,4|8,3:0|0:0,3:0:0:0:
324,344,19784,5,2,0:0:0:0:
472,296,20022,1,4,0:0:0:0:
460,272,20141,5,2,3:0:0:0:
460,272,20260,2,0,L|468:220,1,48,8|0,3:0|0:0,0:0:0:0:
512,156,20498,2,0,L|504:108,2,48,2|0|2,3:0|0:0|3:0,0:0:0:0:
436,52,20855,2,0,P|336:24|336:128,1,240,4|8,3:0|0:0,0:0:0:0:
188,344,21689,5,2,0:0:0:0:
12,312,21927,1,4,3:0:0:0:
112,137,22165,5,2,3:0:0:0:
112,137,22284,1,0,0:0:0:0:
111,137,22403,2,0,P|103:183|130:220,1,96,8|4,2:0|3:0,0:0:0:0:
256,40,22879,5,4,0:0:0:0:
340,48,23117,1,0,0:0:0:0:
396,192,23355,5,8,0:0:0:0:
312,184,23593,1,0,0:0:0:0:
172,32,23831,5,2,0:0:0:0:
256,40,24069,1,0,0:0:0:0:
312,184,24307,5,8,0:0:0:0:
228,176,24545,1,0,0:0:0:0:
328,324,24784,6,0,B|464:312|464:312|412:340,1,192,2|8,0:0|0:0,0:0:0:0:
328,324,25498,1,0,0:0:0:0:
192,232,25736,2,0,P|182:208|186:182,1,48,2|0,0:0|0:0,0:0:0:0:
280,116,25974,2,0,P|289:140|286:166,1,48
184,186,26212,2,0,P|174:162|178:136,1,48,10|0,0:0|0:0,0:0:0:0:
272,70,26451,2,0,P|281:94|278:120,1,48,2|0,0:0|0:0,0:0:0:0:
184,186,26689,6,0,P|104:162|16:182,1,144,4|0,0:0|0:0,0:0:0:0:
184,186,27165,2,0,P|160:128|168:88,1,96,8|0,0:0|0:0,0:0:0:0:
328,186,27641,6,0,P|408:162|496:182,1,144,2|0,0:0|0:0,0:0:0:0:
328,186,28117,2,0,P|352:128|344:88,1,96,8|0,0:0|0:0,0:0:0:0:
291,257,28593,6,0,B|261:243|251:209|251:209|187:253|187:333,1,192,4|8,3:0|0:0,0:0:0:0:
328,186,29308,2,0,P|320:128|244:104,1,144,8|0,3:0|0:0,0:0:0:0:
152,156,29784,6,0,L|100:160,1,48,8|0,3:0|0:0,0:0:0:0:
48,84,30022,2,0,L|100:80,1,48,2|0,3:0|0:0,0:0:0:0:
152,156,30260,1,2,3:0:0:0:
152,156,30379,2,0,P|152:224|12:224,1,240,4|8,3:0|0:0,0:0:0:0:
84,192,31212,5,2,0:0:0:0:
340,136,31450,1,4,0:0:0:0:
360,156,31570,5,2,3:0:0:0:
360,156,31689,2,0,L|412:160,1,48,8|0,3:0|0:0,0:0:0:0:
464,84,31927,2,0,L|412:80,1,48,2|0,3:0|0:0,0:0:0:0:
360,156,32165,1,2,3:0:0:0:
360,156,32284,2,0,P|360:224|500:224,1,240,4|8,3:0|0:0,0:0:0:0:
432,192,33117,5,0,0:0:0:0:
92,284,33355,2,0,L|240:272,1,144,4|2,3:0|3:0,0:0:0:0:
256,284,33831,2,0,L|247:178,1,96,8|4,0:0|3:0,0:0:0:0:
346,77,34308,6,0,P|386:77|414:101,1,72.0000027465821,4|0,0:0|0:0,0:0:0:0:
424,168,34665,2,0,P|384:168|356:144,1,72.0000027465821,2|0,0:3|0:0,0:0:0:0:
410,95,35022,1,2,0:0:0:0:
310,327,35260,6,0,P|290:362|255:374,1,72.0000027465821,2|0,0:3|0:0,0:0:0:0:
192,349,35617,2,0,P|212:314|247:302,1,72.0000027465821,2|0,0:3|0:0,0:0:0:0:
261,373,35974,1,2,0:0:0:0:
111,171,36212,6,0,P|91:136|98:100,1,72.0000027465821,2|0,0:3|0:0,0:0:0:0:
151,58,36570,2,0,P|171:93|164:129,1,72.0000027465821,2|0,0:3|0:0,0:0:0:0:
94,107,36927,1,2,0:0:0:0:
272,216,37165,6,0,L|411:211,1,108.000004119873,8|8,3:0|3:2,0:0:0:0:
400,208,37641,2,0,P|380:248|396:304,1,72.0000027465821,8|8,0:0|0:0,0:0:0:0:
328,128,38117,6,0,L|234:131,1,72.0000027465821,4|0,0:0|0:0,0:0:0:0:
184,128,38474,2,0,L|278:131,1,72.0000027465821,2|0,0:3|0:0,0:0:0:0:
256,48,38831,1,2,0:0:0:0:
32,192,39070,6,0,P|24:240|48:272,1,72.0000027465821,2|0,0:3|0:0,0:0:0:0:
116,310,39427,2,0,P|84:266|8:270,1,108.000004119873,2|2,0:3|0:0,0:0:0:0:
395,310,40022,6,0,P|426:266|478:258,1,108.000004119873,2|0,3:0|0:0,0:0:0:0:
467,328,40498,2,0,L|327:320,1,108.000004119873,8|0,0:0|0:0,0:0:0:0:
280,352,40974,2,0,L|140:360,1,108.000004119873,2|0,3:0|0:0,0:0:0:0:
96,340,41451,1,8,0:0:0:0:
256,160,41689,5,4,0:1:0:0:
256,192,41808,12,8,43355,0:0:0:0:
52,292,43831,6,2,L|4:288,7,36.0000013732911
132,280,44784,6,0,P|122:334|63:368,1,108.000004119873,2|0,0:1|0:0,0:0:0:0:
52,292,45260,6,0,L|44:208,1,72.0000027465821,8|0,0:3|0:0,0:0:0:0:
256,152,45498,2,0,L|248:68,1,72.0000027465821,8|0,0:3|0:0,0:0:0:0:
132,280,45736,6,0,P|200:312|285:278,1,144.000005493164,4|2,1:0|0:0,0:0:0:0:
345,330,46093,1,2,0:0:0:0:
409,266,46212,2,0,L|397:114,1,144.000005493164,8|0,1:2|0:0,0:0:0:0:
235,58,46689,5,0,1:0:0:0:
41,190,46927,1,2,0:0:0:0:
211,222,47165,1,8,1:2:0:0:
66,26,47403,1,2,0:1:0:0:
119,247,47641,5,4,1:0:0:0:
340,152,47879,2,0,P|416:175|427:193,1,72.0000027465821,2|2,0:0|0:0,0:0:0:0:
426,250,48117,2,0,P|349:226|338:208,1,72.0000027465821,8|0,1:2|0:0,0:0:0:0:
432,160,48355,2,0,P|508:183|519:201,1,72.0000027465821,2|0,0:0|0:0,0:0:0:0:
492,296,48593,5,0,1:2:0:0:
464,40,48831,1,2,0:0:0:0:
368,312,49070,1,8,1:2:0:0:
340,56,49308,1,2,0:1:0:0:
148,232,49546,6,0,P|220:236|320:272,1,144.000005493164,4|2,1:0|0:0,0:0:0:0:
260,340,49903,1,2,0:0:0:0:
168,328,50022,2,0,P|96:332|-4:368,1,144.000005493164,8|0,1:2|0:0,0:0:0:0:
52,96,50498,5,0,1:0:0:0:
27,352,50736,1,2,0:0:0:0:
192,72,50974,1,8,1:2:0:0:
167,328,51212,1,2,0:1:0:0:
388,264,51451,6,0,P|425:265|460:280,1,72.0000027465821,4|0,1:2|0:0,0:0:0:0:
339,190,51808,6,0,P|384:174|434:177,1,96,4|0,1:2|0:0,0:0:0:0:
272,132,52165,6,0,P|319:93|380:75,1,124.79999428711,4|0,1:2|0:0,0:0:0:0:
184,103,52522,6,0,P|221:42|279:-1,1,144.000005493164,4|0,1:2|0:0,0:0:0:0:
140,192,52879,6,2,P|72:228|28:144,1,192,6|0,1:0|0:0,0:0:0:0:
344,356,53355,6,0,P|352:325|451:322,1,144.000005493164,4|2,1:0|0:0,0:0:0:0:
496,244,53712,1,2,0:0:0:0:
452,164,53831,2,0,L|472:16,1,144.000005493164,8|0,1:2|0:0,0:0:0:0:
271,165,54308,5,0,1:0:0:0:
102,66,54546,1,2,0:0:0:0:
336,116,54784,1,8,1:2:0:0:
35,113,55022,1,2,0:1:0:0:
256,344,55260,5,4,1:0:0:0:
136,71,55498,1,2,0:0:0:0:
136,71,55617,1,2,0:0:0:0:
135,71,55736,2,0,P|67:57|16:104,1,144.000005493164,8|2,1:2|0:0,0:0:0:0:
376,71,56212,6,0,P|444:57|496:104,1,144.000005493164,0|2,1:0|0:0,0:0:0:0:
312,192,56689,1,8,1:2:0:0:
116,80,56927,1,8,0:0:0:0:
118,306,57165,5,4,1:0:0:0:
312,192,57403,2,0,P|385:248|413:310,2,144.000005493164,2|8|2,0:0|1:2|0:0,0:0:0:0:
118,306,58117,5,0,1:0:0:0:
142,54,58355,1,2,0:0:0:0:
394,78,58593,1,8,1:2:0:0:
370,330,58831,1,2,0:1:0:0:
184,188,59070,6,0,L|267:182,1,72.0000027465821,4|0,1:2|0:0,0:0:0:0:
360,216,59427,6,0,L|230:225,1,96,4|0,0:0|0:0,0:0:0:0:
132,304,59784,6,0,L|251:295,1,120,4|0,1:2|0:0,0:0:0:0:
424,360,60141,6,0,L|265:371,1,144.000005493164,4|0,0:0|0:0,0:0:0:0:
72,192,60498,6,0,B|108:44|108:44|120:96,1,192,6|0,1:0|0:0,0:0:0:0:
224,329,60974,6,0,P|280:305|388:329,1,144.000005493164,4|0,1:0|0:0,0:0:0:0:
360,313,61689,1,4,3:0:0:0:
360,313,61927,2,0,P|402:255|467:226,1,144.000005493164,4|0,1:2|0:0,0:0:0:0:
272,40,62879,6,0,L|256:164,2,108.000004119873,4|0|4,1:0|1:0|3:0,0:0:0:0:
180,192,63831,2,0,P|137:134|72:105,1,144.000005493164,4|2,1:2|0:0,0:0:0:0:
256,260,64546,2,0,P|315:220|386:215,1,144.000005493164,4|2,0:0|0:1,0:0:0:0:
386,215,65260,6,0,P|350:243|322:223,1,72.0000027465821,0|2,0:0|0:1,0:0:0:0:
210,67,65736,2,0,P|253:85|249:119,1,72.0000027465821,4|0,1:2|0:0,0:0:0:0:
171,293,66212,2,0,P|164:247|196:233,1,72.0000027465821,4|0,0:3|0:0,0:0:0:0:
180,234,66570,1,4,0:3:0:0:
180,234,66689,1,0,0:0:0:0:
329,148,66927,6,0,P|352:123|340:90,1,72.0000027465821,4|4,1:2|0:3,0:0:0:0:
255,278,67403,2,0,P|266:311|300:316,1,72.0000027465821,4|4,1:2|0:3,0:0:0:0:
112,228,67879,5,0,1:0:0:0:
115,155,67998,5,2,0:0:0:0:
47,131,68117,5,4,1:0:0:0:
3,188,68236,5,2,0:0:0:0:
43,248,68355,5,0,1:0:0:0:
280,300,68593,6,0,P|364:272|468:280,1,144.000005493164,4|2,1:0|0:0,0:0:0:0:
492,224,68951,1,2,0:0:0:0:
428,160,69070,2,0,P|344:132|240:140,1,144.000005493164,8|0,1:2|0:0,0:0:0:0:
144,344,69546,5,0,1:0:0:0:
112,96,69784,1,2,0:0:0:0:
144,344,70022,1,8,1:2:0:0:
112,96,70260,1,2,0:1:0:0:
8,256,70498,5,4,1:0:0:0:
240,164,70736,1,2,0:0:0:0:
320,184,70855,1,2,0:0:0:0:
392,144,70974,2,0,P|428:80|416:8,1,144.000005493164,8|2,1:2|0:0,0:0:0:0:
140,111,71451,5,0,1:2:0:0:
259,67,71689,1,2,0:0:0:0:
148,304,71927,1,8,1:2:0:0:
28,260,72165,1,2,0:1:0:0:
108,32,72403,5,4,1:0:0:0:
228,316,72641,1,2,0:0:0:0:
304,348,72760,1,2,0:0:0:0:
384,336,72879,2,0,B|500:320|500:320|460:304,1,144.000005493164,8|0,1:2|0:0,0:0:0:0:
352,144,73355,2,0,B|468:160|468:160|444:170,1,144.000005493164,0|2,1:0|0:0,0:0:0:0:
256,32,73831,2,0,L|112:39,1,144.000005493164,8|2,1:2|0:1,0:0:0:0:
84,300,74308,6,0,L|136:296,1,48,4|0,1:2|0:0,0:0:0:0:
224,224,74546,1,0,0:0:0:0:
216,336,74665,2,0,L|237:237,1,96,4|0,0:2|0:0,0:0:0:0:
224,146,75022,6,0,B|203:247|203:247|229:218,1,134.399995898438,4|0,1:2|0:0,0:0:0:0:
301,122,75379,2,0,P|256:68|193:70,1,134.399995898438,4|0,0:0|0:0,0:0:0:0:
324,200,75736,6,0,B|352:196|364:180|364:180|384:176|408:192|408:192|443:158|500:176,1,163.200003112793,6|0,1:0|0:0,0:0:0:0:
464,244,76451,6,0,L|456:292,1,36.0000013732911,2|0,0:0|0:0,0:0:0:0:
261,320,76808,2,0,L|256:356,1,36.0000013732911,2|0,0:0|0:0,0:0:0:0:
261,320,77403,6,0,P|181:336|133:280,1,144,2|0,0:1|0:0,0:0:0:0:
125,212,77879,2,0,P|205:196|253:252,1,144,2|0,0:1|0:0,0:0:0:0:
384,192,78355,6,0,L|376:240,1,36.0000013732911,2|0,0:0|0:0,0:0:0:0:
261,320,78712,2,0,L|255:355,1,36.0000013732911,2|0,0:0|0:0,0:0:0:0:
261,320,79308,6,0,P|181:336|133:280,1,144,2|0,0:1|0:0,0:0:0:0:
208,264,79784,2,0,L|217:213,1,48,2|2,0:1|0:0,0:0:0:0:
370,132,80022,6,0,B|406:132|406:132|406:72,1,96,8|2,3:0|0:0,0:0:0:0:
142,252,81927,6,0,B|106:252|106:252|106:312,1,96,8|2,3:0|0:0,0:0:0:0:
142,252,83355,6,4,P|150:176|174:236,1,192,4|0,1:0|0:0,0:0:0:0:
272,320,83712,1,0,0:0:0:0:
392,272,83831,6,0,L|412:120,1,144.000005493164,4|4,0:0|0:3,0:0:0:0:
308,144,84189,2,0,B|324:178|324:178|341:72,1,144.000005493164,8|4,0:0|0:3,0:0:0:0:
155,106,84546,2,0,P|189:95|224:104,1,72.0000027465821,10|0,0:0|0:0,0:0:0:0:
144,308,84784,6,0,B|200:156,1,144.000005493164,4|4,0:3|0:3,0:0:0:0:
279,258,85141,2,0,B|143:307,1,144.000005493164,8|4,0:0|0:3,0:0:0:0:
336,360,85498,1,10,0:2:0:0:
378,343,85617,1,2,0:2:0:0:
418,326,85736,6,0,L|503:293,2,72.0000027465821,4|0|4,0:3|0:0|0:3,0:0:0:0:
279,258,86093,2,2,P|292:184|340:200,1,144.000005493164,8|4,0:0|0:3,0:0:0:0:
375,127,86451,2,0,P|341:108|283:109,1,72.0000027465821,10|0,0:0|0:0,0:0:0:0:
135,270,86689,6,0,L|304:255,1,144.000005493164,4|4,0:3|0:3,0:0:0:0:
167,183,87046,2,0,L|24:196,1,144.000005493164,8|4,0:0|0:3,0:0:0:0:
184,32,87403,1,10,0:2:0:0:
256,67,87522,1,2,0:2:0:0:
336,51,87641,6,0,B|383:34|428:47|428:47|395:70|396:107,1,144.000005493164,4|0,0:0|1:0,0:0:0:0:
472,116,87998,2,0,P|488:192|436:232,1,144.000005493164,10|4,0:0|3:0,0:0:0:0:
276,316,88355,6,0,P|241:302|164:312,1,72.0000027465821,8|0,0:0|0:0,0:0:0:0:
112,354,88593,6,0,P|88:264|208:300,1,274.285714285714,4|0,0:0|1:0,0:0:0:0:
112,354,88950,6,0,B|100:148,1,192,8|4,0:0|3:0,0:0:0:0:
240,88,89308,5,8,0:0:0:0:
308,128,89427,1,2,0:0:0:0:
388,116,89546,1,4,0:3:0:0:
400,104,89665,2,0,L|392:16,1,72.0000027465821,8|0,0:0|0:0,0:0:0:0:
460,160,89903,6,0,B|434:184|434:184|414:290,1,144.000005493164,8|4,0:0|0:3,0:0:0:0:
356,352,90260,2,0,P|288:364|255:344,1,72.0000027465821,8|4,0:0|0:3,0:0:0:0:
152,232,90498,2,0,P|160:172|224:208,1,144.000005493164,4|2,0:0|3:0,0:0:0:0:
104,296,90855,1,4,3:0:0:0:
104,296,90974,6,0,P|72:264|68:216,2,72.0000027465821,4|2|0,3:2|3:0|3:0,0:0:0:0:
176,248,91331,1,4,3:0:0:0:
164,168,91450,6,0,B|156:137|156:137|140:231,1,124.79999428711,4|0,0:1|0:0,0:0:0:0:
256,336,91927,1,8,0:0:0:0:
508,192,92165,5,2,0:0:0:0:
464,40,92403,1,4,3:0:0:0:
443,57,92522,5,2,3:0:0:0:
443,57,92641,2,0,P|412:44|355:65,1,62.3999971435548,8|0,3:0|0:0,0:0:0:0:
320,104,92879,2,0,P|290:111|260:104,2,62.3999971435548,2|0|2,3:0|0:0|3:0,0:0:0:0:
184,56,93236,6,0,B|157:14|157:14|189:185,1,187.199991430664,4|4,3:0|3:0,0:0:0:0:
88,296,93831,1,8,0:0:0:0:
328,360,94070,5,2,0:0:0:0:
308,276,94308,1,4,3:0:0:0:
328,360,94546,1,0,0:0:0:0:
328,360,94665,5,2,3:0:0:0:
328,360,94784,1,8,0:0:0:0:
440,192,95022,1,4,3:0:0:0:
256,32,95260,6,0,L|244:120,1,72.0000027465821,2|0,0:0|0:0,0:0:0:0:
256,352,95736,2,0,L|268:264,1,72.0000027465821,8|0,0:0|0:0,0:0:0:0:
256,32,96212,1,2,0:0:0:0:
256,352,96689,2,0,L|268:264,1,72.0000027465821,8|0,0:0|0:0,0:0:0:0:
256,32,97165,5,2,0:0:0:0:
256,32,97641,1,8,0:0:0:0:
265,280,97879,1,2,0:0:0:0:
388,224,98117,6,0,P|348:192|320:192,1,72.0000027465821,4|0,0:0|0:0,0:0:0:0:
162,290,98593,2,0,P|210:271|224:247,1,72.0000027465821,4|0,0:0|0:0,0:0:0:0:
217,61,99070,6,0,P|209:112|223:136,1,72.0000027465821,4|0,0:0|0:0,0:0:0:0:
218,129,99427,2,0,P|170:148|156:172,1,72.0000027465821,2|0,0:3|0:0,0:0:0:0:
220,255,99784,1,10,0:0:0:0:
380,84,100022,2,0,L|356:192,2,108.000004119873,2|2|10,0:3|0:3|0:0,0:0:0:0:
412,243,100974,6,0,P|352:267|328:259,1,72.0000027465821,2|0,0:3|0:0,0:0:0:0:
356,189,101331,2,0,P|416:165|440:173,1,72.0000027465821,2|0,0:3|0:0,0:0:0:0:
484,212,101689,1,10,0:0:0:0:
224,152,101927,6,0,L|104:160,1,108.000004119873,4|8,3:0|3:2,0:0:0:0:
104,176,102403,2,0,L|99:104,1,72.0000027465821,8|8,0:0|3:2,0:0:0:0:
188,311,102879,6,0,P|228:311|256:295,1,72.0000027465821,6|0,0:0|0:0,0:0:0:0:
255,295,103236,2,0,P|287:312|323:311,1,72.0000027465821,2|0,0:3|0:0,0:0:0:0:
388,268,103593,1,10,0:0:0:0:
336,144,103831,2,0,L|352:32,2,108.000004119873,2|2|10,0:3|0:3|0:0,0:0:0:0:
336,144,104784,6,0,P|304:127|240:152,1,108.000004119873,2|0,3:0|0:3,0:0:0:0:
168,192,105260,2,0,P|139:214|64:202,1,108.000004119873,8|0,0:0|0:3,0:0:0:0:
112,148,105736,2,0,L|104:68,2,72.0000027465821,2|0|8,3:0|3:0|0:0,0:0:0:0:
256,256,106450,5,4,0:1:0:0:
256,192,106570,12,8,108117,0:0:0:0:
80,228,108593,6,2,L|83:192,3,36.0000013732911
175,267,109070,2,2,L|180:215,3,36.0000013732911
355,85,109546,6,0,P|303:76|256:100,1,108.000004119873,2|0,0:1|0:0,0:0:0:0:
368,100,110022,6,0,L|360:172,1,72.0000027465821,8|0,3:0|0:0,0:0:0:0:
484,32,110260,2,0,L|495:103,1,72.0000027465821,8|0,3:0|0:0,0:0:0:0:
456,304,110498,6,0,P|419:343|336:332,1,144.000005493164,4|2,1:0|0:0,0:0:0:0:
252,360,110855,1,2,0:0:0:0:
176,308,110974,2,0,L|28:320,1,144.000005493164,8|0,1:2|0:0,0:0:0:0:
105,22,111451,5,0,1:0:0:0:
245,228,111689,1,2,0:0:0:0:
278,48,111927,1,8,1:2:0:0:
71,201,112165,1,2,0:1:0:0:
320,144,112403,5,4,1:0:0:0:
284,324,112641,2,0,P|248:260|256:224,1,72.0000027465821,2|2,0:0|0:0,0:0:0:0:
336,152,112879,2,0,P|372:216|364:252,1,72.0000027465821,8|0,1:2|0:0,0:0:0:0:
248,264,113117,2,0,P|212:200|220:164,1,72.0000027465821,2|0,0:0|0:0,0:0:0:0:
300,92,113355,6,0,P|336:156|272:196,1,144.000005493164,0|2,1:2|0:0,0:0:0:0:
64,32,113831,2,0,L|208:40,1,144.000005493164,8|2,1:2|0:1,0:0:0:0:
435,188,114308,6,0,L|291:196,1,144.000005493164,4|2,1:0|0:0,0:0:0:0:
190,321,114665,1,2,0:0:0:0:
120,288,114784,2,0,P|184:244|256:284,1,144.000005493164,8|0,1:2|0:0,0:0:0:0:
259,64,115260,5,0,1:0:0:0:
190,321,115498,1,2,0:0:0:0:
407,224,115736,1,8,1:2:0:0:
136,104,115974,1,2,0:1:0:0:
407,224,116212,6,0,L|392:308,1,72.0000027465821,4|0,1:2|0:0,0:0:0:0:
296,336,116570,6,0,L|317:235,1,96,4|0,1:2|0:0,0:0:0:0:
232,164,116927,6,0,L|204:286,1,124.79999428711,4|0,1:2|0:0,0:0:0:0:
52,352,117284,6,0,L|91:210,1,144.000005493164,4|0,1:2|0:0,0:0:0:0:
68,32,117641,6,0,P|92:100|60:36,1,192,6|0,1:0|0:0,0:0:0:0:
284,240,118117,6,0,P|320:180|400:184,1,144.000005493164,4|2,1:0|0:0,0:0:0:0:
472,312,118474,1,2,0:0:0:0:
404,368,118593,2,0,L|236:352,1,144.000005493164,8|0,1:2|0:0,0:0:0:0:
114,276,119070,5,0,1:0:0:0:
273,42,119308,1,2,0:0:0:0:
310,246,119546,1,8,1:2:0:0:
76,73,119784,1,2,0:1:0:0:
220,296,120022,5,4,1:0:0:0:
356,108,120260,1,2,0:0:0:0:
356,108,120379,1,2,0:0:0:0:
356,108,120498,2,0,P|432:100|504:156,1,144.000005493164,8|2,1:2|0:0,0:0:0:0:
256,248,120974,5,0,1:2:0:0:
256,28,121212,1,2,0:0:0:0:
156,276,121451,2,0,P|80:284|8:228,1,144.000005493164,8|10,1:2|0:0,0:0:0:0:
291,104,121927,6,0,B|148:116,1,144.000005493164,4|2,1:0|0:0,0:0:0:0:
288,184,122284,1,2,0:0:0:0:
216,140,122403,2,0,P|224:60|310:32,1,144.000005493164,8|0,1:2|0:0,0:0:0:0:
480,180,122879,5,0,1:0:0:0:
288,184,123117,1,2,0:0:0:0:
364,24,123355,1,8,1:2:0:0:
324,376,123593,1,2,0:1:0:0:
224,228,123831,6,0,L|172:224,1,48,4|0,1:2|0:0,0:0:0:0:
84,152,124070,1,0,0:0:0:0:
92,264,124189,2,0,L|71:165,1,96,4|0,0:2|0:0,0:0:0:0:
144,56,124546,6,0,P|200:44|256:80,1,120,4|0,1:2|0:0,0:0:0:0:
328,176,124903,6,0,P|395:193|457:159,1,144.000005493164,4|0,0:0|0:0,0:0:0:0:
321,296,125260,6,0,B|345:327|345:327|325:156,1,192,6|0,1:0|0:0,0:0:0:0:
95,42,125736,6,0,B|30:109|30:109|36:160,1,144.000005493164,4|2,0:0|0:0,0:0:0:0:
151,146,126450,1,4,3:0:0:0:
92,264,126689,2,0,B|157:197|157:197|151:146,1,144.000005493164,8|2,0:0|0:0,0:0:0:0:
420,264,127641,6,0,B|355:197|355:197|361:146,1,144.000005493164,4|2,0:0|0:0,0:0:0:0:
417,42,128356,1,4,3:0:0:0:
476,160,128594,2,0,B|482:109|482:109|417:42,1,144.000005493164,8|2,0:0|0:0,0:0:0:0:
256,332,129546,6,0,B|228:296|232:244|232:244|244:268|272:284,1,144.000005493164,4|2,0:0|0:0,0:0:0:0:
304,192,130260,1,4,3:0:0:0:
256,52,130498,2,0,B|228:88|232:140|232:140|244:116|272:100,1,144.000005493164,8|2,0:0|0:0,0:0:0:0:
304,192,131212,1,0,0:0:0:0:
200,272,131450,6,0,L|48:260,1,144.000005493164,4|4,0:0|3:0,0:0:0:0:
308,188,132403,2,0,L|384:180,1,72.0000027465821,8|4,0:0|3:0,0:0:0:0:
468,276,132879,2,0,L|396:268,1,72.0000027465821,8|4,0:0|3:0,0:0:0:0:
308,188,133355,6,0,P|328:132|320:40,1,144.000005493164,4|2,0:0|0:0,0:0:0:0:
256,0,134070,1,4,3:0:0:0:
189,48,134308,2,0,P|182:119|204:188,1,144.000005493164,8|2,0:0|0:0,0:0:0:0:
362,330,135260,6,0,L|250:318,2,108.000004119873,4|4|4,0:0|3:0|3:0,0:0:0:0:
424,272,136212,1,8,0:0:0:0:
256,64,136689,5,2,0:0:0:0:
184,116,136927,1,4,3:0:0:0:
100,100,137165,1,4,0:0:0:0:
100,100,137641,5,2,0:0:0:0:
184,116,137879,1,4,3:0:0:0:
256,64,138117,1,8,0:0:0:0:
256,64,138593,5,2,0:0:0:0:
330,253,138831,1,2,0:0:0:0:
330,253,139070,6,2,P|315:287|311:290,5,24.0000009155274
255,243,139546,2,2,P|251:231|250:220,5,24.0000009155274
256,243,140022,6,2,P|284:195|374:198,1,144.000005493164,2|2,0:0|0:1,0:0:0:0:
56,48,140974,6,0,L|72:148,2,96,4|2|8,0:0|0:0|0:0,0:0:0:0:
137,18,141689,2,0,B|145:50|145:50|276:64,2,144,2|2|8,0:0|0:0|0:0,0:0:0:0:
72,144,142641,1,0,0:0:0:0:
104,240,142879,6,0,P|92:300|56:328,2,96,4|2|8,3:0|0:0|0:0,0:0:0:0:
32,256,143593,1,2,0:0:0:0:
256,228,143950,1,2,0:0:0:0:
480,256,144308,1,8,0:0:0:0:
416,304,144546,1,2,0:0:0:0:
420,204,144784,6,0,P|472:176|516:184,1,96,4|2,3:0|0:0,0:0:0:0:
341,96,145260,2,0,P|289:68|245:76,1,96,10|2,0:0|0:0,0:0:0:0:
420,204,145736,6,0,P|472:176|516:184,1,96,4|2,3:0|0:0,0:0:0:0:
341,96,146212,2,0,P|289:68|245:76,1,96,10|2,0:0|0:0,0:0:0:0:
128,192,146689,6,0,P|76:220|32:212,1,96,2|2,0:0|0:0,0:0:0:0:
207,300,147165,2,0,P|259:328|303:320,1,96,10|2,0:0|0:0,0:0:0:0:
256,108,147641,2,0,L|268:260,1,144,4|8,3:0|0:0,0:0:0:0:
293,323,148117,2,0,P|241:351|197:343,1,96,8|8,0:0|0:0,0:0:0:0:
128,192,148593,6,0,L|20:200,2,96,4|2|8,1:0|0:0|0:2,0:0:0:0:
196,136,149308,2,0,B|224:164|216:208|216:208|302:203,2,144,0|2|8,0:0|0:0|0:0,0:0:0:0:
128,192,150260,1,2,1:2:0:0:
128,192,150379,1,0,0:0:0:0:
128,192,150498,6,0,L|64:196,2,48,4|2|0,1:3|0:3|0:0,0:0:0:0:
200,136,150974,1,8,0:0:0:0:
256,280,151212,1,2,0:1:0:0:
496,192,151570,1,0,1:0:0:0:
256,104,151927,1,8,0:2:0:0:
256,192,152165,1,2,0:3:0:0:
144,324,152403,6,0,P|88:344|48:344,1,96,2|2,3:2|0:3,0:0:0:0:
51,39,152879,2,0,P|99:42|144:60,1,96,8|2,3:2|0:3,0:0:0:0:
368,324,153355,2,0,P|412:341|460:344,1,96,0|2,3:2|0:3,0:0:0:0:
460,39,153831,2,0,P|412:42|368:59,1,96,8|2,3:2|0:3,0:0:0:0:
256,192,154308,5,2,0:0:0:0:
256,192,154427,12,2,155736,0:0:0:0:
