osu file format v14

[General]
AudioFilename: audio.mp3
AudioLeadIn: 0
PreviewTime: 59771
Countdown: 0
SampleSet: Soft
StackLeniency: 0.7
Mode: 0
LetterboxInBreaks: 0
WidescreenStoryboard: 0

[Editor]
Bookmarks: 30883,82604
DistanceSpacing: 1.3
BeatDivisor: 3
GridSize: 4
TimelineZoom: 1

[Metadata]
Title:Duvet (TV Size)
TitleUnicode:Duvet (TV Size)
Artist:BoA
ArtistUnicode:BoA
Creator:340
Version:Insane
Source:Serial Experiments Lain
Tags:シリアルエクスペリメンツレイン op opening Namki
BeatmapID:924449
BeatmapSetID:428311

[Difficulty]
HPDrainRate:6
CircleSize:4
OverallDifficulty:8
ApproachRate:8
SliderMultiplier:1.6
SliderTickRate:1

[Events]
//Background and Video events
0,0,"rsz_1326980798427.jpg",0,0
//Break Periods
//Storyboard Layer 0 (Background)
//Storyboard Layer 1 (Fail)
//Storyboard Layer 2 (Pass)
//Storyboard Layer 3 (Foreground)
//Storyboard Sound Samples

[TimingPoints]
1575.60387447405,322.061191626409,4,2,0,40,1,0
23636,-100,4,2,0,25,0,0
23797,-100,4,2,0,40,0,0
31849,-133.333333333333,4,2,0,40,0,0
32493,-100,4,2,0,40,0,1
39900,-133.333333333333,4,2,0,40,0,0
40770,322.061191626409,4,2,0,40,1,0
40770,-133.333333333333,4,2,0,40,0,0
41414,-100,4,2,0,40,0,1
42380,-100,4,3,0,30,0,1
51398,-100,4,2,0,40,0,0
51720,-100,4,2,0,40,0,1
58000,-100,4,3,0,30,0,1
59771,-100,4,2,0,15,0,1
60093,-100,4,2,0,20,0,1
60415,-100,4,2,0,20,0,1
60737,-100,4,2,0,40,0,1
61381,-100,4,2,0,40,0,0
62026,-100,4,2,0,40,0,1
64199,-100,4,2,0,40,0,0
64280,-100,4,2,0,40,0,1
67098,-100,4,2,0,40,0,0
67179,-100,4,2,0,40,0,1
69352,-100,4,2,0,40,0,0
69433,-100,4,2,0,40,0,1
70721,-100,4,3,0,20,0,1
71043,-100,4,3,0,25,0,1
71365,-100,4,3,0,35,0,1
71687,-100,4,3,0,40,0,1
72251,-100,4,2,0,40,0,0
72331,-100,4,2,0,40,0,1
74505,-100,4,2,0,40,0,0
74586,-100,4,2,0,40,0,1
77404,-100,4,2,0,40,0,0
77484,-100,4,2,0,40,0,1
79658,-100,4,2,0,40,0,0
79739,-100,4,2,0,40,0,1
79819,-100,4,2,0,40,0,0
80383,-133.333333333333,4,2,0,40,0,0
82604,322.061191626409,4,2,0,40,1,0

[Colours]
Combo1 : 169,158,97
Combo2 : 67,188,77
Combo3 : 197,197,67

[HitObjects]
316,264,1575,6,0,B|292:220|292:220|312:104,1,160,4|2,1:2|2:0,0:0:0:0:
396,196,2058,1,0,0:0:0:0:
216,284,2219,2,0,L|124:272,1,80,0|0,1:2|0:0,0:0:0:0:
16,236,2541,2,0,L|36:340,1,80,2|0,0:0|0:0,0:0:0:0:
108,168,2863,2,0,L|92:89,2,80,2|0|0,0:0|0:0|0:0,0:0:0:0:
196,216,3346,1,0,0:0:0:0:
268,140,3507,2,0,B|360:132|332:192|428:180,1,160,0|0,1:0|0:0,0:0:0:0:
392,24,3991,5,0,0:0:0:0:
392,24,4071,1,0,0:0:0:0:
392,24,4152,2,0,L|404:116,1,80,4|0,0:0|0:0,0:0:0:0:
432,296,4474,1,2,0:0:0:0:
512,216,4635,1,0,0:0:0:0:
328,240,4796,2,0,L|236:252,1,80,0|0,1:0|0:0,0:0:0:0:
60,292,5118,2,0,P|48:332|68:392,1,80,2|0,0:0|0:0,0:0:0:0:
144,320,5440,2,0,P|156:280|136:220,1,80
89,100,5762,2,0,L|5:110,1,80,2|0,0:0|0:0,0:0:0:0:
182,154,6084,2,0,L|267:144,1,80,0|0,1:0|0:0,0:0:0:0:
428,276,6406,1,0,0:0:0:0:
445,193,6567,5,0,0:0:0:0:
445,193,6648,1,0,0:0:0:0:
445,193,6728,2,0,B|360:185|381:249|286:235,1,160,4|0,0:0|0:0,0:0:0:0:
168,284,7211,2,0,B|252:276|231:340|326:326,1,160
184,368,7694,2,0,P|124:356|80:264,1,160,0|2,0:0|0:0,0:0:0:0:
140,200,8177,2,0,P|92:180|52:184,2,80,0|2|0,0:0|0:0|0:0,0:0:0:0:
204,152,8660,2,0,P|140:112|36:108,1,160,0|0,1:0|0:0,0:0:0:0:
216,236,9144,5,0,0:0:0:0:
216,236,9224,1,0,0:0:0:0:
216,236,9305,2,0,P|264:212|288:164,1,80,4|0,0:0|0:0,0:0:0:0:
352,108,9627,2,0,P|307:78|253:81,1,80,2|0,0:0|0:0,0:0:0:0:
376,228,9949,2,0,L|468:216,1,80,0|0,1:0|0:0,0:0:0:0:
392,348,10271,2,0,L|300:336,1,80,2|0,0:0|0:0,0:0:0:0:
60,208,10593,2,0,L|69:287,1,80,2|0,0:0|0:0,0:0:0:0:
191,346,10915,2,0,L|181:266,1,80
112,68,11237,2,0,P|60:76|24:112,1,80,0|0,1:0|0:0,0:0:0:0:
176,160,11559,1,0,0:0:0:0:
288,196,11720,5,0,0:0:0:0:
288,196,11801,1,0,0:0:0:0:
288,196,11881,2,0,P|332:182|394:85,1,160,4|0,0:0|0:0,0:0:0:0:
208,180,12364,2,0,B|200:240|252:268|252:268,1,80
312,280,12686,1,0,0:0:0:0:
308,370,12847,2,0,P|235:341|156:348,1,160
86,279,13330,2,0,L|76:194,2,80,0|2|0,0:0|0:0|0:0,0:0:0:0:
16,338,13813,2,0,L|-3:166,1,160,0|0,1:0|0:0,0:0:0:0:
144,112,14297,5,0,0:0:0:0:
144,112,14377,1,0,0:0:0:0:
144,112,14458,2,0,L|153:191,1,80,4|0,0:0|0:0,0:0:0:0:
220,332,14780,1,2,0:0:0:0:
96,288,14941,1,0,0:0:0:0:
248,220,15102,2,0,P|292:220|330:236,1,80,0|0,1:0|0:0,0:0:0:0:
422,355,15424,2,0,P|377:354|339:338,1,80
464,200,15746,2,0,L|448:292,1,80
348,176,16068,2,0,L|361:97,1,80,2|0,0:0|0:0,0:0:0:0:
512,52,16390,2,0,P|472:92|428:104,1,80,0|0,1:0|0:0,0:0:0:0:
312,28,16712,1,0,0:0:0:0:
248,132,16873,5,0,0:0:0:0:
248,132,16954,1,0,0:0:0:0:
248,132,17034,2,0,P|184:144|112:80,1,160,4|0,0:0|0:0,0:0:0:0:
80,8,17517,1,0,0:0:0:0:
60,140,17678,2,0,L|47:218,1,80,0|0,1:0|0:0,0:0:0:0:
84,316,18000,2,0,P|160:312|220:240,1,160
184,160,18483,2,0,P|137:120|95:114,2,80,0|2|0,0:0|0:0|0:0,0:0:0:0:
268,112,18966,2,0,P|320:100|420:160,1,160,0|0,1:0|0:0,0:0:0:0:
328,268,19450,5,0,0:0:0:0:
328,268,19530,1,0,0:0:0:0:
328,268,19611,2,0,B|316:226|316:226|327:179,1,80,2|0,0:0|0:0,0:0:0:0:
494,120,19933,2,0,B|505:161|505:161|494:208,1,80
428,312,20255,1,0,1:0:0:0:
248,352,20416,2,0,L|160:336,1,80
80,196,20738,2,0,P|168:208|212:264,1,160,2|2,0:3|0:3,0:0:0:0:
48,300,21221,1,0,0:0:0:0:
0,184,21382,2,0,P|16:144|48:120,1,80,0|0,0:0|1:0,0:0:0:0:
164,104,21704,1,2,0:3:0:0:
400,184,21865,1,0,0:0:0:0:
332,244,22026,5,0,0:0:0:0:
332,244,22107,1,0,0:0:0:0:
332,244,22187,2,0,B|312:196|312:196|332:80,2,160,4|2|0,0:0|0:0|1:0,0:0:0:0:
228,312,23153,5,2,0:0:0:0:
43,259,23314,1,0,0:0:0:0:
152,227,23475,1,2,0:0:0:0:
119,343,23636,1,4,0:0:0:0:
43,259,23797,1,0,0:0:0:0:
228,312,23958,2,0,P|284:304|320:280,1,80
420,177,24280,5,0,0:0:0:0:
260,101,24441,1,2,0:0:0:0:
356,57,24602,1,0,0:0:0:0:
356,57,24683,1,0,0:0:0:0:
356,57,24764,2,0,L|324:229,1,160,4|0,0:0|0:0,0:0:0:0:
384,304,25247,1,0,0:0:0:0:
384,304,25408,1,0,1:0:0:0:
384,304,25730,6,0,P|344:292|296:300,1,80
88,224,26052,2,0,L|124:316,1,80,2|0,0:0|0:0,0:0:0:0:
224,340,26374,2,0,L|188:248,1,80
56,136,26696,2,0,B|110:128|110:128|153:157|153:157|220:148,1,160,0|0,1:0|0:0,0:0:0:0:
312,48,27179,1,0,0:0:0:0:
312,48,27259,1,0,0:0:0:0:
312,48,27340,2,0,B|288:124|288:124|336:208,1,160,4|0,0:0|0:0,0:0:0:0:
432,304,27823,2,0,L|420:224,1,80,0|0,0:0|1:0,0:0:0:0:
228,232,28145,1,0,0:0:0:0:
192,328,28306,2,0,P|232:348|336:312,1,160,2|0,0:0|0:0,0:0:0:0:
124,264,28789,2,0,L|52:300,2,80,0|2|0,0:0|0:0|0:0,0:0:0:0:
52,204,29272,1,0,1:0:0:0:
52,204,29594,5,0,0:0:0:0:
56,104,29755,1,0,0:0:0:0:
64,86,29835,1,0,0:0:0:0:
73,68,29916,1,0,0:0:0:0:
252,52,30078,1,0,0:0:0:0:
137,147,30239,1,2,0:0:0:0:
173,3,30400,1,0,0:0:0:0:
229,141,30561,1,0,1:0:0:0:
103,62,30722,1,0,0:0:0:0:
284,52,30883,6,0,P|328:64|364:104,1,80
456,204,31205,2,0,P|404:200|316:272,1,160
256,344,31688,1,0,0:0:0:0:
256,344,31768,1,0,0:0:0:0:
256,344,31849,2,0,P|220:312|204:244,1,120.000004577637,4|0,0:0|0:0,0:0:0:0:
148,104,32493,2,0,B|189:91|223:117|223:117|257:142|299:130,1,160,4|0,0:0|0:0,0:0:0:0:
424,20,32976,1,0,0:0:0:0:
404,116,33137,2,0,P|356:120|272:32,1,160,0|0,1:0|0:0,0:0:0:0:
494,145,33620,5,0,0:0:0:0:
494,145,33701,1,0,0:0:0:0:
494,145,33781,2,0,P|460:192|344:212,2,160,0|0|0,0:0|0:0|1:0,0:0:0:0:
32,220,34747,2,0,P|96:296|232:272,1,240,4|0,0:0|0:0,0:0:0:0:
324,288,35392,2,0,P|268:260|232:144,1,160,0|0,0:0|1:0,0:0:0:0:
320,12,36036,5,0,0:0:0:0:
328,140,36197,1,0,0:0:0:0:
328,140,36277,1,0,0:0:0:0:
328,140,36358,2,0,P|368:168|404:172,1,80
504,200,36680,2,0,P|484:240|376:280,1,160,0|0,0:0|1:0,0:0:0:0:
200,132,37324,2,0,P|196:228|140:304,1,160,2|4,0:0|0:0,0:0:0:0:
88,336,37807,1,0,0:0:0:0:
232,248,37968,2,0,P|292:244|376:312,1,160,0|0,0:0|1:0,0:0:0:0:
28,264,38612,5,0,0:0:0:0:
84,176,38773,1,0,0:0:0:0:
84,176,38854,1,0,0:0:0:0:
84,176,38934,1,2,0:0:0:0:
256,272,39256,1,0,1:0:0:0:
192,56,39578,1,0,3:0:0:0:
192,212,39900,6,0,B|226:178|276:168|315:198|332:228|332:228|352:260|384:288|420:284|460:260,1,300.000011444092,4|0,0:3|0:0,0:0:0:0:
464,284,40770,2,0,P|492:244|488:172,1,120.000004577637,4|0,0:0|0:0,0:0:0:0:
512,72,41253,1,0,0:0:0:0:
512,72,41333,1,0,0:0:0:0:
512,72,41414,2,0,P|444:84|344:52,2,160,4|0|0,0:0|0:0|1:0,0:0:0:0:
220,48,42380,5,0,0:0:0:0:
214,146,42541,1,0,0:0:0:0:
214,146,42621,1,0,0:0:0:0:
214,146,42702,1,0,0:0:0:0:
272,218,42863,1,0,0:0:0:0:
222,295,43024,1,0,0:0:0:0:
133,271,43185,1,0,0:0:0:0:
128,179,43346,1,0,1:0:0:0:
408,104,43668,5,0,0:0:0:0:
444,200,43829,1,0,0:0:0:0:
444,200,43910,1,0,0:0:0:0:
444,200,43990,1,0,0:0:0:0:
376,280,44151,1,0,0:0:0:0:
452,352,44312,1,0,0:0:0:0:
348,372,44473,1,0,0:0:0:0:
276,296,44634,1,0,1:0:0:0:
76,272,44956,5,0,0:0:0:0:
120,180,45117,1,0,0:0:0:0:
120,180,45198,1,0,0:0:0:0:
120,180,45278,2,0,P|180:140|276:156,2,160,0|0|0,0:0|0:0|1:0,0:0:0:0:
428,176,46245,2,0,P|360:200|320:308,1,160,0|0,2:0|2:0,2:0:0:0:
404,320,46728,1,0,0:0:0:0:
472,264,46889,1,0,0:0:0:0:
364,60,47211,5,0,1:0:0:0:
96,68,47533,1,0,0:0:0:0:
180,128,47694,1,0,0:0:0:0:
180,128,47774,1,0,0:0:0:0:
180,128,47855,1,0,0:0:0:0:
84,168,48016,1,0,0:0:0:0:
168,232,48177,1,0,0:0:0:0:
264,192,48338,1,0,0:0:0:0:
276,88,48499,1,0,1:0:0:0:
472,252,48821,5,0,0:0:0:0:
400,328,48982,1,0,0:0:0:0:
400,328,49063,1,0,0:0:0:0:
400,328,49143,1,0,0:0:0:0:
368,228,49304,1,0,0:0:0:0:
436,152,49465,1,0,0:0:0:0:
472,252,49626,1,0,0:0:0:0:
400,328,49787,1,0,1:0:0:0:
60,328,50109,5,0,0:0:0:0:
148,256,50270,1,0,0:0:0:0:
148,256,50351,1,0,0:0:0:0:
148,256,50431,1,0,0:0:0:0:
88,172,50592,1,0,0:0:0:0:
108,68,50753,1,0,0:0:0:0:
180,140,50914,1,0,0:0:0:0:
212,40,51075,1,0,1:0:0:0:
424,96,51398,5,0,0:0:0:0:
472,196,51559,1,0,0:0:0:0:
472,196,51639,1,0,0:0:0:0:
472,196,51720,2,0,P|436:228|320:228,1,160,4|0,0:0|0:0,0:0:0:0:
168,344,52364,6,0,P|124:316|96:252,1,120,2|0,1:2|0:0,0:0:0:0:
96,236,52686,1,0,0:0:0:0:
4,168,52847,2,0,P|68:164|120:124,1,120
120,120,53169,1,0,0:0:0:0:
140,24,53330,2,2,P|196:24|252:64,1,120,2|0,0:0|0:0,0:0:0:0:
256,72,53652,1,0,1:0:0:0:
352,188,53813,2,0,P|336:132|352:68,1,120
356,60,54135,1,0,0:0:0:0:
488,8,54296,2,0,P|504:64|488:128,1,120,2|0,0:0|0:0,0:0:0:0:
484,136,54618,1,0,0:0:0:0:
467,306,54779,6,0,B|432:396|296:356|296:356|332:232|441:250,1,400
128,340,55906,2,0,P|200:292|216:144,1,240,2|0,0:0|0:0,0:0:0:0:
12,224,56550,2,0,P|56:272|76:128,1,320,2|8,0:0|0:3,0:0:0:0:
148,352,57517,2,0,P|224:380|316:344,1,160,0|0,1:0|0:0,0:0:0:0:
368,276,58000,5,0,0:0:0:0:
368,276,58080,1,0,0:0:0:0:
368,276,58161,1,0,0:0:0:0:
440,352,58322,1,0,0:0:0:0:
468,252,58483,1,0,0:0:0:0:
400,172,58644,1,0,0:0:0:0:
436,76,58805,1,0,1:0:0:0:
68,128,59127,5,0,0:0:0:0:
156,76,59288,1,0,0:0:0:0:
156,76,59369,1,0,0:0:0:0:
156,76,59449,1,0,0:0:0:0:
248,128,59610,1,0,0:0:0:0:
160,180,59771,2,2,L|72:236,1,80,2|0,0:1|0:1,0:1:0:0:
260,224,60093,2,2,L|348:168,1,80,2|0,0:1|0:1,0:1:0:0:
144,288,60415,2,2,L|56:344,1,80,2|0,0:1|0:1,0:1:0:0:
296,320,60737,6,0,P|360:340|444:288,2,160,4|0|0,0:3|0:0|1:0,0:0:0:0:
272,100,61703,1,0,0:0:0:0:
332,192,61865,1,0,0:0:0:0:
327,211,61945,1,0,0:0:0:0:
322,229,62026,2,0,B|234:213|254:285|154:257,1,160,4|2,0:0|0:0,0:0:0:0:
40,220,62509,1,0,0:0:0:0:
88,312,62670,2,0,P|140:260|132:156,1,160,0|0,1:0|0:0,0:0:0:0:
64,104,63153,5,0,0:0:0:0:
64,104,63233,1,0,0:0:0:0:
64,104,63314,2,0,B|92:72|92:72|128:60,1,80
296,156,63636,2,0,B|268:188|268:188|232:200,1,80,2|0,0:0|0:0,0:0:0:0:
248,56,63958,2,0,L|340:80,1,80,0|0,1:0|0:0,0:0:0:0:
512,48,64280,2,0,P|464:72|404:244,1,240,4|0,0:0|0:0,0:0:0:0:
496,280,64924,2,0,P|452:272|352:328,1,160,0|0,0:0|1:0,0:0:0:0:
168,360,65568,5,0,0:0:0:0:
76,312,65729,1,0,0:0:0:0:
76,312,65810,1,0,0:0:0:0:
76,312,65890,2,0,L|56:224,1,80
156,140,66212,2,0,L|176:228,1,80,2|0,0:0|0:0,0:0:0:0:
48,92,66534,2,0,P|76:52|120:32,1,80,0|0,1:0|0:0,0:0:0:0:
216,96,66856,2,0,B|280:88|324:136|324:136|320:64|384:32,1,240,2|0,0:0|0:0,0:0:0:0:
488,88,67501,2,0,P|472:152|408:100,1,160,0|0,0:1|1:0,0:1:0:0:
464,256,68145,5,0,0:0:0:0:
400,332,68306,1,0,0:0:0:0:
400,332,68386,1,0,0:0:0:0:
400,332,68467,2,0,P|348:328|312:304,1,80
216,300,68789,2,0,P|260:268|276:224,1,80,2|0,0:0|0:0,0:0:0:0:
108,140,69111,2,0,P|64:172|48:216,1,80,0|0,1:0|0:0,0:0:0:0:
88,288,69433,2,0,B|133:263|129:219|129:219|197:229|197:229|199:182|238:161,1,240,4|0,0:0|0:0,0:0:0:0:
184,80,70077,2,0,P|260:64|340:120,1,160,0|0,0:0|1:0,0:0:0:0:
316,328,70721,6,0,P|272:320|248:304,2,53.3333333333333,0|0|0,3:0|3:0|3:0,3:0:0:0:
376,232,71043,2,0,P|420:240|444:256,2,53.3333333333333,0|0|0,3:0|3:0|3:0,3:0:0:0:
264,204,71365,2,0,P|220:196|196:180,2,53.3333333333333,0|0|0,3:0|3:0|3:0,3:0:0:0:
324,108,71687,2,0,P|368:116|392:132,2,53.3333333333333,0|0|0,3:0|3:0|3:0,3:0:0:0:
156,300,72009,2,0,P|108:268|104:148,1,160,2|4,0:0|0:0,0:0:0:0:
164,56,72493,1,0,0:0:0:0:
176,160,72654,2,0,P|120:144|64:64,1,160,0|0,0:0|1:0,0:0:0:0:
344,92,73298,6,0,P|348:136|324:180,1,80
428,204,73620,2,0,P|388:248|276:256,1,160,2|0,0:0|0:0,0:0:0:0:
76,168,74103,1,0,0:0:0:0:
76,168,74264,2,0,L|96:260,1,80
188,200,74586,2,0,B|161:103|161:103|140:64|84:40|36:60,1,240,4|0,0:0|0:0,0:0:0:0:
236,284,75230,2,0,P|272:252|280:200,1,80,2|0,0:0|0:0,0:0:0:0:
376,220,75552,2,0,P|364:172|328:140,1,80
252,124,75874,1,0,0:0:0:0:
360,308,76035,5,0,0:0:0:0:
360,308,76116,1,0,0:0:0:0:
360,308,76196,2,0,L|468:296,1,80
276,360,76518,2,0,L|196:368,1,80,2|0,0:0|0:0,0:0:0:0:
72,280,76840,2,0,P|112:276|160:296,1,80,0|0,1:0|0:0,0:0:0:0:
100,364,77162,2,0,P|32:360|-8:256,1,160,2|4,0:0|0:0,0:0:0:0:
36,196,77646,1,0,0:0:0:0:
120,136,77807,2,0,B|216:124|196:180|284:160,1,160
440,60,78451,5,0,0:0:0:0:
368,160,78612,1,0,0:0:0:0:
365,179,78692,1,0,0:0:0:0:
363,197,78773,2,0,P|403:229|447:229,1,80,8|0,0:3|0:0,0:0:0:0:
312,72,79095,2,0,P|272:40|228:40,1,80,0|0,1:0|0:0,0:0:0:0:
152,96,79417,1,0,0:0:0:0:
256,300,79739,1,4,1:0:0:0:
256,192,79819,12,0,81993,0:0:0:0:
