osu file format v14

[General]
AudioFilename: audio.mp3
AudioLeadIn: 0
PreviewTime: 59771
Countdown: 0
SampleSet: None
StackLeniency: 0.7
Mode: 0
LetterboxInBreaks: 0
WidescreenStoryboard: 0

[Editor]
Bookmarks: 30883,82604
DistanceSpacing: 1.3
BeatDivisor: 4
GridSize: 4
TimelineZoom: 1

[Metadata]
Title:Duvet (TV Size)
TitleUnicode:Duvet (TV Size)
Artist:BoA
ArtistUnicode:BoA
Creator:340
Version:Hard
Source:Serial Experiments Lain
Tags:シリアルエクスペリメンツレイン op opening Namki
BeatmapID:1250686
BeatmapSetID:428311

[Difficulty]
HPDrainRate:4.6
CircleSize:3.6
OverallDifficulty:6
ApproachRate:7.5
SliderMultiplier:1.5
SliderTickRate:1

[Events]
//Background and Video events
0,0,"rsz_1326980798427.jpg",0,0
//Break Periods
//Storyboard Layer 0 (Background)
//Storyboard Layer 1 (Fail)
//Storyboard Layer 2 (Pass)
//Storyboard Layer 3 (Foreground)
//Storyboard Sound Samples

[TimingPoints]
1575,322.061191626409,4,2,0,40,1,0
23636,-100,4,2,0,25,0,0
23797,-100,4,2,0,40,0,0
31849,-133.333333333333,4,2,0,40,0,0
32492,-100,4,2,0,40,0,1
39900,-133.333333333333,4,2,0,40,0,0
40770,322.061191626409,4,2,0,40,1,0
40770,-181.818181818181,4,2,0,40,0,0
41414,-100,4,2,0,40,0,1
42380,-100,4,3,0,30,0,1
51398,-100,4,2,0,40,0,0
51720,-100,4,2,0,40,0,1
58000,-100,4,3,0,30,0,1
59771,-100,4,2,0,15,0,1
60093,-100,4,2,0,20,0,1
60415,-100,4,2,0,20,0,1
60737,-100,4,2,0,40,0,1
61381,-100,4,2,0,40,0,0
62026,-100,4,2,0,40,0,1
64199,-100,4,2,0,40,0,0
64280,-100,4,2,0,40,0,1
67098,-100,4,2,0,40,0,0
67179,-100,4,2,0,40,0,1
69352,-100,4,2,0,40,0,0
69433,-100,4,2,0,40,0,1
72251,-100,4,2,0,40,0,0
72331,-100,4,2,0,40,0,1
74505,-100,4,2,0,40,0,0
74586,-100,4,2,0,40,0,1
77404,-100,4,2,0,40,0,0
77484,-100,4,2,0,40,0,1
79658,-100,4,2,0,40,0,0
79739,-100,4,2,0,40,0,1
79819,-100,4,2,0,40,0,0
80383,-133.333333333333,4,2,0,40,0,0
82604,322.061191626409,4,2,0,40,1,0

[Colours]
Combo1 : 169,158,97
Combo2 : 67,188,77
Combo3 : 197,197,67

[HitObjects]
0,108,1575,6,0,B|44:100|44:100|152:132,1,150,4|2,1:2|2:0,0:0:0:0:
216,192,2058,1,0,0:0:0:0:
304,136,2219,2,0,B|312:96|312:96|304:56,1,75,0|0,1:2|0:0,0:0:0:0:
216,192,2541,2,0,B|208:232|208:232|216:272,2,75,2|0|2,0:0|0:0|0:0,0:0:0:0:
304,136,3024,1,0,0:0:0:0:
376,192,3185,2,0,L|448:148,1,75
512,208,3507,1,0,1:0:0:0:
424,352,3830,5,0,0:0:0:0:
336,304,3991,1,0,0:0:0:0:
336,304,4071,1,0,0:0:0:0:
336,304,4152,2,0,L|244:292,1,75,4|0,0:0|0:0,0:0:0:0:
148,324,4474,1,2,0:0:0:0:
148,324,4635,1,0,0:0:0:0:
156,220,4796,2,0,L|248:208,1,75,0|0,1:0|0:0,0:0:0:0:
288,120,5118,6,0,P|324:160|420:188,2,150,2|0|2,0:0|0:0|0:0,0:0:0:0:
236,40,5923,1,0,0:0:0:0:
184,116,6084,2,0,L|92:124,1,75,0|0,1:0|0:0,0:0:0:0:
16,152,6406,1,0,0:0:0:0:
36,256,6567,5,0,0:0:0:0:
36,256,6648,1,0,0:0:0:0:
36,256,6728,2,0,B|116:238|98:308|189:280,1,150,4|0,0:0|0:0,0:0:0:0:
300,320,7211,2,0,B|280:280|280:280|288:164,1,150
304,72,7694,2,0,P|288:136|212:128,1,150,0|2,0:0|0:0,0:0:0:0:
136,96,8177,2,0,P|164:64|172:32,2,75,0|2|0,0:0|0:0|0:0,0:0:0:0:
48,128,8660,1,0,1:0:0:0:
316,72,8983,5,0,0:0:0:0:
372,152,9144,1,0,0:0:0:0:
372,152,9224,1,0,0:0:0:0:
372,152,9305,2,0,P|360:204|336:232,1,75,4|0,0:0|0:0,0:0:0:0:
264,272,9627,2,0,L|180:260,1,75,2|0,0:0|0:0,0:0:0:0:
88,256,9949,2,0,B|64:224|64:224|60:184,1,75,0|0,1:0|0:0,0:0:0:0:
168,36,10271,6,0,L|156:192,2,150,2|2|0,0:0|0:0|0:0,0:0:0:0:
260,132,11076,1,0,0:0:0:0:
332,76,11237,2,0,P|368:72|416:80,1,75,0|0,1:0|0:0,0:0:0:0:
480,136,11559,1,0,0:0:0:0:
392,188,11720,5,0,0:0:0:0:
392,188,11801,1,0,0:0:0:0:
392,188,11881,2,0,P|348:224|304:312,1,150,4|0,0:0|0:0,0:0:0:0:
376,352,12364,2,0,L|220:316,1,150,0|0,0:0|0:0,0:0:0:0:
208,216,12847,2,0,P|216:272|132:292,1,150,0|0,0:0|0:0,0:0:0:0:
72,240,13330,2,0,P|92:204|96:164,2,75,0|2|0,0:0|0:0|0:0,0:0:0:0:
0,288,13813,1,0,1:0:0:0:
56,72,14135,5,0,0:0:0:0:
152,108,14297,1,0,0:0:0:0:
152,108,14377,1,0,0:0:0:0:
152,108,14458,2,0,L|240:100,1,75,4|0,0:0|0:0,0:0:0:0:
384,36,14780,2,0,L|309:42,1,75,2|0,0:0|0:0,0:0:0:0:
396,144,15102,2,0,P|436:124|452:100,1,75,0|0,1:0|0:0,0:0:0:0:
308,124,15424,6,0,B|316:176|316:176|392:256,2,150,0|0|2,0:0|0:0|0:0,0:0:0:0:
396,144,16229,1,0,0:0:0:0:
280,256,16390,2,0,L|196:252,1,75,0|0,1:0|0:0,0:0:0:0:
160,172,16712,1,0,0:0:0:0:
104,248,16873,5,0,0:0:0:0:
104,248,16954,1,0,0:0:0:0:
104,248,17034,2,0,L|116:96,1,150,4|0,0:0|0:0,0:0:0:0:
52,32,17517,2,0,B|135:28|111:75|208:65,1,150,0|0,0:0|0:0,0:0:0:0:
296,76,18000,2,0,P|244:65|233:149,1,150,0|0,0:0|0:0,0:0:0:0:
292,204,18483,2,0,P|344:192|384:200,2,75,0|2|0,0:0|0:0|0:0,0:0:0:0:
244,284,18966,1,0,1:0:0:0:
424,348,19288,5,0,0:0:0:0:
472,268,19450,1,0,0:0:0:0:
472,268,19530,1,0,0:0:0:0:
472,268,19611,2,0,P|480:224|472:188,1,75,2|0,0:0|0:0,0:0:0:0:
404,136,19933,2,0,P|368:160|328:168,1,75,0|0,0:0|0:0,0:0:0:0:
248,140,20255,1,0,1:0:0:0:
176,80,20416,2,0,L|92:92,1,75,0|0,0:0|0:0,0:0:0:0:
20,216,20738,2,0,P|108:208|148:160,1,150,2|2,0:3|0:3,0:0:0:0:
392,100,21382,5,0,0:0:0:0:
380,192,21543,2,0,P|292:184|252:136,1,150,0|0,1:0|0:0,0:0:0:0:
236,48,22026,1,0,0:0:0:0:
236,48,22107,1,0,0:0:0:0:
236,48,22187,2,0,L|220:208,2,150,4|2|0,0:0|0:0|1:0,0:0:0:0:
104,180,23153,5,2,0:0:0:0:
156,248,23314,1,0,0:0:0:0:
248,276,23475,2,0,P|288:268|328:276,2,75,2|4|0,0:0|0:0|0:0,0:0:0:0:
168,336,23958,2,0,P|96:344|28:296,1,150,2|0,0:0|0:0,0:0:0:0:
24,204,24441,1,2,0:0:0:0:
76,120,24602,1,0,0:0:0:0:
76,120,24683,1,0,0:0:0:0:
76,120,24764,2,0,P|148:112|216:160,1,150,4|0,0:0|0:0,0:0:0:0:
232,260,25247,1,0,0:0:0:0:
232,260,25408,1,0,1:0:0:0:
324,124,25730,6,0,P|368:92|484:92,2,150,0|2|0,0:0|0:0|0:0,0:0:0:0:
296,204,26535,1,0,0:0:0:0:
228,136,26696,2,0,L|136:148,1,75,0|0,1:0|0:0,0:0:0:0:
80,204,27018,1,0,0:0:0:0:
136,280,27179,5,0,0:0:0:0:
136,280,27259,1,0,0:0:0:0:
136,280,27340,2,0,P|192:312|284:304,1,150,4|0,0:0|0:0,0:0:0:0:
392,336,27823,2,0,P|360:296|336:192,1,150,0|0,0:0|0:0,0:0:0:0:
416,136,28306,2,0,P|368:172|328:104,1,150,2|0,0:0|0:0,0:0:0:0:
244,56,28789,2,0,P|192:48|156:56,2,75,0|2|0,0:0|0:0|0:0,0:0:0:0:
208,140,29272,2,0,P|160:160|108:248,1,150,0|0,1:0|0:0,0:0:0:0:
168,312,29755,5,0,0:0:0:0:
168,312,29835,1,0,0:0:0:0:
168,312,29916,2,0,P|210:288|248:285,1,75
368,264,30238,2,0,P|332:251|288:224,1,75,2|0,0:0|0:0,0:0:0:0:
272,120,30560,1,0,1:0:0:0:
272,120,30721,1,0,0:0:0:0:
376,72,30883,6,0,P|432:88|460:112,1,75
440,204,31205,2,0,B|365:191|375:239|294:220,1,150
224,144,31688,1,0,0:0:0:0:
224,144,31768,1,0,0:0:0:0:
224,144,31849,2,0,L|212:280,1,112.500004291535,4|0,0:0|0:0,0:0:0:0:
120,120,32493,6,0,P|148:72|244:32,2,150,4|0|0,0:0|0:0|1:0,0:0:0:0:
232,300,33459,1,0,0:0:0:0:
296,228,33620,1,0,0:0:0:0:
296,228,33701,1,0,0:0:0:0:
296,228,33781,2,0,L|308:76,2,150,0|0|0,0:0|0:0|1:0,0:0:0:0:
104,260,34747,2,0,B|240:240|188:344|316:320,1,225,4|0,0:0|0:0,0:0:0:0:
404,348,35392,2,0,P|452:312|480:224,1,150,0|0,0:0|1:0,0:0:0:0:
300,28,36035,5,0,0:0:0:0:
400,56,36197,1,0,0:0:0:0:
400,56,36277,1,0,0:0:0:0:
400,56,36358,2,0,P|392:112|304:192,2,150,0|0|0,0:0|0:0|1:0,0:0:0:0:
240,152,37324,2,0,P|176:152|104:88,1,150,2|0,0:0|1:0,0:0:0:0:
276,40,37968,1,0,0:0:0:0:
332,168,38290,2,0,P|292:224|188:240,1,150,0|0,1:0|0:0,0:0:0:0:
116,224,38773,5,0,0:0:0:0:
116,224,38854,1,0,0:0:0:0:
116,224,38934,1,2,0:0:0:0:
332,168,39256,1,0,1:0:0:0:
252,312,39578,1,0,3:0:0:0:
68,136,39900,6,0,B|60:92|108:64|108:64|144:104|132:148|132:148|188:124|252:152,1,281.250010728836,4|0,0:3|0:0,0:0:0:0:
230,144,40770,2,0,P|192:196|184:228,1,82.5000025177003,4|0,0:0|0:0,0:0:0:0:
260,328,41253,5,0,0:0:0:0:
260,328,41333,1,0,0:0:0:0:
260,328,41414,2,0,P|308:256|396:244,2,150,4|0|0,0:0|0:0|1:0,0:0:0:0:
468,216,42380,5,0,0:0:0:0:
424,140,42541,2,0,L|432:100,2,37.5
344,180,42863,1,0,0:0:0:0:
264,144,43024,1,0,0:0:0:0:
196,200,43185,1,0,0:0:0:0:
128,152,43346,1,0,1:0:0:0:
20,344,43668,5,0,0:0:0:0:
56,264,43829,2,0,L|48:224,2,37.5
136,304,44151,1,0,0:0:0:0:
216,268,44312,1,0,0:0:0:0:
284,324,44473,1,0,0:0:0:0:
352,276,44634,1,0,1:0:0:0:
188,232,44956,5,0,0:0:0:0:
147,148,45117,2,0,L|196:128,2,37.5
92,224,45439,1,0,0:0:0:0:
2,195,45600,1,0,0:0:0:0:
2,101,45761,1,0,0:0:0:0:
92,72,45922,1,0,1:0:0:0:
344,108,46245,5,0,0:0:0:0:
432,92,46406,2,0,L|440:44,2,37.5,0|0|0,0:0|0:0|2:0,0:0:0:0:
476,176,46728,1,0,0:0:0:0:
408,240,46889,1,0,0:0:0:0:
324,200,47050,1,0,0:0:0:0:
248,264,47211,1,0,1:0:0:0:
40,128,47533,5,0,0:0:0:0:
96,200,47694,2,0,L|56:232,2,37.5
188,200,48016,1,0,0:0:0:0:
264,168,48177,1,0,0:0:0:0:
296,96,48338,1,0,0:0:0:0:
264,24,48499,1,0,1:0:0:0:
360,168,48821,5,0,0:0:0:0:
392,248,48982,2,0,L|428:232,2,37.5
328,312,49304,1,0,0:0:0:0:
252,280,49465,1,0,0:0:0:0:
172,280,49626,1,0,0:0:0:0:
96,316,49787,1,0,1:0:0:0:
140,168,50109,5,0,0:0:0:0:
224,196,50270,2,0,L|240:152,2,37.5
288,256,50592,1,0,0:0:0:0:
360,220,50753,1,0,0:0:0:0:
401,149,50914,1,0,0:0:0:0:
395,68,51075,1,0,1:0:0:0:
96,104,51398,5,0,0:0:0:0:
52,184,51559,1,0,0:0:0:0:
52,184,51639,1,0,0:0:0:0:
52,184,51720,2,0,P|96:228|200:228,1,150,4|0,0:0|0:0,0:0:0:0:
328,192,52364,6,0,B|304:264|304:264|384:244,1,150,2|0,1:2|0:0,0:0:0:0:
456,184,52847,2,0,B|480:112|480:112|400:132,1,150,0|0,0:0|0:0,0:0:0:0:
316,88,53330,2,0,P|244:60|168:64,1,150,2|0,0:0|1:0,0:0:0:0:
72,148,53813,2,0,P|144:176|220:172,1,150,0|0,0:0|0:0,0:0:0:0:
316,88,54296,2,0,L|272:264,1,150,2|0,0:0|0:0,0:0:0:0:
200,320,54779,2,0,B|284:288|364:336|364:336|372:268|372:268|460:264|480:180,1,375,0|0,0:0|0:0,0:0:0:0:
396,60,55906,6,0,P|364:132|216:168,1,225,2|0,0:0|0:0,0:0:0:0:
232,60,56550,2,0,P|224:144|60:288,1,300,2|8,0:0|0:3,0:0:0:0:
0,88,57517,2,0,P|60:96|140:172,1,150,0|0,1:0|0:0,0:0:0:0:
208,208,58000,6,0,L|256:188,2,37.5,0|0|0,0:0|0:0|0:0,0:0:0:0:
196,296,58322,1,0,0:0:0:0:
276,328,58483,1,0,0:0:0:0:
356,308,58644,1,0,0:0:0:0:
416,252,58805,1,0,1:0:0:0:
308,80,59127,5,0,0:0:0:0:
356,160,59288,2,0,L|392:152,2,37.5,0|0|0,0:0|0:0|0:0,0:0:0:0:
312,248,59610,1,0,0:0:0:0:
228,296,59771,2,0,L|144:280,1,75,2|0,0:1|0:1,0:0:0:0:
44,216,60093,2,0,L|128:200,1,75,2|0,0:1|0:1,0:0:0:0:
236,136,60415,2,0,L|152:120,1,75,2|0,0:1|0:1,0:0:0:0:
48,80,60737,2,0,P|112:88|188:36,2,150,4|0|0,0:3|0:0|1:0,0:0:0:0:
176,272,61703,1,0,0:0:0:0:
260,328,61865,1,0,0:0:0:0:
260,328,61945,1,0,0:0:0:0:
260,328,62026,2,0,P|328:320|380:240,2,150,4|2|0,0:0|0:0|1:0,0:0:0:0:
280,192,62992,5,0,0:0:0:0:
200,144,63153,1,0,0:0:0:0:
200,144,63233,1,0,0:0:0:0:
200,144,63314,2,0,B|120:136|140:200|24:180,2,150,0|2|0,0:0|0:0|1:0,0:0:0:0:
392,160,64280,2,0,P|272:144|212:52,1,225,4|0,0:0|0:0,0:0:0:0:
116,72,64924,2,0,P|96:116|96:220,1,150,0|0,0:0|1:0,0:0:0:0:
328,292,65729,5,0,0:0:0:0:
328,292,65810,1,0,0:0:0:0:
328,292,65890,2,0,P|380:244|476:240,2,150,0|2|0,0:0|0:0|1:0,0:0:0:0:
108,284,66856,2,0,P|196:272|248:208,1,150,2|0,0:0|1:0,0:0:0:0:
252,148,67340,1,0,0:0:0:0:
256,64,67501,2,0,P|292:100|396:124,1,150,0|0,0:1|1:0,0:0:0:0:
124,84,68306,5,0,0:0:0:0:
124,84,68386,1,0,0:0:0:0:
124,84,68467,2,0,P|100:148|104:240,1,150,0|2,0:0|0:0,0:0:0:0:
408,296,69111,1,0,1:0:0:0:
436,144,69433,2,0,B|324:112|340:212|220:184,1,225,4|0,0:0|0:0,0:0:0:0:
128,172,70077,2,0,P|136:228|212:304,1,150,0|0,0:0|1:0,0:0:0:0:
244,80,70721,6,0,P|176:52|92:52,1,150,0|2,0:0|0:0,0:0:0:0:
176,204,71365,2,0,P|250:202|319:174,1,150
476,52,72009,2,0,P|420:104|396:188,1,150,2|0,0:0|1:0,0:0:0:0:
420,252,72493,1,0,0:0:0:0:
464,328,72654,2,0,P|376:312|296:328,1,150,0|0,0:0|1:0,0:0:0:0:
136,268,73459,5,0,0:0:0:0:
136,268,73539,1,0,0:0:0:0:
136,268,73620,2,0,P|84:240|44:144,2,150,2|0|0,0:0|0:0|0:0,0:0:0:0:
256,144,74586,2,0,P|232:192|268:360,1,225,4|0,0:0|0:0,0:0:0:0:
352,344,75230,2,0,P|376:284|448:232,1,150,2|0,0:0|0:0,0:0:0:0:
396,112,76035,5,0,0:0:0:0:
396,112,76116,1,0,0:0:0:0:
396,112,76196,2,0,P|336:136|224:124,2,150,0|2|0,0:0|0:0|1:0,0:0:0:0:
268,252,77162,2,0,P|200:232|152:168,1,150,2|0,0:0|1:0,0:0:0:0:
140,76,77646,1,0,0:0:0:0:
76,136,77807,2,0,P|60:192|-20:272,1,150,0|0,0:0|1:0,0:0:0:0:
236,284,78612,5,0,0:0:0:0:
236,284,78692,1,0,0:0:0:0:
236,284,78773,1,8,0:3:0:0:
384,236,79095,1,0,1:0:0:0:
424,132,79417,1,0,0:0:0:0:
424,52,79739,1,4,1:1:0:0:
256,192,79819,12,0,81993,0:0:0:0:
