osu file format v14

[General]
AudioFilename: audio.mp3
AudioLeadIn: 0
PreviewTime: 59771
Countdown: 0
SampleSet: Soft
StackLeniency: 0.7
Mode: 0
LetterboxInBreaks: 0
WidescreenStoryboard: 1

[Editor]
Bookmarks: 30883,82604
DistanceSpacing: 1.2
BeatDivisor: 4
GridSize: 4
TimelineZoom: 1

[Metadata]
Title:Duvet (TV Size)
TitleUnicode:Duvet (TV Size)
Artist:BoA
ArtistUnicode:BoA
Creator:340
Version:Advanced
Source:Serial Experiments Lain
Tags:シリアルエクスペリメンツレイン op opening Namki
BeatmapID:1263646
BeatmapSetID:428311

[Difficulty]
HPDrainRate:4
CircleSize:3.7
OverallDifficulty:5
ApproachRate:6
SliderMultiplier:1.3
SliderTickRate:1

[Events]
//Background and Video events
0,0,"rsz_1326980798427.jpg",0,0
//Break Periods
//Storyboard Layer 0 (Background)
//Storyboard Layer 1 (Fail)
//Storyboard Layer 2 (Pass)
//Storyboard Layer 3 (Foreground)
//Storyboard Sound Samples

[TimingPoints]
1575,322.061191626409,4,2,0,40,1,0
23636,-100,4,2,0,25,0,0
23797,-100,4,2,0,40,0,0
31849,-133.333333333333,4,2,0,40,0,0
32492,-100,4,2,0,40,0,1
40770,322.061191626409,4,2,0,40,1,0
40770,-181.818181818181,4,2,0,40,0,0
41414,-100,4,2,0,40,0,1
42380,-100,4,3,0,30,0,1
51398,-100,4,2,0,40,0,0
51720,-100,4,2,0,40,0,1
58000,-100,4,3,0,30,0,1
59771,-100,4,2,0,15,0,1
60093,-100,4,2,0,20,0,1
60415,-100,4,2,0,20,0,1
60737,-100,4,2,0,40,0,1
61381,-100,4,2,0,40,0,0
62026,-100,4,2,0,40,0,1
64199,-100,4,2,0,40,0,0
64280,-100,4,2,0,40,0,1
67098,-100,4,2,0,40,0,0
67179,-100,4,2,0,40,0,1
69352,-100,4,2,0,40,0,0
69433,-100,4,2,0,40,0,1
72251,-100,4,2,0,40,0,0
72331,-100,4,2,0,40,0,1
74505,-100,4,2,0,40,0,0
74586,-100,4,2,0,40,0,1
77404,-100,4,2,0,40,0,0
77484,-100,4,2,0,40,0,1
79658,-100,4,2,0,40,0,0
79739,-100,4,2,0,40,0,1
79819,-100,4,2,0,40,0,0
80383,-133.333333333333,4,2,0,40,0,0
82604,322.061191626409,4,2,0,40,1,0

[Colours]
Combo1 : 169,158,97
Combo2 : 67,188,77
Combo3 : 197,197,67

[HitObjects]
56,180,1575,6,0,P|112:208|188:196,1,130,4|2,1:2|2:0,0:0:0:0:
204,128,2058,2,0,P|212:192|252:264,1,130,0|0,0:0|0:0,0:0:0:0:
316,268,2541,2,0,P|344:228|364:208,1,65,2|0,0:0|0:0,0:0:0:0:
428,80,3024,5,0,0:0:0:0:
352,52,3185,2,0,P|300:56|260:68,1,65
212,84,3507,1,0,1:0:0:0:
72,136,3829,5,0,0:0:0:0:
80,212,3990,2,0,L|56:252,2,32.5,0|0|4,0:0|0:0|0:0,0:0:0:0:
156,200,4312,1,0,0:0:0:0:
232,200,4473,2,0,P|268:200|308:212,1,65,2|0,0:0|0:0,0:0:0:0:
372,220,4795,2,0,P|388:176|388:144,1,65,0|0,1:0|0:0,0:0:0:0:
380,80,5117,6,0,P|420:136|492:176,2,130,2|0|2,0:0|0:0|0:0,0:0:0:0:
312,44,5922,1,0,0:0:0:0:
260,104,6083,2,0,P|208:128|176:132,1,65,0|0,1:0|0:0,0:0:0:0:
124,148,6405,2,0,P|112:104|112:64,1,65,0|0,0:0|0:0,0:0:0:0:
116,8,6727,6,0,P|92:72|44:124,1,130,4|0,0:0|0:0,0:0:0:0:
0,180,7211,2,0,P|60:184|128:232,1,130
172,276,7694,2,0,P|224:232|300:216,1,130,0|2,0:0|0:0,0:0:0:0:
352,252,8177,2,0,P|356:292|372:328,2,65,0|2|0,0:0|0:0|0:0,0:0:0:0:
420,212,8660,1,0,1:0:0:0:
472,52,8982,5,0,0:0:0:0:
396,64,9143,2,0,L|364:44,2,32.5,0|0|4,0:0|0:0|0:0,0:0:0:0:
380,140,9465,1,0,0:0:0:0:
304,136,9626,2,0,P|264:128|232:112,1,65,2|0,0:0|0:0,0:0:0:0:
176,76,9948,2,0,P|164:112|156:164,1,65,0|0,1:0|0:0,0:0:0:0:
168,216,10270,6,0,P|136:160|77:136,2,130,2|2|0,0:0|0:0|0:0,0:0:0:0:
164,292,11075,1,0,0:0:0:0:
236,260,11236,2,0,P|272:256|308:264,1,65,0|0,1:0|0:0,0:0:0:0:
376,276,11558,2,0,P|408:240|420:208,1,65,0|0,0:0|0:0,0:0:0:0:
488,200,11880,6,0,P|424:188|372:148,1,130,4|0,0:0|0:0,0:0:0:0:
368,72,12364,2,0,P|352:136|300:200,1,130,0|0,0:0|0:0,0:0:0:0:
256,236,12847,2,0,P|224:212|124:180,1,130,0|0,0:0|0:0,0:0:0:0:
92,120,13330,2,0,P|112:88|124:40,2,65,0|2|0,0:0|0:0|0:0,0:0:0:0:
40,180,13813,1,0,1:0:0:0:
112,316,14135,5,0,0:0:0:0:
168,260,14296,2,0,L|152:216,2,32.5,0|0|4,0:0|0:0|0:0,0:0:0:0:
236,296,14618,1,0,0:0:0:0:
312,284,14779,2,0,P|352:260|372:236,1,65,2|0,0:0|0:0,0:0:0:0:
392,172,15101,2,0,P|340:156|316:136,1,65,0|0,1:0|0:0,0:0:0:0:
304,76,15423,6,0,P|288:128|232:200,2,130,0|0|2,0:0|0:0|0:0,0:0:0:0:
248,20,16228,1,0,0:0:0:0:
192,72,16389,2,0,P|152:92|108:96,1,65,0|0,1:0|0:0,0:0:0:0:
56,108,16711,2,0,P|48:164|52:200,1,65,0|0,0:0|0:0,0:0:0:0:
32,248,17033,6,0,P|100:220|168:208,1,130,4|0,0:0|0:0,0:0:0:0:
232,204,17517,2,0,P|264:240|352:272,1,130,0|0,0:0|0:0,0:0:0:0:
412,240,18000,2,0,P|384:196|376:112,1,130,0|0,0:0|0:0,0:0:0:0:
420,56,18483,2,0,P|464:48|488:36,2,65,0|2|0,0:0|0:0|0:0,0:0:0:0:
344,36,18966,1,0,1:0:0:0:
188,48,19288,5,0,0:0:0:0:
120,88,19449,2,0,L|88:80,2,32.5,0|0|2,0:0|0:0|0:0,0:0:0:0:
156,156,19771,1,0,0:0:0:0:
220,200,19932,2,0,P|268:192|300:176,1,65,0|0,0:0|0:0,0:0:0:0:
336,128,20254,1,0,1:0:0:0:
400,176,20415,6,0,P|416:208|424:248,1,65
464,304,20737,2,0,P|396:280|312:280,1,130,2|2,0:3|0:3,0:0:0:0:
184,308,21381,1,2,0:0:0:0:
120,264,21542,2,0,P|84:212|72:140,1,130,0|0,0:0|0:0,0:0:0:0:
20,92,22025,2,0,P|96:128|168:128,1,130
220,132,22508,2,0,P|252:88|320:44,1,130,0|0,0:0|1:0,0:0:0:0:
432,148,23153,6,0,P|460:180|492:200,2,65,2|0|2,0:0|0:0|0:0,0:0:0:0:
376,92,23636,1,4,0:0:0:0:
316,144,23797,2,0,P|284:184|272:212,1,65,0|2,0:0|0:0,0:0:0:0:
236,264,24119,2,0,P|292:272|328:284,1,65,0|0,0:0|0:0,0:0:0:0:
264,344,24441,2,0,P|208:344|128:320,1,130,2|4,0:0|0:0,0:0:0:0:
32,212,25085,2,0,P|28:172|32:140,1,65
56,72,25407,1,0,1:0:0:0:
208,68,25729,6,0,P|228:108|248:204,1,130,0|2,0:0|0:0,0:0:0:0:
120,292,26373,2,0,P|112:228|124:148,2,130,0|0|0,0:0|1:0|0:0,0:0:0:0:
272,324,27339,2,0,P|344:296|416:292,1,130,4|0,0:0|0:0,0:0:0:0:
464,328,27822,2,0,P|416:272|392:208,1,130,0|0,0:0|0:0,0:0:0:0:
384,144,28306,2,0,P|320:120|248:112,1,130,2|0,0:0|0:0,0:0:0:0:
192,148,28789,2,0,P|168:184|132:212,2,65,0|2|0,0:0|0:0|0:0,0:0:0:0:
160,76,29272,1,0,1:0:0:0:
32,168,29594,5,0,0:0:0:0:
68,236,29755,2,0,L|48:276,2,32.5,0|0|0,0:0|0:0|0:0,0:0:0:0:
144,256,30077,1,0,0:0:0:0:
220,256,30238,2,0,P|260:240|284:224,1,65,2|0,0:0|0:0,0:0:0:0:
332,172,30560,2,0,P|292:148|272:128,1,65,0|0,1:0|0:0,0:0:0:0:
212,96,30882,6,0,P|288:108|456:48,1,260
304,20,31848,1,4,0:0:0:0:
188,16,32170,2,0,P|160:96|160:128,1,97.50000371933
144,184,32653,1,0,0:0:0:0:
156,260,32814,2,0,P|176:292|276:356,1,130,0|0,0:0|1:0,0:0:0:0:
344,228,33459,2,0,P|380:180|396:148,1,65
396,100,33781,6,0,P|332:88|252:100,2,130,0|0|0,0:0|0:0|1:0,0:0:0:0:
404,244,34747,2,0,P|320:192|156:200,1,260,4|0,0:0|0:0,0:0:0:0:
148,352,35713,1,0,0:0:0:0:
104,44,36357,6,0,P|96:96|56:176,2,130,0|0|0,0:0|0:0|1:0,0:0:0:0:
260,24,37323,2,0,P|324:44|384:108,1,130,2|4,0:0|0:0,0:0:0:0:
404,156,37806,1,0,0:0:0:0:
396,232,37967,2,0,P|352:292|280:324,1,130,0|0,0:0|1:0,0:0:0:0:
124,168,38773,2,0,L|112:136,2,32.5,0|0|2,0:0|0:0|0:0,0:0:0:0:
148,324,39256,1,0,1:0:0:0:
300,292,39578,1,0,3:0:0:0:
272,140,39900,1,4,0:3:0:0:
272,140,40770,5,4,0:0:0:0:
272,140,41414,2,0,P|248:204|92:300,1,260,4|0,0:0|1:0,0:0:0:0:
48,152,42380,1,0,0:0:0:0:
96,92,42541,2,0,L|80:60,2,32.5
172,96,42863,1,0,0:0:0:0:
244,68,43024,2,0,L|316:56,1,65
380,92,43346,1,0,0:0:0:0:
456,228,43668,5,0,0:0:0:0:
408,288,43829,2,0,L|424:320,2,32.5
332,284,44151,1,0,0:0:0:0:
260,312,44312,2,0,L|184:304,1,65
124,276,44634,1,0,0:0:0:0:
60,132,44956,5,0,0:0:0:0:
108,72,45117,2,0,L|104:40,2,32.5
176,108,45439,1,0,0:0:0:0:
244,72,45600,2,0,L|328:80,1,65
384,56,45922,1,0,0:0:0:0:
352,208,46245,5,0,0:0:0:0:
296,260,46406,2,0,L|300:304,2,32.5
224,232,46728,1,0,0:0:0:0:
152,264,46889,2,0,L|88:264,1,65
16,236,47211,1,0,0:0:0:0:
68,88,47533,5,0,0:0:0:0:
144,72,47694,2,0,L|140:40,2,32.5
216,108,48016,1,0,0:0:0:0:
292,88,48177,2,0,L|360:136,1,65
424,136,48499,1,0,0:0:0:0:
432,292,48821,5,0,0:0:0:0:
356,308,48982,2,0,L|360:340,2,32.5
280,300,49304,1,0,0:0:0:0:
212,260,49465,2,0,L|136:284,1,65
80,248,49787,1,0,0:0:0:0:
80,92,50109,5,0,0:0:0:0:
156,76,50270,2,0,L|152:44,2,32.5
228,112,50592,1,0,0:0:0:0:
304,92,50753,2,0,L|380:92,1,65
436,128,51075,1,0,0:0:0:0:
440,296,51398,5,0,0:0:0:0:
368,324,51559,2,0,L|328:324,2,32.5,0|0|4,0:0|0:0|0:0,0:0:0:0:
320,184,52042,1,0,0:0:0:0:
252,44,52364,2,0,P|180:48|124:84,1,130,2|0,1:2|0:0,0:0:0:0:
52,68,52847,2,0,P|88:108|128:184,1,130,0|0,0:0|0:0,0:0:0:0:
132,252,53330,2,0,P|180:268|264:264,1,130,2|0,0:0|1:0,0:0:0:0:
320,312,53813,2,0,P|296:256|296:176,1,130,0|0,0:0|0:0,0:0:0:0:
364,152,54296,2,0,P|328:96|248:56,1,130,2|0,0:0|0:0,0:0:0:0:
196,64,54779,6,0,P|200:128|32:320,1,325
188,256,55906,2,0,P|260:252|376:292,1,195,2|0,0:0|0:0,0:0:0:0:
444,332,56550,2,0,P|396:296|344:108,1,260,2|8,0:0|0:3,0:0:0:0:
476,192,57517,1,0,1:0:0:0:
168,244,58161,6,0,P|120:284|40:308,2,130
116,104,59771,6,0,P|168:104|200:112,1,65,2|0,0:1|0:1,0:0:0:0:
244,60,60093,2,0,P|280:76|304:96,1,65,2|0,0:1|0:1,0:0:0:0:
376,72,60415,2,0,P|392:108|400:152,1,65,2|0,0:1|0:0,0:0:0:0:
396,212,60737,6,0,P|328:176|248:172,2,130,4|0|0,0:3|0:0|1:0,0:0:0:0:
280,316,61703,2,0,P|248:260|120:208,1,195
60,232,62348,2,0,P|116:168|128:116,1,130,2|0,0:0|1:0,0:0:0:0:
416,176,63314,6,0,P|388:124|384:48,2,130,0|2|0,0:0|0:0|1:0,0:0:0:0:
348,316,64280,2,0,P|288:232|184:200,1,195,4|0,0:0|0:0,0:0:0:0:
128,200,64924,2,0,P|120:252|72:320,1,130,0|0,0:0|1:0,0:0:0:0:
272,72,65890,6,0,P|316:96|376:160,2,130,0|2|0,0:0|0:0|1:0,0:0:0:0:
284,228,66856,2,0,P|356:180|492:168,1,195,2|0,0:0|0:0,0:0:0:0:
464,240,67501,2,0,P|424:264|368:336,1,130,0|0,0:1|1:0,0:0:0:0:
60,316,68467,6,0,P|36:272|28:192,1,130,0|2,0:0|0:0,0:0:0:0:
176,148,69111,1,0,1:0:0:0:
288,256,69433,2,0,P|220:280|100:220,1,195,4|0,0:0|0:0,0:0:0:0:
68,168,70077,2,0,P|52:116|68:36,1,130,0|0,0:0|1:0,0:0:0:0:
208,100,70721,6,0,P|276:96|344:68,1,130,0|2,0:0|0:0,0:0:0:0:
480,128,71365,2,0,P|436:192|360:220,1,130,0|0,0:0|0:0,0:0:0:0:
252,284,72009,2,0,P|136:272|72:220,1,195,2|0,0:0|0:0,0:0:0:0:
68,148,72654,2,0,P|104:128|148:44,1,130,0|0,0:0|1:0,0:0:0:0:
416,212,73620,6,0,P|448:148|456:84,2,130,2|0|0,0:0|0:0|0:0,0:0:0:0:
288,300,74586,2,0,P|252:252|132:176,1,195,4|0,0:0|0:0,0:0:0:0:
64,172,75230,2,0,P|140:136|176:80,1,130,2|0,0:0|0:0,0:0:0:0:
472,168,76196,6,0,P|436:240|388:280,2,130,0|2|0,0:0|0:0|1:0,0:0:0:0:
348,72,77162,2,0,P|280:144|184:152,1,195,2|0,0:0|0:0,0:0:0:0:
124,108,77807,2,0,P|80:152|40:232,1,130,0|0,0:0|1:0,0:0:0:0:
272,272,78612,6,0,L|248:240,2,32.5,0|0|8,0:0|0:0|0:3,0:0:0:0:
420,324,79095,1,0,1:0:0:0:
472,176,79417,1,0,0:0:0:0:
324,128,79739,1,4,1:0:0:0:
256,192,79819,12,0,81993,0:0:0:0:
