osu file format v14

[General]
AudioFilename: audio.mp3
AudioLeadIn: 0
PreviewTime: 167793
Countdown: 0
SampleSet: Soft
StackLeniency: 0.7
Mode: 0
LetterboxInBreaks: 0
WidescreenStoryboard: 1

[Editor]
DistanceSpacing: 0.3
BeatDivisor: 12
GridSize: 32
TimelineZoom: 2.299999

[Metadata]
Title:Welcome to the Internet
TitleUnicode:Welcome to the Internet
Artist:Bo Burnham
ArtistUnicode:Bo Burnham
Creator:Crowley
Version:Turmoil
Source:Bo Burnham: Inside
Tags:Stand-up Musical Novelty English Comedy Standup Netflix
BeatmapID:3049179
BeatmapSetID:1487231

[Difficulty]
HPDrainRate:6
CircleSize:4.4
OverallDifficulty:8
ApproachRate:8.8
SliderMultiplier:1.8
SliderTickRate:1

[Events]
//Background and Video events
0,0,"bo burnhm.png",0,0
Video,-1131,"heisenberg.mp4"
//Break Periods
2,229572,230638
//Storyboard Layer 0 (Background)
//Storyboard Layer 1 (Fail)
//Storyboard Layer 2 (Pass)
//Storyboard Layer 3 (Foreground)
//Storyboard Layer 4 (Overlay)
//Storyboard Sound Samples

[TimingPoints]
214,480,4,2,1,50,1,0
214,-100,4,2,1,50,0,0
454,-100,4,2,2,50,0,0
694,-100,4,2,1,50,0,0
934,-100,4,2,2,50,0,0
1174,-100,4,2,1,50,0,0
1414,-100,4,2,2,50,0,0
1654,-100,4,2,1,50,0,0
1894,-100,4,2,2,50,0,0
2134,-100,4,2,1,50,0,0
2374,-100,4,2,2,50,0,0
2614,-100,4,2,1,50,0,0
2854,-100,4,2,2,50,0,0
3094,-100,4,2,1,50,0,0
3574,-100,4,2,1,50,0,0
3814,-100,4,2,2,50,0,0
4054,-100,4,2,1,50,0,0
4294,-100,4,2,2,50,0,0
4534,-100,4,2,1,50,0,0
4774,-100,4,2,2,50,0,0
5014,-100,4,2,1,50,0,0
5254,-100,4,2,2,50,0,0
5494,-100,4,2,1,50,0,0
5734,-100,4,2,2,50,0,0
5974,-100,4,2,1,50,0,0
6214,-100,4,2,2,50,0,0
6454,-100,4,2,1,50,0,0
6694,-100,4,2,2,50,0,0
6934,-100,4,2,1,50,0,0
7174,-100,4,2,2,50,0,0
7414,-100,4,2,1,50,0,0
7654,-100,4,2,2,50,0,0
7894,-100,4,2,1,50,0,0
8134,-100,4,2,2,50,0,0
8374,-100,4,2,1,50,0,0
8614,-100,4,2,2,50,0,0
8854,-100,4,2,1,50,0,0
9094,-100,4,2,2,50,0,0
9334,-100,4,2,1,50,0,0
9574,-100,4,2,2,50,0,0
9814,-100,4,2,1,50,0,0
10054,-100,4,2,2,50,0,0
10294,-100,4,2,1,50,0,0
10534,-100,4,2,2,50,0,0
10774,-100,4,2,1,50,0,0
11014,-100,4,2,2,50,0,0
11254,-100,4,2,1,50,0,0
11494,-100,4,2,2,50,0,0
11734,-100,4,2,1,50,0,0
11974,-100,4,2,2,50,0,0
12214,-100,4,2,1,50,0,0
12454,-100,4,2,2,50,0,0
12694,-100,4,2,1,50,0,0
12934,-100,4,2,2,50,0,0
13174,-100,4,2,1,50,0,0
13414,-100,4,2,2,50,0,0
15574,-100,4,2,1,60,0,0
15814,-100,4,2,2,60,0,0
16534,-100,4,2,1,60,0,0
16774,-100,4,2,2,60,0,0
17014,-100,4,2,1,60,0,0
17254,-100,4,2,2,60,0,0
17494,-100,4,2,1,60,0,0
17734,-100,4,2,2,60,0,0
17974,-100,4,2,1,60,0,0
18214,-100,4,2,2,60,0,0
18454,-100,4,2,1,60,0,0
18814,-100,4,2,1,30,0,0
18934,-100,4,2,1,60,0,0
19174,-100,4,2,2,60,0,0
19414,-100,4,2,1,60,0,0
19654,-100,4,2,2,60,0,0
19894,-100,4,2,1,60,0,0
20134,-100,4,2,2,60,0,0
20374,-100,4,2,1,60,0,0
20614,-100,4,2,2,60,0,0
20854,-100,4,2,1,60,0,0
21094,-100,4,2,2,60,0,0
21334,-100,4,2,1,60,0,0
21574,-100,4,2,2,60,0,0
21814,-100,4,2,1,60,0,0
22054,-100,4,2,2,60,0,0
22294,-100,4,2,1,60,0,0
23014,-100,4,2,2,60,0,0
23254,-100,4,2,1,60,0,0
23494,-100,4,2,2,60,0,0
24214,-100,4,2,1,60,0,0
24454,-100,4,2,2,60,0,0
24694,-100,4,2,1,60,0,0
24934,-100,4,2,2,60,0,0
25174,-100,4,2,1,60,0,0
25414,-100,4,2,2,60,0,0
25654,-100,4,2,1,60,0,0
25894,-100,4,2,2,60,0,0
26134,-100,4,2,1,60,0,0
26374,-100,4,2,2,60,0,0
26614,-100,4,2,1,60,0,0
26854,-100,4,2,2,60,0,0
27094,-100,4,2,1,60,0,0
27334,-100,4,2,2,60,0,0
27574,-100,4,2,1,60,0,0
27814,-100,4,2,2,60,0,0
28054,-100,4,2,1,60,0,0
28294,-100,4,2,2,60,0,0
28534,-100,4,2,1,60,0,0
28774,-100,4,2,2,60,0,0
29014,-100,4,2,1,60,0,0
29254,-100,4,2,2,60,0,0
29494,-100,4,2,1,60,0,0
29734,-100,4,2,2,60,0,0
29974,-100,4,2,1,60,0,0
30214,-100,4,2,2,60,0,0
30934,-86.9565217391304,4,2,1,60,0,0
31174,-86.9565217391304,4,2,2,60,0,0
31414,-86.9565217391304,4,2,1,60,0,0
31654,-86.9565217391304,4,2,2,60,0,0
31894,-86.9565217391304,4,2,1,60,0,0
32134,-86.9565217391304,4,2,2,60,0,0
32374,-86.9565217391304,4,2,1,60,0,0
32574,-26.3157894736842,4,2,2,60,0,0
32854,-86.9565217391304,4,2,1,60,0,0
33094,-86.9565217391304,4,2,2,60,0,0
33334,-86.9565217391304,4,2,1,60,0,0
33574,-86.9565217391304,4,2,2,60,0,0
33814,-86.9565217391304,4,2,1,60,0,0
34054,-86.9565217391304,4,2,2,60,0,0
34294,-86.9565217391304,4,2,1,60,0,0
34534,-86.9565217391304,4,2,2,60,0,0
34774,-86.9565217391304,4,2,1,60,0,0
35014,-86.9565217391304,4,2,2,60,0,0
35254,-86.9565217391304,4,2,1,60,0,0
35494,-86.9565217391304,4,2,2,60,0,0
35734,-86.9565217391304,4,2,1,60,0,0
35974,-86.9565217391304,4,2,2,60,0,0
36214,-86.9565217391304,4,2,1,60,0,0
36454,-86.9565217391304,4,2,2,60,0,0
36694,-86.9565217391304,4,2,1,60,0,0
36934,-86.9565217391304,4,2,2,60,0,0
37174,-86.9565217391304,4,2,1,60,0,0
37414,-86.9565217391304,4,2,2,60,0,0
37654,-86.9565217391304,4,2,1,60,0,0
38014,-86.9565217391304,4,2,1,30,0,0
38134,-86.9565217391304,4,2,1,60,0,0
38374,-86.9565217391304,4,2,2,60,0,0
38614,-86.9565217391304,4,2,1,60,0,0
38854,-86.9565217391304,4,2,2,60,0,0
39574,-86.9565217391304,4,2,1,60,0,0
39814,-86.9565217391304,4,2,2,60,0,0
40534,-86.9565217391304,4,2,1,60,0,0
40774,-86.9565217391304,4,2,2,60,0,0
41014,-86.9565217391304,4,2,1,60,0,0
41254,-86.9565217391304,4,2,2,60,0,0
41494,-86.9565217391304,4,2,1,60,0,0
41734,-86.9565217391304,4,2,2,60,0,0
41974,-86.9565217391304,4,2,1,60,0,0
42214,-86.9565217391304,4,2,2,60,0,0
42454,-86.9565217391304,4,2,1,60,0,0
42694,-86.9565217391304,4,2,2,60,0,0
42934,-86.9565217391304,4,2,1,60,0,0
43174,-86.9565217391304,4,2,2,60,0,0
43414,-86.9565217391304,4,2,1,60,0,0
43654,-86.9565217391304,4,2,2,60,0,0
43894,-86.9565217391304,4,2,1,60,0,0
44134,-86.9565217391304,4,2,2,60,0,0
44374,-86.9565217391304,4,2,1,60,0,0
44614,-86.9565217391304,4,2,2,60,0,0
44854,-86.9565217391304,4,2,1,60,0,0
45094,-86.9565217391304,4,2,2,60,0,0
45334,-86.9565217391304,4,2,1,60,0,0
45574,-86.9565217391304,4,2,2,60,0,0
46294,-80,4,2,1,65,0,0
46534,-80,4,2,2,65,0,0
46774,-80,4,2,1,65,0,0
47254,-80,4,2,1,65,0,0
47494,-80,4,2,2,65,0,0
47734,-80,4,2,1,65,0,0
47974,-80,4,2,2,65,0,0
48214,468.750000000001,4,2,1,65,1,0
48214,-80,4,2,1,65,0,0
48448,-80,4,2,2,65,0,0
48682,-80,4,2,1,65,0,0
48916,-80,4,2,2,65,0,0
49151,-80,4,2,1,65,0,0
49854,-80,4,2,2,65,0,0
50089,461.538461538462,4,2,1,65,1,0
50089,-80,4,2,1,65,0,0
50319,-80,4,2,2,65,0,0
50550,-80,4,2,1,65,0,0
50780,-80,4,2,2,65,0,0
51012,-80,4,2,1,65,0,0
51242,-80,4,2,2,65,0,0
51473,-80,4,2,1,65,0,0
51703,-80,4,2,2,65,0,0
51935,-80,4,2,1,65,0,0
52165,-80,4,2,2,65,0,0
52396,-80,4,2,1,65,0,0
52626,-80,4,2,2,65,0,0
52858,-80,4,2,1,65,0,0
53549,-80,4,2,2,65,0,0
53781,451.127819548872,4,2,1,65,1,0
53781,-83.3333333333333,4,2,1,65,0,0
54006,-83.3333333333333,4,2,2,65,0,0
54683,-83.3333333333333,4,2,1,65,0,0
54908,-83.3333333333333,4,2,2,65,0,0
55134,-83.3333333333333,4,2,1,65,0,0
55359,-83.3333333333333,4,2,2,65,0,0
55585,447.761194029851,4,2,1,65,1,0
55585,-83.3333333333333,4,2,1,65,0,0
55808,-83.3333333333333,4,2,2,65,0,0
56032,-83.3333333333333,4,2,1,65,0,0
56255,-83.3333333333333,4,2,2,65,0,0
56928,-83.3333333333333,4,2,1,65,0,0
57151,-83.3333333333333,4,2,2,65,0,0
57376,444.444444444445,4,2,1,65,1,0
57376,-83.3333333333333,4,2,1,65,0,0
57598,-83.3333333333333,4,2,2,65,0,0
57820,-83.3333333333333,4,2,1,65,0,0
58042,-83.3333333333333,4,2,2,65,0,0
58264,-83.3333333333333,4,2,1,65,0,0
58486,-83.3333333333333,4,2,2,65,0,0
58709,-83.3333333333333,4,2,1,65,0,0
58931,-83.3333333333333,4,2,2,65,0,0
59154,428.571428571429,4,2,1,65,1,0
59154,-86.9565217391304,4,2,1,65,0,0
59368,-86.9565217391304,4,2,2,65,0,0
59582,-86.9565217391304,4,2,1,65,0,0
59796,-86.9565217391304,4,2,2,65,0,0
60011,-86.9565217391304,4,2,1,65,0,0
60225,-86.9565217391304,4,2,2,65,0,0
60439,-86.9565217391304,4,2,1,65,0,0
60868,-86.9565217391304,4,2,1,65,0,0
61082,-86.9565217391304,4,2,2,65,0,0
61296,-86.9565217391304,4,2,1,65,0,0
61510,-86.9565217391304,4,2,2,65,0,0
61725,-86.9565217391304,4,2,1,65,0,0
61939,-86.9565217391304,4,2,2,65,0,0
62154,-86.9565217391304,4,2,1,65,0,0
62368,-86.9565217391304,4,2,2,65,0,0
62582,419.58041958042,4,2,1,65,1,0
62582,-86.9565217391304,4,2,1,65,0,0
62791,-86.9565217391304,4,2,2,65,0,0
63001,-86.9565217391304,4,2,1,65,0,0
63210,-86.9565217391304,4,2,2,65,0,0
63421,-86.9565217391304,4,2,1,65,0,0
63735,-86.9565217391304,4,2,1,35,0,0
63840,-86.9565217391304,4,2,1,65,0,0
64049,-86.9565217391304,4,2,2,65,0,0
64260,410.958904109589,4,2,1,65,1,0
64260,-86.9565217391304,4,2,1,65,0,0
64465,-86.9565217391304,4,2,2,65,0,0
64670,-86.9565217391304,4,2,1,65,0,0
64875,-86.9565217391304,4,2,2,65,0,0
65081,-86.9565217391304,4,2,1,65,0,0
65286,-86.9565217391304,4,2,2,65,0,0
65492,-86.9565217391304,4,2,1,65,0,0
65697,-86.9565217391304,4,2,2,65,0,0
65903,402.68456375839,4,2,1,65,1,0
65903,-90.9090909090909,4,2,1,65,0,0
66104,-90.9090909090909,4,2,2,65,0,0
66305,-90.9090909090909,4,2,1,65,0,0
66506,-90.9090909090909,4,2,2,65,0,0
66708,-90.9090909090909,4,2,1,65,0,0
67010,-90.9090909090909,4,2,1,35,0,0
67111,-90.9090909090909,4,2,1,65,0,0
67312,-90.9090909090909,4,2,2,65,0,0
67513,392.156862745098,4,2,1,65,1,0
67513,-90.9090909090909,4,2,1,65,0,0
67709,-90.9090909090909,4,2,2,65,0,0
67905,-90.9090909090909,4,2,1,65,0,0
68101,-90.9090909090909,4,2,2,65,0,0
68297,-90.9090909090909,4,2,1,65,0,0
68493,-90.9090909090909,4,2,2,65,0,0
68787,-90.9090909090909,4,2,1,35,0,0
68885,-90.9090909090909,4,2,2,65,0,0
69081,382.165605095541,4,2,1,65,1,0
69272,-100,4,2,2,65,0,0
69463,-100,4,2,1,65,0,0
69654,-100,4,2,2,65,0,0
70227,-100,4,2,1,65,0,0
70418,-100,4,2,2,65,0,0
70609,377.358490566038,4,2,1,65,1,0
70797,-100,4,2,2,65,0,0
70986,-100,4,2,1,65,0,0
71174,-100,4,2,2,65,0,0
71363,-100,4,2,1,65,0,0
71551,-100,4,2,2,65,0,0
71741,-100,4,2,1,65,0,0
71929,-100,4,2,2,65,0,0
72118,368.098159509202,4,2,1,65,1,0
72302,-100,4,2,2,65,0,0
72486,-100,4,2,1,65,0,0
72670,-100,4,2,2,65,0,0
72854,-100,4,2,1,65,0,0
73038,-100,4,2,2,65,0,0
73590,363.636363636364,4,2,1,70,1,0
73771,-100,4,2,2,70,0,0
73953,-100,4,2,1,70,0,0
74134,-100,4,2,2,70,0,0
74317,-100,4,2,1,70,0,0
74498,-100,4,2,2,70,0,0
74680,-100,4,2,1,70,0,0
74861,-100,4,2,2,70,0,0
75044,-100,4,2,1,70,0,0
75225,-100,4,2,2,70,0,0
75408,-100,4,2,1,70,0,0
75589,-100,4,2,2,70,0,0
75771,-100,4,2,1,70,0,0
76316,-100,4,2,2,70,0,0
76498,-100,4,2,1,70,0,0
76679,-100,4,2,2,70,0,0
76862,-100,4,2,1,70,0,0
77043,-100,4,2,2,70,0,0
77226,-100,4,2,1,70,0,0
77407,-100,4,2,2,70,0,0
77589,-100,4,2,1,70,0,0
77770,-100,4,2,2,70,0,0
77953,-100,4,2,1,70,0,0
78134,-100,4,2,2,70,0,0
78316,-100,4,2,1,70,0,0
78497,-100,4,2,2,70,0,0
78680,-100,4,2,1,70,0,0
78861,-100,4,2,2,70,0,0
79044,-100,4,2,1,70,0,0
79225,-100,4,2,2,70,0,0
79407,-100,4,2,1,70,0,0
79588,-100,4,2,2,70,0,0
79771,-100,4,2,1,70,0,0
79952,-100,4,2,2,70,0,0
80134,-100,4,2,1,70,0,0
80315,-100,4,2,2,70,0,0
80498,-100,4,2,1,70,0,0
80679,-100,4,2,2,70,0,0
80862,-100,4,2,1,70,0,0
81043,-100,4,2,2,70,0,0
81225,-100,4,2,1,70,0,0
81406,-100,4,2,2,70,0,0
81589,-100,4,2,1,70,0,0
81770,-100,4,2,2,70,0,0
81952,-100,4,2,1,70,0,0
82133,-100,4,2,2,70,0,0
82316,-100,4,2,1,70,0,0
82497,-100,4,2,2,70,0,0
82680,-100,4,2,1,70,0,0
82861,-100,4,2,2,70,0,0
83043,-100,4,2,1,70,0,0
83224,-100,4,2,2,70,0,0
83407,-100,4,2,1,70,0,0
83588,-100,4,2,2,70,0,0
83770,-100,4,2,1,70,0,0
83951,-100,4,2,2,70,0,0
84134,-100,4,2,1,70,0,0
84315,-100,4,2,2,70,0,0
84499,-100,4,2,1,50,0,0
85044,-100,4,2,69,50,0,0
85226,-100,4,2,1,70,0,0
85407,-100,4,2,2,70,0,0
85589,-100,4,2,1,70,0,0
85770,-100,4,2,2,70,0,0
85953,-100,4,2,1,70,0,0
86134,-100,4,2,2,70,0,0
86316,-100,4,2,1,70,0,0
86497,-100,4,2,2,70,0,0
86680,-100,4,2,1,70,0,0
86861,-100,4,2,2,70,0,0
87044,-100,4,2,1,70,0,0
87225,-100,4,2,2,70,0,0
87407,-100,4,2,1,70,0,0
87952,-100,4,2,2,70,0,0
88134,-100,4,2,1,70,0,0
88315,-100,4,2,2,70,0,0
88498,-100,4,2,1,70,0,0
88679,-100,4,2,2,70,0,0
88862,-100,4,2,1,70,0,0
89043,-100,4,2,2,70,0,0
89225,-100,4,2,1,70,0,0
89406,-100,4,2,2,70,0,0
89589,-100,4,2,1,70,0,0
89770,-100,4,2,2,70,0,0
89952,-100,4,2,1,70,0,0
90133,-100,4,2,2,70,0,0
90316,-100,4,2,1,70,0,0
90497,-100,4,2,2,70,0,0
90680,-66.6666666666667,4,2,3,70,0,0
90953,-66.6666666666667,4,2,7,35,0,0
91044,-100,4,2,1,70,0,0
91224,-100,4,2,2,70,0,0
91407,-100,4,2,1,70,0,0
91588,-100,4,2,2,70,0,0
91771,-83.3333333333333,4,2,1,70,0,0
91951,-83.3333333333333,4,2,2,70,0,0
92134,-83.3333333333333,4,2,1,70,0,0
92315,-83.3333333333333,4,2,2,70,0,0
92499,-100,4,2,1,70,0,0
92679,-100,4,2,2,70,0,0
92861,-100,4,2,1,70,0,0
93042,-100,4,2,2,70,0,0
93225,-100,4,2,1,70,0,0
93406,-100,4,2,2,70,0,0
93588,-100,4,2,1,70,0,0
93769,-100,4,2,2,70,0,0
93952,-100,4,2,1,70,0,0
94133,-100,4,2,2,70,0,0
94316,-100,4,2,1,70,0,0
94497,-100,4,2,2,70,0,0
94679,-100,4,2,1,70,0,0
94860,-100,4,2,2,70,0,0
95043,-100,4,2,1,70,0,0
95224,-100,4,2,2,70,0,0
95406,-100,4,2,1,50,0,0
96862,-100,4,2,20,50,0,0
98317,-153.846153846153,4,2,1,50,0,0
98498,-153.846153846153,4,2,2,50,0,0
98680,-153.846153846153,4,2,1,50,0,0
98861,-153.846153846153,4,2,2,50,0,0
99044,-153.846153846153,4,2,1,50,0,0
99225,-153.846153846153,4,2,2,50,0,0
99407,-153.846153846153,4,2,1,50,0,0
99588,-153.846153846153,4,2,2,50,0,0
99771,-153.846153846153,4,2,1,50,0,0
99952,-153.846153846153,4,2,2,50,0,0
100135,-153.846153846153,4,2,1,50,0,0
100316,-153.846153846153,4,2,2,50,0,0
100498,-153.846153846153,4,2,1,50,0,0
100679,-153.846153846153,4,2,2,50,0,0
100862,-153.846153846153,4,2,1,50,0,0
101043,-153.846153846153,4,2,2,50,0,0
101225,-153.846153846153,4,2,1,50,0,0
101406,-153.846153846153,4,2,2,50,0,0
101589,-153.846153846153,4,2,1,50,0,0
101770,-153.846153846153,4,2,2,50,0,0
101953,-153.846153846153,4,2,1,50,0,0
102134,-153.846153846153,4,2,2,50,0,0
102316,-153.846153846153,4,2,1,50,0,0
102497,-153.846153846153,4,2,2,50,0,0
102680,-153.846153846153,4,2,1,50,0,0
102861,-153.846153846153,4,2,2,50,0,0
103043,-153.846153846153,4,2,1,50,0,0
103224,-153.846153846153,4,2,2,50,0,0
103407,-153.846153846153,4,2,1,50,0,0
103588,-153.846153846153,4,2,2,50,0,0
103771,-153.846153846153,4,2,1,50,0,0
103952,-153.846153846153,4,2,2,50,0,0
104134,-153.846153846153,4,2,1,50,0,0
104315,-153.846153846153,4,2,2,50,0,0
104498,-153.846153846153,4,2,1,50,0,0
104679,-153.846153846153,4,2,2,50,0,0
104861,-153.846153846153,4,2,1,50,0,0
105042,-153.846153846153,4,2,2,50,0,0
105225,-153.846153846153,4,2,1,50,0,0
105406,-153.846153846153,4,2,2,50,0,0
105589,-153.846153846153,4,2,1,50,0,0
105770,-153.846153846153,4,2,2,50,0,0
105952,-153.846153846153,4,2,1,50,0,0
106133,-153.846153846153,4,2,2,50,0,0
106316,-153.846153846153,4,2,1,50,0,0
106497,-153.846153846153,4,2,2,50,0,0
106679,-153.846153846153,4,2,1,50,0,0
106860,-153.846153846153,4,2,2,50,0,0
107043,-153.846153846153,4,2,1,50,0,0
107224,-153.846153846153,4,2,2,50,0,0
107407,-153.846153846153,4,2,1,50,0,0
107588,-153.846153846153,4,2,2,50,0,0
107770,-153.846153846153,4,2,1,50,0,0
107951,-153.846153846153,4,2,2,50,0,0
108134,-153.846153846153,4,2,1,50,0,0
108315,-153.846153846153,4,2,2,50,0,0
108497,-153.846153846153,4,2,1,50,0,0
109953,-90.9090909090909,4,2,1,70,0,1
110134,-90.9090909090909,4,2,2,70,0,1
110316,-90.9090909090909,4,2,1,70,0,1
110497,-90.9090909090909,4,2,2,70,0,1
110680,-90.9090909090909,4,2,1,70,0,1
110861,-90.9090909090909,4,2,2,70,0,1
111043,-90.9090909090909,4,2,1,70,0,1
111224,-90.9090909090909,4,2,2,70,0,1
111407,-90.9090909090909,4,2,1,70,0,1
111588,-90.9090909090909,4,2,2,70,0,1
111771,-90.9090909090909,4,2,1,70,0,1
111952,-90.9090909090909,4,2,2,70,0,1
112134,-90.9090909090909,4,2,1,70,0,1
112315,-90.9090909090909,4,2,2,70,0,1
112498,-90.9090909090909,4,2,1,70,0,1
112679,-90.9090909090909,4,2,2,70,0,1
112861,-90.9090909090909,4,2,1,70,0,1
113042,-90.9090909090909,4,2,2,70,0,1
113225,-90.9090909090909,4,2,1,70,0,1
113406,-90.9090909090909,4,2,2,70,0,1
113589,-90.9090909090909,4,2,1,70,0,1
113770,-90.9090909090909,4,2,2,70,0,1
113952,-90.9090909090909,4,2,1,70,0,1
114133,-90.9090909090909,4,2,2,70,0,1
114316,-90.9090909090909,4,2,1,70,0,1
114497,-90.9090909090909,4,2,2,70,0,1
114679,-90.9090909090909,4,2,1,70,0,1
114860,-90.9090909090909,4,2,2,70,0,1
115043,-90.9090909090909,4,2,1,70,0,1
115224,-90.9090909090909,4,2,2,70,0,1
115407,-90.9090909090909,4,2,1,70,0,1
115588,-90.9090909090909,4,2,2,70,0,1
115770,-90.9090909090909,4,2,1,70,0,1
115951,-90.9090909090909,4,2,2,70,0,1
116134,-90.9090909090909,4,2,1,70,0,1
116315,-90.9090909090909,4,2,2,70,0,1
116497,-90.9090909090909,4,2,1,70,0,1
116678,-90.9090909090909,4,2,2,70,0,1
116861,-90.9090909090909,4,2,1,70,0,1
117042,-90.9090909090909,4,2,2,70,0,1
117225,-90.9090909090909,4,2,1,70,0,1
117406,-90.9090909090909,4,2,2,70,0,1
117588,-90.9090909090909,4,2,1,70,0,1
117769,-90.9090909090909,4,2,2,70,0,1
117952,-90.9090909090909,4,2,1,70,0,1
118133,-90.9090909090909,4,2,2,70,0,1
118315,-90.9090909090909,4,2,1,70,0,1
118496,-90.9090909090909,4,2,2,70,0,1
118679,-90.9090909090909,4,2,1,70,0,1
118860,-90.9090909090909,4,2,2,70,0,1
119043,-90.9090909090909,4,2,1,70,0,1
119224,-90.9090909090909,4,2,2,70,0,1
119406,-90.9090909090909,4,2,1,70,0,1
119587,-90.9090909090909,4,2,2,70,0,1
119770,-90.9090909090909,4,2,1,70,0,1
119951,-90.9090909090909,4,2,2,70,0,1
120135,-90.9090909090909,4,2,1,50,0,0
123290,631.578947368422,3,2,1,40,1,0
123290,-83.3333333333333,3,2,1,40,0,0
123921,-83.3333333333333,3,2,2,40,0,0
125187,-83.3333333333333,3,2,1,40,0,0
125816,-83.3333333333333,3,2,2,40,0,0
127079,638.297872340426,3,2,1,40,1,0
127079,-83.3333333333333,3,2,1,40,0,0
127711,-83.3333333333333,3,2,2,40,0,0
128975,600,3,2,1,40,1,0
128975,-83.3333333333333,3,2,1,40,0,0
129575,-83.3333333333333,3,2,2,40,0,0
130221,720.720720720721,3,2,1,40,1,0
130221,-66.6666666666667,3,2,2,40,0,0
130723,-66.6666666666667,3,2,2,20,0,0
130903,571.428571428572,3,2,1,40,1,0
130903,-83.3333333333333,3,2,1,40,0,0
131474,-83.3333333333333,3,2,2,40,0,0
132138,625,3,2,2,40,1,0
132138,-100,3,2,2,40,0,0
132758,631.578947368423,3,2,1,40,1,0
132758,-83.3333333333333,3,2,1,40,0,0
133383,-83.3333333333333,3,2,2,40,0,0
134633,631.578947368422,3,2,1,40,1,0
134633,-83.3333333333333,3,2,1,40,0,0
135262,-83.3333333333333,3,2,2,40,0,0
136563,575.539568345324,3,2,1,40,1,0
137138,653.950953678475,3,2,1,40,1,0
137138,-83.3333333333333,3,2,2,40,0,0
137791,-83.3333333333333,3,2,2,40,0,0
138282,-83.3333333333333,3,2,2,20,0,0
138445,634.920634920635,3,2,1,40,1,0
138445,-83.3333333333333,3,2,1,40,0,0
139065,641.711229946524,3,2,1,40,1,0
139065,-83.3333333333333,3,2,1,40,0,0
140339,576.923076923079,3,2,1,40,1,0
140339,-83.3333333333333,3,2,1,40,0,0
140915,705.88235294118,3,2,1,40,1,0
141626,618.556701030931,3,2,1,40,1,0
141626,-83.3333333333333,3,2,2,40,0,0
142252,631.578947368423,3,2,1,40,1,0
142252,-83.3333333333333,3,2,1,40,0,0
144146,618.55670103093,3,2,1,40,1,0
144764,638.297872340428,3,2,2,40,1,0
144764,-83.3333333333333,3,2,2,40,0,0
145402,652.173913043481,3,2,2,40,1,0
146056,600,3,2,1,40,1,0
146056,-83.3333333333333,3,2,1,40,0,0
146657,681.818181818182,3,2,1,40,1,0
147084,-76.3358778625954,3,2,1,40,0,0
147338,615.384615384616,3,2,1,40,1,0
147955,631.578947368422,3,2,1,40,1,0
148376,-83.3333333333333,3,2,1,40,0,0
149218,588.235294117648,3,2,1,40,1,0
149806,638.297872340427,3,2,1,40,1,0
149806,-83.3333333333333,3,2,1,40,0,0
151400,-78.7401574803149,3,2,1,40,0,0
151676,655.737704918034,3,2,1,40,1,0
152331,-83.3333333333333,3,2,2,40,0,0
152987,-83.3333333333333,3,2,1,40,0,0
153616,615.384615384616,3,2,1,40,1,0
153616,-83.3333333333333,3,2,1,40,0,0
154876,615.384615384616,3,2,2,40,1,0
154876,-83.3333333333333,3,2,2,40,0,0
155492,621.761658031089,3,2,1,40,1,0
155492,-83.3333333333333,3,2,1,40,0,0
156735,-83.3333333333333,3,2,2,40,0,0
157359,636.604774535809,3,2,1,40,1,0
157768,636.604774535809,3,2,1,40,1,0
157768,-83.3333333333333,3,2,1,40,0,0
157995,636.604774535809,3,2,1,40,1,0
157995,-83.3333333333333,3,2,1,40,0,0
159268,606.060606060606,3,2,1,40,1,0
159268,-83.3333333333333,3,2,2,40,0,0
159874,625,3,2,2,40,1,0
159874,-83.3333333333333,3,2,2,40,0,0
160499,577.589526376588,3,2,2,40,1,0
160499,-83.3333333333333,3,2,2,40,0,0
161162,631.578947368421,3,2,1,40,1,0
161162,-83.3333333333333,3,2,1,40,0,0
164951,-105.263157894737,3,2,2,40,0,0
166740,-83.3333333333333,3,2,2,20,0,0
166793,-83.3333333333333,3,2,2,30,0,0
166846,-83.3333333333333,3,2,2,40,0,0
166898,-133.333333333333,3,2,2,40,0,0
168109,-83.3333333333333,3,2,1,40,0,0
168740,-80,3,2,1,50,0,0
169372,-80,3,2,2,50,0,0
170635,-80,3,2,1,50,0,0
171267,-80,3,2,2,50,0,0
171898,-80,3,2,1,50,0,0
173162,-80,3,2,2,50,0,0
173583,-80,3,2,1,50,0,0
174425,-80,3,2,2,50,0,0
175688,-80,3,2,1,50,0,0
179477,-80,3,2,2,50,0,0
180109,-80,3,2,1,50,0,0
182004,-80,3,2,2,50,0,0
183267,-80,3,2,1,50,0,0
189583,-250,3,2,2,30,0,0
190846,-250,3,2,2,5,0,0
191477,-250,3,2,2,30,0,0
194951,-250,3,2,2,5,0,0
195267,-113.636363636364,3,2,2,40,0,0
196846,-250,3,2,2,5,0,0
197162,-250,3,2,2,45,0,0
199056,-66.6666666666667,3,2,60,40,0,1
199096,-66.6666666666667,3,2,1,60,0,1
199688,-66.6666666666667,3,2,2,60,0,1
200740,-66.6666666666667,3,2,1,60,0,1
201583,-66.6666666666667,3,2,2,60,0,1
202214,-66.6666666666667,3,2,1,60,0,1
203477,-66.6666666666667,3,2,2,60,0,1
203898,-66.6666666666667,3,2,1,60,0,1
204740,-66.6666666666667,3,2,1,60,0,0
204819,-66.6666666666667,3,2,1,5,0,0
205372,-66.6666666666667,3,2,1,60,0,0
205451,-66.6666666666667,3,2,1,5,0,0
206004,-66.6666666666667,3,2,1,60,0,0
206083,-66.6666666666667,3,2,1,5,0,0
206425,-66.6666666666667,3,2,1,60,0,0
206635,-66.6666666666667,3,2,1,60,0,1
207898,-66.6666666666667,3,2,2,60,0,1
208319,-66.6666666666667,3,2,1,60,0,1
209162,-66.6666666666667,3,2,2,60,0,1
209583,-66.6666666666667,3,2,1,60,0,1
209793,-66.6666666666667,3,2,2,60,0,1
210425,-66.6666666666667,3,2,1,60,0,1
212319,-66.6666666666667,3,2,2,60,0,1
213583,-66.6666666666667,3,2,1,60,0,1
218004,-66.6666666666667,3,2,2,60,0,1
218425,-66.6666666666667,3,2,1,60,0,1
219898,-125,3,2,2,50,0,1
221793,-200,3,2,2,40,0,0
223372,-200,3,2,2,5,0,0
223688,-200,3,2,2,40,0,0
225267,-200,3,2,2,5,0,0
225583,-200,3,2,2,35,0,0
227162,-250,3,2,2,5,0,0
227477,-238.095238095238,3,2,2,30,0,0
229372,-66.6666666666667,3,2,1,5,0,0
231267,638.297872340426,4,2,1,60,1,0
231908,-100,4,2,2,60,0,0
232531,636.604774535809,4,2,2,60,1,0
232531,-100,4,2,1,60,0,0
233169,-100,4,2,2,60,0,0
233816,638.297872340426,4,2,1,60,1,0
234454,-100,4,2,2,60,0,0
235083,602.409638554217,4,2,1,60,1,0
235685,662.983425414365,4,2,2,60,1,0
236347,634.249471458774,4,2,1,60,1,0
236983,-100,4,2,2,60,0,0
237590,652.173913043478,4,2,2,60,1,0
237592,-100,4,2,1,60,0,0
238242,-100,4,2,2,60,0,0
238877,606.060606060606,4,2,1,60,1,0
238878,-100,4,2,1,60,0,0
239487,-100,4,2,2,60,0,0
240103,625,4,2,2,60,1,0
240728,632.244467860906,4,2,2,60,1,0
240728,-100,4,2,2,60,0,0
241356,628.272251308901,4,2,1,60,1,0
241356,-83.3333333333333,4,2,1,60,0,0
241984,-83.3333333333333,4,2,2,60,0,0
242620,632.244467860906,4,2,1,60,1,0
242620,-83.3333333333333,4,2,1,60,0,0
243252,-83.3333333333333,4,2,2,60,0,0
243927,632.244467860906,4,2,1,60,1,0
243927,-83.3333333333333,4,2,1,60,0,0
244559,-83.3333333333333,4,2,2,60,0,0
245184,631.578947368421,4,2,2,60,1,0
245184,-83.3333333333333,4,2,1,60,0,0
245780,634.249471458774,4,2,2,60,1,0
245780,-83.3333333333333,4,2,2,60,0,0
246414,632.244467860906,4,2,1,60,1,0
246414,-83.3333333333333,4,2,1,60,0,0
247046,-83.3333333333333,4,2,2,60,0,0
247678,-83.3333333333333,4,2,1,60,0,0
248310,-83.3333333333333,4,2,2,60,0,0
248942,636.942675159236,4,2,1,60,1,0
248942,-83.3333333333333,4,2,1,60,0,0
249575,-83.3333333333333,4,2,2,60,0,0
249897,-83.3333333333333,4,2,2,60,0,0
250215,629.260618772942,4,2,2,60,1,0
250215,-83.3333333333333,4,2,1,60,0,0
250839,-83.3333333333333,4,2,2,60,0,0
251473,632.244467860906,4,2,1,60,1,0
251473,-83.3333333333333,4,2,1,60,0,0
252104,-83.3333333333333,4,2,2,60,0,0
252736,-83.3333333333333,4,2,1,60,0,0
253368,-83.3333333333333,4,2,2,60,0,0
254001,-83.3333333333333,4,2,1,60,0,0
254633,-83.3333333333333,4,2,2,60,0,0
255265,-83.3333333333333,4,2,1,60,0,0
255897,-83.3333333333333,4,2,2,60,0,0
256530,-83.3333333333333,4,2,1,60,0,0
257162,-83.3333333333333,4,2,2,60,0,0
257794,-83.3333333333333,4,2,1,60,0,0
258426,-83.3333333333333,4,2,2,60,0,0
259059,352.941176470588,4,2,1,70,1,0
260470,352.941176470588,4,2,1,70,1,1
260470,-83.3333333333333,4,2,1,70,0,1
260647,-83.3333333333333,4,2,2,70,0,1
260823,-83.3333333333333,4,2,1,70,0,1
261000,-83.3333333333333,4,2,2,70,0,1
261176,-83.3333333333333,4,2,1,70,0,1
261353,-83.3333333333333,4,2,2,70,0,1
261529,-83.3333333333333,4,2,1,70,0,1
261706,-83.3333333333333,4,2,2,70,0,1
261882,-83.3333333333333,4,2,1,70,0,1
262059,-83.3333333333333,4,2,2,70,0,1
262235,-83.3333333333333,4,2,1,70,0,1
262412,-83.3333333333333,4,2,2,70,0,1
262588,-83.3333333333333,4,2,1,70,0,1
262765,-83.3333333333333,4,2,2,70,0,1
262941,-83.3333333333333,4,2,1,70,0,1
263118,-83.3333333333333,4,2,2,70,0,1
263294,-83.3333333333333,4,2,1,70,0,1
263471,-83.3333333333333,4,2,2,70,0,1
263647,-83.3333333333333,4,2,1,70,0,1
263824,-83.3333333333333,4,2,2,70,0,1
264000,-83.3333333333333,4,2,1,70,0,1
264177,-83.3333333333333,4,2,2,70,0,1
264353,-83.3333333333333,4,2,1,70,0,1
264530,-83.3333333333333,4,2,2,70,0,1
264706,-83.3333333333333,4,2,1,70,0,1
264883,-83.3333333333333,4,2,2,70,0,1
265059,-83.3333333333333,4,2,1,70,0,1
265236,-83.3333333333333,4,2,2,70,0,1
265411,-83.3333333333333,4,2,1,70,0,1
265588,-83.3333333333333,4,2,2,70,0,1
265764,-83.3333333333333,4,2,1,70,0,1
265941,-83.3333333333333,4,2,2,70,0,1
266117,-83.3333333333333,4,2,1,70,0,1
266294,-83.3333333333333,4,2,2,70,0,1
266470,-83.3333333333333,4,2,1,70,0,1
266647,-83.3333333333333,4,2,2,70,0,1
266823,-83.3333333333333,4,2,1,70,0,1
267000,-83.3333333333333,4,2,2,70,0,1
267176,-83.3333333333333,4,2,1,70,0,1
267353,-83.3333333333333,4,2,2,70,0,1
267529,-83.3333333333333,4,2,1,70,0,1
267706,-83.3333333333333,4,2,2,70,0,1
267882,-83.3333333333333,4,2,1,70,0,1
268059,-83.3333333333333,4,2,2,70,0,1
268235,-83.3333333333333,4,2,1,70,0,1
268412,-83.3333333333333,4,2,2,70,0,1
268588,-83.3333333333333,4,2,1,70,0,1
268765,-83.3333333333333,4,2,2,70,0,1
268941,-83.3333333333333,4,2,1,70,0,1
269118,-83.3333333333333,4,2,2,70,0,1
269294,-83.3333333333333,4,2,1,70,0,1
269471,-83.3333333333333,4,2,2,70,0,1
269647,-83.3333333333333,4,2,1,70,0,1
269824,-83.3333333333333,4,2,2,70,0,1
270000,-83.3333333333333,4,2,1,70,0,1
270177,-83.3333333333333,4,2,2,70,0,1
270353,-83.3333333333333,4,2,1,70,0,1
270530,-83.3333333333333,4,2,2,70,0,1
270706,-83.3333333333333,4,2,1,70,0,1
270883,-83.3333333333333,4,2,2,70,0,1
271059,-83.3333333333333,4,2,1,70,0,1
271236,-83.3333333333333,4,2,2,70,0,1
271411,-83.3333333333333,4,2,1,70,0,1
271588,-83.3333333333333,4,2,2,70,0,1
271764,-83.3333333333333,4,2,1,70,0,1
271941,-83.3333333333333,4,2,2,70,0,1
272117,-83.3333333333333,4,2,1,70,0,1
272294,-83.3333333333333,4,2,2,70,0,1
272470,-83.3333333333333,4,2,1,70,0,1
272647,-83.3333333333333,4,2,2,70,0,1
272823,-83.3333333333333,4,2,1,70,0,1
273000,-83.3333333333333,4,2,2,70,0,1
273175,-133.333333333333,4,2,1,50,0,0
273970,-133.333333333333,4,2,2,50,0,0
274235,-133.333333333333,4,2,1,50,0,0

[Colours]
Combo1 : 0,64,128
Combo2 : 0,128,255

[HitObjects]
74,70,214,5,2,0:0:0:0:
146,101,454,2,0,L|138:205,1,90,2|2,0:0|0:0,0:0:0:0:
138,202,934,2,0,L|84:212,1,30,2|0,0:0|0:0,0:0:0:0:
27,287,1174,6,0,L|22:377,1,90,2|2,0:0|0:0,0:0:0:0:
93,381,1654,2,0,L|98:291,1,90,2|2,0:0|0:0,0:0:0:0:
282,185,2134,5,2,0:0:0:0:
287,275,2374,1,2,0:0:0:0:
200,279,2614,1,2,0:0:0:0:
195,189,2854,1,2,0:0:0:0:
294,282,3094,6,0,B|311:316|349:332|385:323|407:299|407:299|398:323|378:340|355:346,1,180,2|2,0:0|0:0,0:0:0:0:
324,384,3814,1,2,0:0:0:0:
368,211,4054,5,2,0:0:0:0:
338,117,4294,1,2,0:0:0:0:
435,139,4534,2,0,B|461:151|489:134|489:134|476:155|450:164,1,90,2|2,0:0|0:0,0:0:0:0:
239,191,5014,6,0,B|228:192|215:214|215:214|243:197|270:209,1,90,2|2,0:0|0:0,0:0:0:0:
368,211,5494,1,2,0:0:0:0:
338,117,5734,1,2,0:0:0:0:
245,276,5974,6,0,L|138:268,1,90,2|2,0:0|0:0,0:0:0:0:
78,265,6454,1,2,0:0:0:0:
111,335,6694,1,2,0:0:0:0:
201,200,6934,6,0,L|193:107,1,90,2|2,0:0|0:0,0:0:0:0:
278,101,7414,1,2,0:0:0:0:
285,190,7654,1,2,0:0:0:0:
374,353,7894,6,0,L|496:338,2,90,2|2|2,0:0|0:0|0:0,0:0:0:0:
296,363,8614,1,2,0:0:0:0:
450,262,8854,6,0,B|472:224|472:224|452:156,2,90,2|2|2,0:0|0:0|0:0,0:0:0:0:
386,207,9574,1,2,0:0:0:0:
297,366,9814,5,2,0:0:0:0:
297,366,10054,1,2,0:0:0:0:
386,207,10294,1,2,0:0:0:0:
321,251,10534,1,2,0:0:0:0:
322,176,10774,6,0,L|312:76,2,90,2|2|2,0:0|0:0|0:0,0:0:0:0:
406,109,11494,1,2,0:0:0:0:
222,63,11734,6,0,B|161:72|161:72|184:75|206:96,1,90,2|2,0:0|0:0,0:0:0:0:
246,127,12214,1,2,0:0:0:0:
168,0,12454,1,2,0:0:0:0:
96,176,12694,6,0,L|103:257,1,67.5,2|0,0:0|0:0,0:0:0:0:
103,255,12934,1,2,0:0:0:0:
177,274,13174,1,2,0:0:0:0:
123,328,13414,1,2,0:0:0:0:
486,26,15574,5,2,0:0:0:0:
409,160,15814,2,0,B|375:160|349:131|351:95|371:73|371:73|423:62,1,165,2|0,0:0|0:0,0:0:0:0:
472,111,16374,5,0,0:0:0:0:
414,164,16534,6,0,L|421:266,2,90,2|2|2,0:0|0:0|0:0,0:0:0:0:
346,212,17254,1,2,0:0:0:0:
501,290,17494,5,2,0:0:0:0:
392,343,17734,1,2,0:0:0:0:
471,372,17974,1,2,0:0:0:0:
418,262,18214,1,2,0:0:0:0:
284,381,18454,6,0,B|221:368|221:368|236:280,1,135,2|0,0:0|0:0,0:0:0:0:
247,221,18934,1,2,0:0:0:0:
309,310,19174,1,2,0:0:0:0:
419,185,19414,6,0,L|312:172,1,90,2|2,0:0|0:0,0:0:0:0:
340,101,19894,1,2,0:0:0:0:
429,111,20134,1,2,0:0:0:0:
270,41,20374,6,0,B|245:79|245:79|260:150,1,90,2|2,0:0|0:0,0:0:0:0:
329,174,20854,1,2,0:0:0:0:
255,210,21094,1,2,0:0:0:0:
415,310,21334,6,0,P|462:301|507:297,1,90,2|2,0:0|0:0,0:0:0:0:
497,218,21814,2,0,P|452:226|408:230,1,90,2|2,0:0|0:0,0:0:0:0:
373,370,22294,6,0,P|309:345|335:245,1,180,2|2,0:0|0:0,0:0:0:0:
408,230,23014,1,2,0:0:0:0:
242,154,23254,5,2,0:0:0:0:
327,99,23494,2,0,L|137:119,1,180,2|2,0:0|0:0,0:0:0:0:
106,184,24214,1,2,0:0:0:0:
46,73,24454,2,0,B|55:55|55:26|55:26|75:47|66:76,1,90,2|2,0:0|0:0,0:0:0:0:
106,184,24934,5,2,0:0:0:0:
106,184,25414,5,2,0:0:0:0:
132,192,25534,5,2,0:0:0:0:
153,212,25654,5,2,0:0:0:0:
188,312,25894,5,2,0:0:0:0:
245,367,26134,2,0,P|283:359|347:353,1,90,2|2,0:0|0:0,0:0:0:0:
355,274,26614,2,0,P|313:282|265:286,1,90,2|2,0:0|0:0,0:0:0:0:
188,312,27094,1,2,0:0:0:0:
294,155,27334,5,2,0:0:0:0:
360,189,27574,1,2,0:0:0:0:
361,116,27814,1,2,0:0:0:0:
211,11,28054,6,0,L|219:114,2,90,2|2|2,0:0|0:0|0:0,0:0:0:0:
142,64,28774,1,2,0:0:0:0:
294,155,29014,5,2,0:0:0:0:
231,201,29254,2,0,P|175:197|129:199,2,90,2|2|2,0:0|0:0|0:0,0:0:0:0:
357,356,29974,5,2,0:0:0:0:
414,309,30214,5,2,0:0:0:0:
413,235,30454,5,2,0:0:0:0:
313,182,30694,5,2,0:0:0:0:
130,272,30934,5,2,3:2:0:0:
273,384,31174,2,0,P|277:332|290:248,1,103.500001974106,2|2,0:0|3:2,0:0:0:0:
289,269,31654,2,0,L|336:262,1,34.5000006580353,2|0,0:0|0:0,0:0:0:0:
503,230,31894,5,2,3:2:0:0:
406,176,32134,1,2,0:0:0:0:
407,291,32374,1,2,3:2:0:0:
407,291,32614,6,0,P|410:308|406:291,1,42.7499988584519,4|0,0:0|0:0,0:0:0:0:
304,132,32854,6,0,B|298:110|308:76|308:76|282:97|282:123,1,103.500001974106,2|2,3:2|0:0,0:0:0:0:
248,200,33334,1,2,3:2:0:0:
379,98,33574,1,2,0:0:0:0:
218,1,33814,6,0,P|190:12|144:21,3,51.7500009870529,2|0|2|0,3:2|0:0|0:0|0:0,0:0:0:0:
151,50,34294,2,0,P|200:30|283:11,1,103.500001974106,2|2,3:2|0:0,0:0:0:0:
88,206,34774,5,2,3:2:0:0:
61,92,35014,1,2,0:0:0:0:
134,134,35254,5,2,3:2:0:0:
13,163,35494,1,2,0:0:0:0:
128,324,35734,5,2,3:2:0:0:
204,352,35974,1,2,0:0:0:0:
232,282,36214,1,2,3:2:0:0:
156,254,36454,1,2,0:0:0:0:
371,193,36694,6,0,P|374:137|382:79,1,103.500001974106,2|2,3:2|0:0,0:0:0:0:
303,82,37174,2,0,P|300:133|293:185,1,103.500001974106,2|2,3:2|0:0,0:0:0:0:
440,313,37654,6,0,P|444:236|455:156,1,155.250002961159,2|0,3:2|0:0,0:0:0:0:
461,144,38134,2,0,P|490:172|465:232,1,103.500001974106,2|2,3:2|0:0,0:0:0:0:
251,368,38614,5,2,3:2:0:0:
148,339,38854,2,0,B|177:238|177:238|279:263,1,207.000003948212,2|2,0:0|0:0,0:0:0:0:
398,101,39574,5,2,3:2:0:0:
369,204,39814,2,0,B|268:174|268:174|293:72,1,207.000003948212,2|2,0:0|0:0,0:0:0:0:
101,17,40534,5,2,3:2:0:0:
115,125,40774,1,2,0:0:0:0:
208,60,41014,5,2,3:2:0:0:
7,108,41254,1,2,0:0:0:0:
42,211,41494,6,0,P|31:289|27:337,1,103.500001974106,2|2,3:2|0:0,0:0:0:0:
100,323,41974,2,0,P|107:271|113:220,1,103.500001974106,2|2,3:2|0:0,0:0:0:0:
85,152,42454,1,2,3:2:0:0:
201,357,42694,5,2,0:0:0:0:
247,292,42934,2,0,L|349:304,1,103.500001974106,2|2,3:2|0:0,0:0:0:0:
476,120,43414,5,2,3:2:0:0:
454,225,43654,1,2,0:0:0:0:
355,200,43894,1,2,3:2:0:0:
377,95,44134,1,2,0:0:0:0:
464,237,44374,5,2,3:2:0:0:
368,83,44614,2,0,L|488:73,2,103.500001974106,2|2|2,0:0|3:2|0:0,0:0:0:0:
345,154,45334,1,2,3:2:0:0:
217,22,45574,5,2,0:0:0:0:
238,108,45814,5,2,0:0:0:0:
259,194,46054,5,2,0:0:0:0:
464,297,46294,5,6,3:2:0:0:
310,376,46534,2,0,B|284:330|284:330|309:271,1,112.5,8|2,0:0|3:2,0:0:0:0:
386,196,46987,2,0,L|378:131,1,50,2|2,0:0|0:0,0:0:0:0:
217,76,47254,6,0,P|163:70|99:63,2,112.5,2|8|2,3:2|0:0|3:2,0:0:0:0:
299,84,47974,2,0,L|293:47,3,28.125,10|2|2|2,0:0|0:0|0:0|0:0,0:0:0:0:
319,14,48214,6,0,P|312:68|306:137,1,112.5,2|8,3:2|0:0,0:0:0:0:
385,136,48682,2,0,P|391:80|397:24,1,112.5,2|8,3:2|0:0,0:0:0:0:
226,169,49151,6,0,B|164:162|128:220|128:220|89:280|17:271,1,225,2|2,3:2|3:2,0:0:0:0:
54,166,49854,1,8,0:0:0:0:
227,274,50089,5,2,3:2:0:0:
241,373,50319,1,8,0:0:0:0:
303,314,50550,5,2,3:2:0:0:
163,336,50781,1,8,0:0:0:0:
306,201,51012,5,2,3:2:0:0:
408,227,51242,1,8,0:0:0:0:
433,118,51473,1,2,3:2:0:0:
331,92,51704,1,8,0:0:0:0:
442,295,51935,6,0,B|480:308|523:308|523:308|496:329|452:335,1,112.5,2|8,3:2|0:0,0:0:0:0:
413,364,52396,2,0,B|376:351|333:351|333:351|360:330|359:336,1,112.5,2|8,3:2|0:0,0:0:0:0:
502,177,52858,6,0,B|519:44|519:44|409:22,1,225,2|2,3:2|3:2,0:0:0:0:
357,13,53550,1,8,0:0:0:0:
424,219,53781,5,2,3:2:0:0:
338,151,54006,2,0,B|209:169|298:255|165:269,1,215.999993408203,8|8,0:0|0:0,0:0:0:0:
376,359,54683,5,2,3:2:0:0:
448,339,54908,2,0,B|469:280|469:280|417:318,1,107.999996704102,8|2,0:0|3:2,0:0:0:0:
251,381,55359,5,8,0:0:0:0:
171,326,55585,5,2,3:2:0:0:
169,253,55808,1,8,0:0:0:0:
238,285,56032,1,2,3:2:0:0:
9,375,56256,6,0,B|1:233|1:233|77:220,1,215.999993408203,8|8,0:0|0:0,0:0:0:0:
146,210,56928,1,2,3:2:0:0:
315,364,57152,5,8,0:0:0:0:
329,286,57264,5,0,0:0:0:0:
347,210,57376,6,0,L|338:102,1,107.999996704102,2|8,3:2|0:0,0:0:0:0:
462,80,57820,1,2,3:2:0:0:
473,222,58042,1,8,0:0:0:0:
311,4,58264,5,2,3:2:0:0:
194,31,58487,1,8,0:0:0:0:
227,150,58709,1,2,3:2:0:0:
343,116,58931,1,8,0:0:0:0:
358,111,59042,1,0,0:0:0:0:
373,106,59154,5,2,3:2:0:0:
424,111,59261,1,0,0:0:0:0:
475,119,59368,2,0,L|468:189,1,51.7500009870529,8|0,0:0|0:0,0:0:0:0:
353,211,59582,2,0,L|360:276,2,51.7500009870529,2|0|8,3:2|0:0|0:0,0:0:0:0:
352,200,59904,1,0,0:0:0:0:
351,189,60011,5,2,3:2:0:0:
301,195,60118,1,0,0:0:0:0:
249,202,60225,2,0,L|242:138,1,51.7500009870529,8|0,0:0|0:0,0:0:0:0:
298,98,60439,5,2,3:2:0:0:
173,188,60582,1,2,0:0:0:0:
292,274,60725,1,2,0:0:0:0:
292,274,60868,6,0,P|295:336|304:413,1,103.500001974106,2|8,3:2|0:0,0:0:0:0:
211,384,61296,2,0,P|208:332|203:280,1,103.500001974106,2|8,3:2|0:0,0:0:0:0:
378,210,61725,6,0,L|457:219,2,51.7500009870529,2|0|8,3:2|0:0|0:0,0:0:0:0:
283,171,62154,1,2,3:2:0:0:
292,274,62368,1,10,0:0:0:0:
98,191,62582,5,6,3:2:0:0:
80,73,62791,1,8,0:0:0:0:
196,59,63001,1,2,3:2:0:0:
213,176,63211,1,8,0:0:0:0:
25,363,63421,6,0,L|190:378,1,155.250002961159,2|0,3:2|0:0,0:0:0:0:
160,351,63840,2,0,L|56:342,1,103.500001974106,2|8,3:2|0:0,0:0:0:0:
268,275,64260,5,2,3:2:0:0:
288,175,64465,1,8,0:0:0:0:
185,154,64670,1,2,3:2:0:0:
165,254,64876,1,8,0:0:0:0:
317,355,65081,6,0,P|373:346|453:337,1,103.500001974106,2|8,3:2|0:0,0:0:0:0:
407,255,65492,2,0,P|355:263|304:269,1,103.500001974106,2|8,3:2|0:0,0:0:0:0:
103,137,65903,5,2,3:2:0:0:
151,144,66003,1,0,0:0:0:0:
201,150,66104,1,8,0:0:0:0:
214,65,66305,1,2,3:2:0:0:
116,50,66507,1,8,0:0:0:0:
263,207,66708,6,0,B|369:189|306:127|420:111,1,148.50000453186,2|0,3:2|0:0,0:0:0:0:
452,105,67111,2,0,P|445:150|441:208,1,99.0000030212403,2|8,3:2|0:0,0:0:0:0:
489,363,67513,5,2,3:2:0:0:
384,304,67709,1,8,0:0:0:0:
408,384,67905,5,2,3:2:0:0:
467,279,68101,1,8,0:0:0:0:
265,370,68297,5,2,3:2:0:0:
228,257,68493,2,0,B|177:266|177:266|146:306|146:306|77:321,1,148.50000453186,8|0,0:0|0:0,0:0:0:0:
27,323,68885,2,0,L|32:251,1,49.5000015106202,8|0,0:0|0:0,0:0:0:0:
39,158,69081,5,2,3:2:0:0:
133,197,69272,1,8,0:0:0:0:
23,63,69463,5,2,3:2:0:0:
235,14,69654,2,0,B|305:30|305:30|323:52|323:52|421:76,1,180,8|8,0:0|0:0,0:0:0:0:
238,99,70227,2,0,L|168:113,2,45,2|0|8,3:2|0:0|0:0,0:0:0:0:
427,7,70609,5,2,3:2:0:0:
463,185,70797,5,8,0:0:0:0:
386,223,70986,1,2,3:2:0:0:
457,270,71175,1,8,0:0:0:0:
264,376,71363,6,0,L|249:273,1,90,2|8,3:2|0:0,0:0:0:0:
334,326,71741,1,2,3:2:0:0:
165,247,71929,1,8,0:0:0:0:
330,119,72118,6,0,B|324:95|340:73|340:73|319:89|313:107,1,90,2|8,3:2|0:0,0:0:0:0:
257,154,72486,2,0,B|251:169|230:185|230:185|246:163|240:139,1,90,0|8,3:2|0:0,0:0:0:0:
212,70,72854,1,0,3:2:0:0:
482,131,73038,6,0,L|478:193,1,45,10|0,0:0|0:0,0:0:0:0:
478,187,73222,2,0,L|474:249,1,45,2|0,0:2|0:0,0:0:0:0:
474,246,73406,2,0,L|470:308,1,45,10|0,0:0|0:0,0:0:0:0:
318,362,73590,6,0,L|219:380,1,90,6|8,3:1|0:0,0:0:0:0:
307,278,73953,1,2,3:2:0:0:
211,299,74135,1,8,0:0:0:0:
36,375,74317,6,0,B|22:317|22:317|57:344,1,90,2|8,3:2|0:0,0:0:0:0:
201,221,74680,2,0,B|215:163|215:163|190:181,1,90,2|10,3:2|0:0,0:0:0:0:
28,37,75044,5,2,3:2:0:0:
48,131,75226,1,8,0:0:0:0:
114,175,75408,5,2,3:2:0:0:
98,248,75590,1,8,0:0:0:0:
151,308,75771,6,0,B|214:316|214:316|234:356|234:356|339:373,1,180,2|2,3:2|3:2,0:0:0:0:
164,384,76317,1,8,0:0:0:0:
332,257,76499,6,0,P|342:192|341:146,1,90,2|8,3:2|0:0,0:0:0:0:
273,156,76862,2,0,P|264:200|262:245,1,90,2|8,3:2|0:0,0:0:0:0:
461,34,77226,5,2,3:2:0:0:
385,62,77408,1,8,0:0:0:0:
414,140,77590,1,2,3:2:0:0:
490,112,77771,1,8,0:0:0:0:
319,13,77953,6,0,L|217:27,1,90,2|8,3:2|0:0,0:0:0:0:
330,87,78317,1,2,3:2:0:0:
241,100,78499,1,8,0:0:0:0:
54,171,78680,6,0,L|161:186,1,90,2|8,3:2|0:0,0:0:0:0:
174,188,78953,1,0,0:0:0:0:
205,193,79044,2,0,L|210:266,1,45,2|0,3:2|0:0,0:0:0:0:
145,315,79226,2,0,L|141:270,1,45,8|0,0:0|0:0,0:0:0:0:
247,380,79408,6,0,L|341:366,1,90,2|8,3:2|0:0,0:0:0:0:
339,291,79771,1,2,3:2:0:0:
216,310,79953,1,8,0:0:0:0:
352,181,80135,6,0,P|353:129|359:66,1,90,2|8,3:2|0:0,0:0:0:0:
285,86,80499,2,0,P|281:130|280:175,1,90,2|8,3:2|0:0,0:0:0:0:
497,372,80862,5,2,3:2:0:0:
512,263,81044,1,8,0:0:0:0:
403,245,81226,1,2,3:2:0:0:
388,354,81408,1,8,0:0:0:0:
279,177,81590,5,2,3:2:0:0:
155,268,81771,1,8,0:0:0:0:
264,286,81953,5,2,3:2:0:0:
170,159,82135,1,8,0:0:0:0:
350,39,82317,6,0,P|393:30|459:22,1,90,2|8,3:2|0:0,0:0:0:0:
452,96,82680,2,0,P|401:104|363:109,1,90,2|8,3:2|0:0,0:0:0:0:
154,267,83044,5,2,3:2:0:0:
170,159,83226,1,8,0:0:0:0:
264,286,83408,1,2,3:2:0:0:
280,178,83590,1,8,0:0:0:0:
132,328,83771,5,2,3:2:0:0:
44,349,83953,1,8,0:0:0:0:
24,259,84135,1,2,3:2:0:0:
111,237,84317,1,8,0:0:0:0:
286,377,84499,5,2,0:0:0:0:
292,350,84680,1,2,0:0:0:0:
298,323,84862,1,2,0:0:0:0:
304,296,85044,1,6,0:0:0:0:
147,96,85226,6,0,L|136:36,2,45,6|0|8,3:2|0:0|0:0,0:0:0:0:
216,56,85590,1,2,3:2:0:0:
71,114,85771,1,8,0:0:0:0:
180,219,85953,6,0,L|281:201,1,90,2|8,3:2|0:0,0:0:0:0:
325,264,86226,1,0,0:0:0:0:
334,280,86317,2,0,L|422:295,1,90,2|10,3:2|0:0,0:0:0:0:
215,365,86680,6,0,L|209:312,3,45,2|0|8|0,3:2|0:0|0:0|0:0,0:0:0:0:
225,293,87044,2,0,L|236:404,1,90,2|8,3:2|0:0,0:0:0:0:
212,170,87408,6,0,B|112:160|159:247|52:241,1,180,2|2,3:2|3:2,0:0:0:0:
44,239,87862,1,0,0:0:0:0:
32,231,87953,1,8,0:0:0:0:
142,106,88135,6,0,P|150:48|157:8,1,90,2|8,3:2|0:0,0:0:0:0:
120,11,88408,1,0,0:0:0:0:
87,8,88499,2,0,P|79:52|73:96,1,90,2|8,3:2|0:0,0:0:0:0:
229,215,88862,5,2,3:2:0:0:
319,184,89044,1,8,0:0:0:0:
350,274,89226,1,2,3:2:0:0:
260,305,89408,1,8,0:0:0:0:
478,369,89590,5,2,3:2:0:0:
430,298,89771,1,8,0:0:0:0:
433,284,89862,1,0,0:0:0:0:
436,271,89953,1,2,3:2:0:0:
499,222,90135,1,8,0:0:0:0:
322,101,90317,6,0,L|225:120,1,90,2|8,3:2|0:0,0:0:0:0:
180,80,90590,1,0,0:0:0:0:
180,80,90680,6,0,B|256:90|256:90|283:132|283:132|381:145,1,202.500007724762,6|0,3:1|0:0,0:0:0:0:
430,146,91044,6,0,P|435:201|439:263,1,90,2|8,3:2|0:0,0:0:0:0:
366,207,91408,1,2,3:2:0:0:
493,103,91590,1,8,0:0:0:0:
328,0,91771,6,0,P|277:4|190:13,1,107.999996704102,2|8,3:2|0:0,0:0:0:0:
92,180,92135,2,0,P|143:184|230:193,1,107.999996704102,2|8,3:2|0:0,0:0:0:0:
366,207,92499,5,2,3:2:0:0:
261,355,92680,2,0,L|180:347,2,45,8|0|2,0:0|0:0|3:2,0:0:0:0:
343,363,93044,1,8,0:0:0:0:
165,268,93226,6,0,L|154:164,1,90,2|8,3:2|0:0,0:0:0:0:
259,117,93499,1,0,0:0:0:0:
271,127,93590,2,0,L|279:73,1,45,2|0,3:2|0:0,0:0:0:0:
205,64,93771,2,0,L|197:10,1,45,8|0,0:0|0:0,0:0:0:0:
352,119,93953,6,0,L|337:213,1,90,2|8,3:2|0:0,0:0:0:0:
324,279,94317,1,2,3:2:0:0:
429,184,94499,1,8,0:0:0:0:
277,84,94680,6,0,L|172:112,1,90,2|8,3:2|0:0,0:0:0:0:
329,139,95044,1,2,3:2:0:0:
167,189,95226,1,8,0:0:0:0:
14,17,95408,5,2,0:2:0:0:
26,87,95771,5,2,0:0:0:0:
39,157,96135,5,2,0:0:0:0:
50,228,96499,5,2,0:0:0:0:
63,298,96862,5,6,0:0:0:0:
63,298,98317,6,0,L|53:366,7,58.4999973220826,2|2|2|2|2|2|2|2,0:0|0:0|0:0|0:0|0:0|0:0|0:0|0:0,0:0:0:0:
140,244,99771,6,0,L|131:170,1,58.4999973220826,2|2,0:0|0:0,0:0:0:0:
204,173,100135,2,0,L|211:231,1,58.4999973220826,2|2,0:0|0:0,0:0:0:0:
183,303,100499,2,0,L|175:361,1,58.4999973220826,2|2,0:0|0:0,0:0:0:0:
248,374,100862,2,0,L|255:315,1,58.4999973220826,2|2,0:0|0:0,0:0:0:0:
395,258,101226,6,0,L|463:268,7,58.4999973220826,2|2|2|2|2|2|2|2,0:0|0:0|0:0|0:0|0:0|0:0|0:0|0:0,0:0:0:0:
341,181,102680,6,0,L|267:190,1,58.4999973220826,2|2,0:0|0:0,0:0:0:0:
270,117,103044,2,0,L|328:109,1,58.4999973220826,2|2,0:0|0:0,0:0:0:0:
400,138,103408,2,0,L|458:145,1,58.4999973220826,2|2,0:0|0:0,0:0:0:0:
471,73,103771,2,0,L|412:65,1,58.4999973220826,2|2,0:0|0:0,0:0:0:0:
237,14,104135,6,0,P|217:38|225:83,1,58.4999973220826,2|2,0:0|0:0,0:0:0:0:
271,111,104499,1,2,0:0:0:0:
271,111,104680,1,2,0:0:0:0:
204,189,104862,6,0,P|234:194|269:164,1,58.4999973220826,2|2,0:0|0:0,0:0:0:0:
271,111,105226,1,2,0:0:0:0:
271,111,105408,1,2,0:0:0:0:
369,176,105590,6,0,P|358:146|315:131,1,58.4999973220826,2|2,0:0|0:0,0:0:0:0:
204,189,105953,6,0,P|234:194|269:164,1,58.4999973220826,2|2,0:0|0:0,0:0:0:0:
237,14,106317,6,0,P|217:38|225:83,3,58.4999973220826,2|2|2|2,0:0|0:0|0:0|0:0,0:0:0:0:
258,182,107044,5,2,0:0:0:0:
241,258,107226,1,2,0:0:0:0:
312,275,107408,1,2,0:0:0:0:
329,199,107590,1,2,0:0:0:0:
460,285,107771,5,2,0:0:0:0:
471,362,107953,1,2,0:0:0:0:
399,372,108135,1,2,0:0:0:0:
399,372,109408,5,2,0:0:0:0:
471,362,109590,1,2,0:0:0:0:
460,285,109771,1,2,0:0:0:0:
214,372,109953,6,0,B|189:332|189:332|216:262,1,99.0000030212403,6|8,3:2|0:0,0:0:0:0:
220,268,110226,1,0,0:0:0:0:
236,257,110317,2,0,L|340:272,1,99.0000030212403,2|8,3:2|0:0,0:0:0:0:
124,384,110680,5,2,3:2:0:0:
52,363,110862,2,0,L|-11:374,2,49.5000015106202,8|0|2,0:0|0:0|3:2,0:0:0:0:
113,309,111226,1,10,0:0:0:0:
40,100,111408,5,2,3:2:0:0:
145,123,111590,1,8,0:0:0:0:
126,230,111771,1,2,3:2:0:0:
21,207,111953,1,8,0:0:0:0:
145,123,112135,6,0,L|139:56,2,49.5000015106202,2|0|8,3:2|0:0|0:0,0:0:0:0:
121,238,112499,2,0,L|226:222,1,99.0000030212403,2|8,3:2|0:0,0:0:0:0:
274,292,112771,1,0,0:0:0:0:
282,305,112862,6,0,P|332:312|409:325,1,99.0000030212403,2|8,3:2|0:0,0:0:0:0:
395,235,113226,2,0,P|346:227|297:219,1,99.0000030212403,2|8,3:2|0:0,0:0:0:0:
115,369,113590,5,2,3:2:0:0:
19,288,113771,1,8,0:0:0:0:
31,374,113953,5,2,3:2:0:0:
109,276,114135,1,8,0:0:0:0:
298,374,114317,6,0,P|301:331|311:265,1,99.0000030212403,2|8,3:2|0:0,0:0:0:0:
217,203,114590,1,0,0:0:0:0:
199,217,114680,2,0,P|195:167|188:118,1,99.0000030212403,2|8,3:2|0:0,0:0:0:0:
351,26,115044,6,0,L|419:10,2,49.5000015106202,2|0|8,3:2|0:0|0:0,0:0:0:0:
270,46,115408,1,2,3:2:0:0:
449,91,115590,1,8,0:0:0:0:
319,231,115771,5,2,3:2:0:0:
292,142,115953,1,8,0:0:0:0:
380,114,116135,1,2,3:2:0:0:
407,203,116317,1,8,0:0:0:0:
242,278,116499,5,2,3:2:0:0:
317,316,116680,1,8,0:0:0:0:
319,231,116862,5,2,3:2:0:0:
239,363,117044,1,8,0:0:0:0:
172,195,117226,6,0,P|177:115|179:86,1,99.0000030212403,2|8,3:2|0:0,0:0:0:0:
104,56,117590,2,0,P|101:105|97:154,1,99.0000030212403,2|8,3:2|0:0,0:0:0:0:
42,360,117953,6,0,P|91:356|119:291,1,99.0000030212403,2|8,3:2|0:0,0:0:0:0:
95,247,118226,1,0,0:0:0:0:
82,229,118317,2,0,P|34:232|4:270,1,99.0000030212403,2|8,3:2|0:0,0:0:0:0:
279,366,118680,5,2,3:2:0:0:
303,260,118862,1,8,0:0:0:0:
198,292,119044,5,2,3:2:0:0:
381,328,119226,1,8,0:0:0:0:
317,156,119408,5,2,3:2:0:0:
216,129,119590,1,8,0:0:0:0:
242,25,119771,1,2,3:2:0:0:
343,52,119953,1,8,0:0:0:0:
160,174,123290,6,0,B|214:169|253:150|253:150|210:207|227:282,2,215.999993408203,0|2|2,0:0|0:0|0:0,0:0:0:0:
38,325,125184,6,0,P|32:273|25:91,2,215.999993408203,0|2|2,0:0|0:0|0:0,0:0:0:0:
240,50,127079,6,0,P|230:156|226:292,2,215.999993408203,0|2|2,0:0|0:0|0:0,0:0:0:0:
399,1,128975,5,0,0:0:0:0:
240,50,129575,1,2,0:0:0:0:
81,99,130221,2,0,P|163:104|170:212,1,202.500007724762,2|0,0:0|0:0,0:0:0:0:
102,267,130903,6,0,B|130:216|195:202|242:234|242:234|213:233|189:251|180:278,1,215.999993408203,0|2,0:0|0:0,0:0:0:0:
51,345,132138,1,2,0:0:0:0:
250,314,132758,6,0,B|278:365|343:379|390:347|390:347|361:348|337:330|328:303,1,215.999993408203,0|2,0:0|0:0,0:0:0:0:
199,236,134021,1,2,0:0:0:0:
402,279,134633,6,0,P|411:195|419:44,2,215.999993408203,0|2|2,0:0|0:0|0:0,0:0:0:0:
242,330,136563,5,0,0:0:0:0:
401,281,137138,1,2,0:0:0:0:
230,334,137791,2,0,B|145:310|207:246|95:235,1,161.999995056153,2|0,0:0|0:0,0:0:0:0:
26,193,138445,6,0,P|79:213|123:119,1,143.999995605469,2|0,0:0|0:0,0:0:0:0:
59,88,139065,2,0,P|169:85|288:64,1,215.999993408203,2|2,0:0|0:0,0:0:0:0:
492,175,140339,6,0,P|410:178|325:203,1,143.999995605469,2|0,0:0|0:0,0:0:0:0:
285,222,140915,1,2,0:0:0:0:
276,230,141626,2,0,P|320:267|382:184,1,161.999995056153,2|0,0:0|0:0,0:0:0:0:
301,141,142252,6,0,B|337:86|337:86|278:33,1,134.999995880127,2|2,0:0|0:0,0:0:0:0:
178,35,142883,2,0,P|197:119|219:273,1,215.999993408203,2|2,0:0|0:0,0:0:0:0:
16,266,143936,1,2,0:0:0:0:
37,197,144146,5,0,0:0:0:0:
41,195,144764,2,0,P|94:182|154:303,1,215.999993408203,2|2,0:0|0:0,0:0:0:0:
365,375,146056,6,0,P|376:324|385:165,1,161.999995056153,2|0,0:0|0:0,0:0:0:0:
363,144,146657,1,2,0:0:0:0:
499,32,147084,6,0,B|435:29|369:4|369:4|441:44|465:74,1,215.999993408203,2|2,0:0|0:0,0:0:0:0:
501,161,147955,5,2,0:0:0:0:
346,77,148376,2,0,L|166:111,1,143.999995605469,2|0,0:0|0:0,0:0:0:0:
136,118,148981,1,2,0:0:0:0:
301,370,149806,6,0,P|367:331|301:246,1,143.999995605469,2|2,0:0|0:0,0:0:0:0:
257,221,150444,2,0,P|208:253|212:313,1,107.999996704102,2|2,0:0|0:0,0:0:0:0:
224,374,151082,1,2,0:0:0:0:
144,180,151465,6,0,B|86:178|39:146|39:146|75:213|45:255,1,215.999993408203,2|0,0:0|0:0,0:0:0:0:
6,359,152331,2,0,B|126:374|47:258|213:270,1,215.999993408203,2|2,0:0|0:0,0:0:0:0:
165,348,153315,1,2,0:0:0:0:
376,324,153616,6,0,L|339:168,1,143.999995605469,2|2,0:0|0:0,0:0:0:0:
412,204,154231,2,0,L|307:303,1,143.999995605469,2|0,0:0|0:0,0:0:0:0:
323,376,154876,1,2,0:0:0:0:
465,40,155492,5,2,0:0:0:0:
337,104,155958,2,0,B|293:99|246:54|246:54|273:95|257:127,1,179.999994506836,2|2,0:0|0:0,0:0:0:0:
312,175,156735,1,2,0:0:0:0:
21,369,157359,5,0,0:0:0:0:
16,373,157768,5,2,0:0:0:0:
88,325,157995,2,0,P|90:258|109:176,1,143.999995605469,2|2,0:0|0:0,0:0:0:0:
23,144,158631,2,0,B|93:165|93:165|150:91,1,143.999995605469,2|2,0:0|0:0,0:0:0:0:
286,33,159268,6,0,P|316:137|321:211,1,143.999995605469,2|0,0:0|0:0,0:0:0:0:
307,25,159874,2,0,P|337:129|342:203,1,143.999995605469,2|0,0:0|0:0,0:0:0:0:
331,12,160499,2,0,P|361:116|366:190,1,143.999995605469,2|0,0:0|0:0,0:0:0:0:
337,278,161162,5,2,0:0:0:0:
364,151,161583,2,0,P|353:80|331:12,1,143.999995605469,2|0,0:0|0:0,0:0:0:0:
243,0,162214,2,0,P|260:109|295:214,1,215.999993408203,2|2,0:0|0:0,0:0:0:0:
422,321,163056,5,2,0:0:0:0:
261,374,163477,2,0,L|84:358,1,143.999995605469,2|0,0:0|0:0,0:0:0:0:
90,278,164067,2,0,L|317:299,1,215.999993408203,2|0,0:0|0:0,0:0:0:0:
490,376,164951,6,0,B|447:361|434:304|451:273|473:243|473:243|523:188|508:131|471:84|427:91|377:101|364:156|368:197|388:220|417:235,1,484.499987062455,2|0,0:0|0:0,0:0:0:0:
412,235,166793,1,2,0:0:0:0:
420,240,166846,1,2,0:0:0:0:
428,244,166898,6,0,P|290:288|182:331,1,258.75000987053,2|2,0:0|0:0,0:0:0:0:
362,13,168740,6,0,P|241:51|126:98,2,225,2|2|2,0:0|0:0|0:0,0:0:0:0:
503,177,170635,5,2,0:0:0:0:
288,341,171267,6,0,P|276:288|268:180,1,150,2|0,0:0|0:0,0:0:0:0:
305,106,171898,2,0,P|259:164|174:128,1,150,2|0,0:0|0:0,0:0:0:0:
26,116,172530,6,0,B|67:109|107:66|107:66|74:145|106:237,1,225,2|2,0:0|0:0,0:0:0:0:
12,9,173583,5,2,0:0:0:0:
121,49,173793,2,0,B|154:24|225:31|225:31|199:41|181:70,1,150,2|2,0:0|0:0,0:0:0:0:
57,139,174425,6,0,B|87:151|86:204|86:204|112:176|135:166|185:183,1,150,2|0,0:0|0:0,0:0:0:0:
85,280,175056,2,0,B|100:289|123:279|149:251|149:251|148:304|178:316,1,150,2|0,0:0|0:0,0:0:0:0:
279,375,175688,2,0,P|271:305|277:202,1,150,2|2,0:0|0:0,0:0:0:0:
335,142,176319,5,2,0:0:0:0:
170,23,176740,5,2,0:0:0:0:
163,28,176951,2,0,P|195:66|245:0,1,150,2|0,0:0|0:0,0:0:0:0:
242,0,177583,1,2,0:0:0:0:
33,220,178004,6,0,L|46:364,1,131.25,2|0,0:0|0:0,0:0:0:0:
146,384,178593,2,0,L|127:156,1,225,2|0,0:0|0:0,0:0:0:0:
34,124,179477,1,2,0:0:0:0:
397,358,180109,5,2,0:0:0:0:
251,260,180530,5,2,0:0:0:0:
313,215,180740,2,0,B|362:221|394:183|394:183|380:222|399:257,1,150,2|0,0:0|0:0,0:0:0:0:
450,280,181372,1,2,0:0:0:0:
301,54,181793,1,2,0:0:0:0:
235,111,182004,6,0,P|121:144|-25:162,2,225,0|2|2,0:0|0:0|0:0,0:0:0:0:
486,6,183688,1,2,0:0:0:0:
370,45,183898,6,0,P|379:94|477:82,1,150,2|0,0:0|0:0,0:0:0:0:
389,144,184530,2,0,P|380:193|280:180,1,150,2|0,0:0|0:0,0:0:0:0:
305,98,185162,1,2,0:0:0:0:
476,280,185583,2,0,B|423:247|353:275|338:345|396:388|435:366|459:323,1,225,2|0,0:0|0:0,0:0:0:0:
495,198,186425,6,0,P|506:128|508:22,1,150,2|0,0:0|0:0,0:0:0:0:
449,12,187056,1,2,0:0:0:0:
198,207,187477,6,0,B|164:207|138:178|140:142|156:113|204:77|267:128,1,225,2|0,0:0|0:0,0:0:0:0:
359,99,188319,1,2,0:0:0:0:
104,7,188951,1,2,0:0:0:0:
0,162,189372,5,2,0:0:0:0:
11,170,189583,6,0,L|4:326,1,144,2|0,0:0|0:0,0:0:0:0:
221,378,191477,6,0,B|239:344|272:333|314:348|372:342|423:291|393:213|345:170|271:174|235:228|246:282,1,396,2|0,0:0|0:0,0:0:0:0:
221,378,195267,6,0,B|218:343|193:319|148:316|98:287|72:220|131:161|192:141|258:175|273:236|244:272,1,396,2|0,0:0|0:0,0:0:0:0:
19,375,197162,5,2,0:0:0:0:
77,209,197793,5,2,0:0:0:0:
294,111,198425,5,2,0:0:0:0:
489,278,199056,6,0,P|396:248|214:212,2,270.000010299683,6|2|2,0:0|0:0|0:0,0:0:0:0:
150,367,200740,1,2,0:0:0:0:
272,334,200951,6,0,B|267:269|223:227|223:227|235:271|222:319,1,180.000006866455,2|0,0:0|0:0,0:0:0:0:
141,227,201583,2,0,P|149:165|269:178,1,180.000006866455,2|0,0:0|0:0,0:0:0:0:
381,231,202214,6,0,P|370:109|373:33,1,180.000006866455,2|0,0:0|0:0,0:0:0:0:
183,3,202846,6,0,B|116:28|75:73|75:73|125:30|225:20,1,270.000010299683,2|2,0:0|0:0,0:0:0:0:
450,3,203898,1,2,0:0:0:0:
371,51,204109,6,0,P|377:141|378:230,1,180.000006866455,2|0,0:0|0:0,0:0:0:0:
229,375,204740,6,0,L|238:329,1,33.7500012874604,2|0,0:0|0:0,0:0:0:0:
261,213,205372,6,0,L|270:167,1,33.7500012874604,2|0,0:0|0:0,0:0:0:0:
294,52,206004,6,0,L|303:6,1,33.7500012874604,2|0,0:0|0:0,0:0:0:0:
79,197,206425,5,2,0:0:0:0:
12,135,206635,2,0,P|66:106|85:64,1,90.0000034332277,2|0,0:0|0:0,0:0:0:0:
161,3,207056,2,0,P|153:64|179:200,1,180.000006866455,2|0,0:0|0:0,0:0:0:0:
180,189,207583,1,2,0:0:0:0:
321,357,207898,6,0,B|363:302|438:316|438:316|392:320|372:341,1,180.000006866455,2|2,0:0|0:0,0:0:0:0:
261,274,208530,6,0,B|148:272|206:349|94:345,1,180.000006866455,2|2,0:0|0:0,0:0:0:0:
10,373,209162,2,0,P|32:298|22:191,1,180.000006866455,2|2,0:0|0:0,0:0:0:0:
65,110,209793,1,2,0:0:0:0:
456,269,210425,6,0,B|472:170|472:170|381:153,1,180.000006866455,2|2,0:0|0:0,0:0:0:0:
296,79,211056,2,0,P|371:116|408:42,1,180.000006866455,2|0,0:0|0:0,0:0:0:0:
341,13,211688,1,2,0:0:0:0:
238,266,212109,1,2,0:0:0:0:
183,327,212319,6,0,B|133:334|87:297|84:242|105:206|105:206|106:254|131:284|168:294,1,270.000010299683,2|2,0:0|0:0,0:0:0:0:
491,368,213583,2,0,P|503:248|500:147,1,180.000006866455,2|2,0:0|0:0,0:0:0:0:
423,3,214214,6,0,B|317:35|419:87|294:126,1,180.000006866455,2|0,0:0|0:0,0:0:0:0:
229,24,214846,2,0,P|263:91|280:194,1,180.000006866455,2|0,0:0|0:0,0:0:0:0:
222,275,215477,1,2,0:0:0:0:
19,373,215898,6,0,B|55:345|139:321|139:321|75:344|1:326,1,270.000010299683,2|0,0:0|0:0,0:0:0:0:
35,262,216740,1,2,0:0:0:0:
404,366,217372,5,2,0:0:0:0:
230,277,217793,1,2,0:0:0:0:
296,223,218004,6,0,B|319:177|308:106|308:106|335:166|367:181,1,180.000006866455,2|0,0:0|0:0,0:0:0:0:
477,205,218635,2,0,B|422:190|415:145|415:145|415:144|423:191|365:237,1,180.000006866455,2|0,0:0|0:0,0:0:0:0:
279,331,219267,2,0,B|325:271|448:314|410:378|349:385|297:353,1,180.000006866455,2|2,0:0|0:0,0:0:0:0:
218,271,219898,6,0,B|196:280|163:272|77:250|68:178|124:126|174:137|231:175|203:214|168:267|141:311|184:368,1,384,2|0,0:0|0:0,0:0:0:0:
294,229,221793,6,0,P|345:189|487:95,1,225,2|0,0:0|0:0,0:0:0:0:
512,162,223688,2,0,P|422:229|326:289,1,225,2|0,0:0|0:0,0:0:0:0:
185,289,225583,6,0,P|89:229|0:162,1,225,2|0,0:0|0:0,0:0:0:0:
32,101,227478,2,0,P|133:164|228:235,1,226.799993078613,2|0,0:0|0:0,0:0:0:0:
58,109,231267,5,2,0:0:0:0:
303,59,231905,1,2,0:0:0:0:
193,146,232531,5,2,0:0:0:0:
168,27,233167,1,2,0:0:0:0:
58,109,233816,5,2,0:0:0:0:
303,59,234454,1,2,0:0:0:0:
193,146,235083,5,2,0:0:0:0:
168,27,235685,1,2,0:0:0:0:
58,109,236347,5,2,0:0:0:0:
303,59,236981,1,2,0:0:0:0:
193,146,237590,5,2,0:0:0:0:
168,27,238242,1,2,0:0:0:0:
58,109,238877,5,2,0:0:0:0:
303,59,239483,1,2,0:0:0:0:
193,146,240103,5,2,0:0:0:0:
168,27,240728,1,2,0:0:0:0:
193,146,241044,1,0,0:0:0:0:
218,265,241356,6,0,L|346:246,1,107.999996704102,2|0,0:0|0:0,0:0:0:0:
336,324,241984,2,0,L|229:339,1,107.999996704102,2|0,0:0|0:0,0:0:0:0:
50,170,242620,5,2,0:0:0:0:
33,270,242936,1,0,0:0:0:0:
132,290,243252,2,0,L|150:173,1,107.999996704102,2|0,0:0|0:0,0:0:0:0:
243,125,243927,5,2,0:0:0:0:
66,228,244243,1,0,0:0:0:0:
192,330,244559,1,2,0:0:0:0:
118,367,244875,1,0,0:0:0:0:
132,290,245184,6,0,P|139:232|150:173,1,107.999996704102,2|0,0:0|0:0,0:0:0:0:
57,273,245780,2,0,P|66:220|74:167,1,107.999996704102,2|0,0:0|0:0,0:0:0:0:
122,111,246414,1,2,0:0:0:0:
345,264,246730,5,0,0:0:0:0:
286,324,247046,1,2,0:0:0:0:
365,347,247362,1,0,0:0:0:0:
244,211,247678,6,0,L|110:200,1,107.999996704102,2|0,0:0|0:0,0:0:0:0:
144,126,248310,2,0,L|259:137,1,107.999996704102,2|0,0:0|0:0,0:0:0:0:
327,193,248942,5,2,0:0:0:0:
198,58,249260,1,0,0:0:0:0:
78,165,249578,1,2,0:0:0:0:
144,126,249897,2,0,L|259:137,1,107.999996704102,0|2,0:0|0:0,0:0:0:0:
78,165,250529,1,0,0:0:0:0:
26,9,250844,6,0,B|23:68|15:123,1,107.999996704102,2|0,0:0|0:0,0:0:0:0:
78,165,251316,1,0,0:0:0:0:
178,240,251473,5,2,0:0:0:0:
283,213,251789,1,0,0:0:0:0:
311,326,252105,1,2,0:0:0:0:
207,353,252421,1,0,0:0:0:0:
351,151,252737,5,2,0:0:0:0:
498,195,253053,1,0,0:0:0:0:
445,114,253369,5,2,0:0:0:0:
408,237,253685,1,0,0:0:0:0:
314,35,254001,5,2,0:0:0:0:
135,38,254318,1,0,0:0:0:0:
248,0,254634,5,2,0:0:0:0:
115,126,254950,1,0,0:0:0:0:
332,264,255266,6,0,B|357:274|385:281|416:242|411:205|357:180|305:180|272:218,1,215.999993408203,2|2,0:0|0:0,0:0:0:0:
2,368,256530,5,2,0:0:0:0:
17,266,256847,1,0,0:0:0:0:
126,282,257163,1,2,0:0:0:0:
111,384,257479,1,0,0:0:0:0:
97,189,257795,5,2,0:0:0:0:
255,169,258111,1,0,0:0:0:0:
198,318,258427,1,2,0:0:0:0:
27,51,260470,6,0,P|85:39|160:31,1,107.999996704102,6|8,3:2|0:0,0:0:0:0:
138,69,260735,1,0,0:0:0:0:
143,103,260823,2,0,P|90:114|36:121,1,107.999996704102,2|8,3:2|0:0,0:0:0:0:
258,15,261176,5,2,3:2:0:0:
313,71,261353,2,0,L|400:36,2,53.9999983520508,8|0|2,0:0|0:0|3:2,0:0:0:0:
241,97,261706,1,8,0:0:0:0:
482,195,261882,5,2,3:2:0:0:
353,247,262059,1,8,0:0:0:0:
391,157,262235,5,2,3:2:0:0:
443,286,262412,1,8,0:0:0:0:
262,360,262588,6,0,L|135:374,1,107.999996704102,2|8,3:2|0:0,0:0:0:0:
150,333,262853,1,0,0:0:0:0:
145,295,262941,2,0,L|252:283,1,107.999996704102,2|8,3:2|0:0,0:0:0:0:
485,380,263294,5,2,3:2:0:0:
421,332,263470,1,8,0:0:0:0:
425,310,263559,1,0,0:0:0:0:
429,288,263647,1,2,3:2:0:0:
501,247,263823,1,8,0:0:0:0:
284,127,264000,6,0,L|403:118,1,107.999996704102,2|8,3:2|0:0,0:0:0:0:
400,199,264353,2,0,L|292:207,1,107.999996704102,2|8,3:2|0:0,0:0:0:0:
74,35,264706,5,2,3:2:0:0:
140,75,264882,2,0,L|201:32,2,53.9999983520508,8|0|2,0:0|0:0|3:2,0:0:0:0:
72,113,265235,1,8,0:0:0:0:
241,297,265411,5,2,3:2:0:0:
143,277,265588,1,8,0:0:0:0:
160,182,265764,1,2,3:2:0:0:
258,202,265941,1,8,0:0:0:0:
417,363,266117,5,2,3:2:0:0:
442,239,266294,1,8,0:0:0:0:
364,285,266470,5,2,3:2:0:0:
495,311,266647,1,8,0:0:0:0:
356,143,266823,5,2,3:2:0:0:
243,123,267000,1,8,0:0:0:0:
376,32,267176,5,2,3:2:0:0:
263,12,267353,1,8,0:0:0:0:
125,178,267529,5,2,3:2:0:0:
150,293,267706,1,8,0:0:0:0:
49,253,267882,5,2,3:2:0:0:
224,217,268059,1,8,0:0:0:0:
40,255,268235,5,2,3:2:0:0:
0,191,268411,2,0,L|7:126,2,53.9999983520508,8|0|2,0:0|0:0|3:2,0:0:0:0:
40,255,268764,1,8,0:0:0:0:
256,378,268941,6,0,P|279:340|282:298,3,53.9999983520508,2|0|8|0,3:2|0:0|0:0|0:0,0:0:0:0:
282,228,269294,5,2,3:2:0:0:
243,210,269382,1,0,0:0:0:0:
203,224,269470,1,8,0:0:0:0:
186,263,269558,1,0,0:0:0:0:
204,304,269647,6,0,L|140:317,1,53.9999983520508,2|0,3:2|0:0,0:0:0:0:
64,241,269823,2,0,L|116:230,1,53.9999983520508,8|0,0:0|0:0,0:0:0:0:
182,158,270000,5,2,3:2:0:0:
185,122,270088,1,0,0:0:0:0:
188,86,270176,1,8,0:0:0:0:
191,50,270264,1,0,0:0:0:0:
232,30,270353,6,0,L|308:45,3,53.9999983520508,2|0|8|0,3:2|0:0|0:0|0:0,0:0:0:0:
425,73,270706,1,2,3:2:0:0:
385,69,270794,1,0,0:0:0:0:
349,86,270882,1,8,0:0:0:0:
328,120,270970,1,0,0:0:0:0:
328,160,271059,6,0,L|410:172,1,53.9999983520508,2|0,3:2|0:0,0:0:0:0:
491,218,271235,2,0,L|409:229,1,53.9999983520508,8|0,0:0|0:0,0:0:0:0:
314,337,271411,6,0,L|305:266,1,53.9999983520508,2|0,3:2|0:0,0:0:0:0:
376,274,271588,2,0,L|382:327,1,53.9999983520508,8|0,0:0|0:0,0:0:0:0:
239,214,271764,6,0,L|176:208,3,53.9999983520508,2|0|8|0,3:2|0:0|0:0|0:0,0:0:0:0:
109,289,272117,2,0,L|117:381,1,53.9999983520508,2|0,3:2|0:0,0:0:0:0:
45,352,272294,2,0,L|40:298,1,53.9999983520508,8|0,0:0|0:0,0:0:0:0:
35,175,272470,5,2,3:2:0:0:
52,139,272558,1,0,0:0:0:0:
85,115,272646,1,8,0:0:0:0:
124,108,272734,1,0,0:0:0:0:
165,122,272823,1,2,3:2:0:0:
209,151,272911,1,0,0:0:0:0:
262,150,272999,1,8,0:0:0:0:
306,120,273087,1,0,0:0:0:0:
325,70,273176,6,0,P|321:40|318:-27,2,67.5000025749208,2|2|2,0:0|0:0|0:0,0:0:0:0:
484,128,273706,2,0,B|423:124|402:171|402:171|374:230|306:219,1,202.500007724762,2|4,0:0|0:0,0:0:0:0:
