osu file format v14

[General]
AudioFilename: audio.mp3
AudioLeadIn: 0
PreviewTime: 516
Countdown: 0
SampleSet: Soft
StackLeniency: 0.7
Mode: 2
LetterboxInBreaks: 0
WidescreenStoryboard: 0

[Editor]
Bookmarks: 11794,23088
DistanceSpacing: 1.2
BeatDivisor: 3
GridSize: 4
TimelineZoom: 1.9

[Metadata]
Title:Unpaid Intern
TitleUnicode:Unpaid Intern
Artist:Bo Burnham
ArtistUnicode:Bo Burnham
Creator:Stardust Prism
Version:Rain
Source:Bo Burnham: Inside
Tags:verti mniam boburnham swing comedy musical netflix english novelty pop jazz special scatting Neg TheNeg -doodle dooe
BeatmapID:3961304
BeatmapSetID:1919493

[Difficulty]
HPDrainRate:6
CircleSize:4.2
OverallDifficulty:8.7
ApproachRate:8.7
SliderMultiplier:1.8
SliderTickRate:1

[Events]
//Background and Video events
0,0,"bg.png",0,0
//Break Periods
//Storyboard Layer 0 (Background)
//Storyboard Layer 1 (Fail)
//Storyboard Layer 2 (Pass)
//Storyboard Layer 3 (Foreground)
//Storyboard Layer 4 (Overlay)
//Storyboard Sound Samples

[TimingPoints]
516,352.941176470588,4,2,1,60,1,0
31574,-100,4,2,1,75,0,0

[Colours]
Combo1 : 255,0,0
Combo2 : 255,255,0
Combo3 : 128,255,0
Combo4 : 0,128,255

[HitObjects]
269,307,45,5,0,0:0:0:0:
207,294,163,2,0,P|187:242|249:214,1,120,2|2,1:0|1:0,0:0:0:0:
463,298,516,6,0,L|476:160,1,120,6|0,0:3|0:0,0:0:0:0:
336,225,868,1,8,0:0:0:0:
211,241,1104,1,0,0:0:0:0:
147,232,1221,2,0,P|115:169|154:135,1,120,2|2,1:2|0:2,0:0:0:0:
262,134,1574,1,8,0:0:0:0:
381,124,1810,1,0,0:0:0:0:
185,224,1927,6,0,L|12:222,1,120,2|0,1:2|0:0,0:0:0:0:
185,203,2280,1,8,0:0:0:0:
305,183,2515,1,4,3:3:0:0:
365,181,2633,2,0,P|397:122|320:99,1,120,0|0,0:0|0:0,0:0:0:0:
243,152,2986,2,0,P|211:106|252:57,1,120,8|8,0:0|0:0,0:0:0:0:
447,256,3339,6,0,P|472:191|406:149,1,120,4|0,3:3|0:0,0:0:0:0:
324,199,3692,2,0,L|319:71,1,120,8|0,0:0|0:0,0:0:0:0:
380,67,4045,1,2,1:2:0:0:
500,59,4280,1,0,0:0:0:0:
380,152,4398,1,8,0:0:0:0:
260,157,4633,1,0,0:0:0:0:
64,232,4751,6,0,P|29:187|99:167,1,120,2|2,1:2|0:2,0:0:0:0:
189,162,5104,2,0,L|215:32,1,120,8|4,0:0|3:3,0:0:0:0:
152,24,5457,1,8,3:3:0:0:
31,120,5692,1,8,0:3:0:0:
152,251,5810,2,0,L|156:155,1,60,4|0,0:3|0:0,0:0:0:0:
94,178,6045,1,4,0:3:0:0:
291,189,6163,6,0,L|422:189,1,120,4|0,3:3|0:0,0:0:0:0:
291,148,6515,1,8,0:0:0:0:
170,171,6751,1,4,0:3:0:0:
109,165,6868,2,0,P|99:100|173:84,1,120,4|0,3:3|0:0,0:0:0:0:
258,263,7221,2,0,L|126:255,1,120,8|4,0:0|0:3,0:0:0:0:
348,219,7574,6,0,L|434:125,1,120,4|0,3:3|0:0,0:0:0:0:
221,214,7927,2,0,L|188:74,1,120,8|0,0:3|0:3,0:0:0:0:
399,222,8280,2,0,L|407:75,1,120,4|0,3:3|0:0,0:0:0:0:
285,99,8633,1,8,0:0:0:0:
165,90,8868,1,8,0:3:0:0:
357,278,8986,6,0,L|381:69,1,180,0|0,1:0|0:0,0:0:0:0:
196,209,9692,2,0,L|424:196,1,180,0|0,1:0|0:0,0:0:0:0:
137,256,10398,6,0,P|68:224|124:131,1,180,0|0,1:0|0:0,0:0:0:0:
228,177,11015,1,0,1:0:0:0:
398,200,11339,1,0,0:0:0:0:
458,195,11457,2,0,P|469:121|417:84,1,120,2|2,1:0|1:0,0:0:0:0:
239,159,11810,5,6,0:3:0:0:
239,159,12163,2,0,L|364:159,1,120,8|0,0:0|0:0,0:0:0:0:
298,122,12515,2,0,P|265:74|322:36,1,120,2|0,1:2|0:0,0:0:0:0:
422,39,12868,1,8,0:0:0:0:
302,180,13104,1,0,0:0:0:0:
113,252,13221,6,0,P|84:189|157:161,1,120,2|0,1:2|0:0,0:0:0:0:
234,111,13574,1,8,0:0:0:0:
355,99,13810,1,4,3:3:0:0:
415,83,13927,2,0,L|274:78,1,120,8|0,3:3|0:0,0:0:0:0:
174,178,14280,2,0,L|302:158,1,120,8|8,0:0|0:3,0:0:0:0:
104,226,14633,6,0,L|100:105,1,120,4|0,3:3|0:0,0:0:0:0:
220,72,14986,1,8,0:0:0:0:
340,150,15221,1,0,0:0:0:0:
279,147,15339,2,0,P|268:81|324:60,1,120,2|0,1:2|0:0,0:0:0:0:
427,50,15692,1,8,0:0:0:0:
306,58,15927,1,0,0:0:0:0:
118,253,16045,6,0,L|111:124,1,120,2|0,1:2|0:0,0:0:0:0:
231,103,16398,1,8,0:0:0:0:
111,158,16633,1,4,3:3:0:0:
50,154,16751,2,0,P|32:95|106:60,1,120,8|8,3:3|0:3,0:0:0:0:
189,135,17104,2,0,L|322:139,1,120,8|4,0:0|0:3,0:0:0:0:
119,225,17457,6,0,L|111:97,1,120,4|0,3:3|0:0,0:0:0:0:
232,132,17810,2,0,L|247:2,1,120,8|4,0:0|0:3,0:0:0:0:
156,202,18163,2,0,P|157:138|213:112,1,120,4|0,3:3|0:0,0:0:0:0:
328,155,18515,2,0,P|346:83|290:53,1,120,8|4,0:0|0:3,0:0:0:0:
142,255,18868,6,0,L|9:237,1,120,4|0,3:3|0:0,0:0:0:0:
144,223,19221,2,0,L|271:215,1,120,8|8,0:0|0:3,0:0:0:0:
176,197,19574,2,0,P|148:130|204:95,1,120,4|4,3:3|0:3,0:0:0:0:
302,51,19927,2,0,L|172:41,1,120,8|8,0:3|0:3,0:0:0:0:
387,193,20280,5,0,1:0:0:0:
387,193,20633,1,0,0:0:0:0:
220,144,20986,1,0,1:0:0:0:
387,193,21339,1,0,0:0:0:0:
135,214,21692,5,0,1:0:0:0:
256,192,21927,12,0,22751,0:0:0:0:
134,209,23104,6,0,P|126:154|196:109,1,120,10|0,0:3|0:0,0:0:0:0:
290,100,23457,2,0,L|417:101,1,120,8|0,0:0|0:0,0:0:0:0:
350,231,23810,1,2,1:2:0:0:
144,276,24163,1,8,0:0:0:0:
142,167,24398,1,0,0:0:0:0:
323,113,24515,5,2,1:2:0:0:
449,84,24751,1,4,0:3:0:0:
329,196,24868,2,0,P|306:129|367:91,1,120,8|4,0:0|3:3,0:0:0:0:
398,81,25221,1,8,3:3:0:0:
398,81,25457,1,4,0:3:0:0:
279,214,25574,2,0,L|412:207,1,120,8|8,0:0|0:3,0:0:0:0:
207,223,25927,6,0,L|196:104,1,120,4|0,3:3|0:0,0:0:0:0:
317,239,26280,2,0,L|332:109,1,120,8|0,0:0|0:0,0:0:0:0:
210,279,26633,2,0,P|179:214|213:180,1,120,4|4,3:3|0:3,0:0:0:0:
325,143,26986,2,0,L|483:142,1,120,8|0,0:0|0:0,0:0:0:0:
257,248,27339,5,8,3:3:0:0:
376,198,27574,1,4,0:3:0:0:
437,170,27692,2,0,P|420:95|341:80,1,120,8|8,0:0|3:3,0:0:0:0:
206,178,28280,1,8,0:3:0:0:
327,263,28398,2,0,P|361:211|300:170,1,120,4|4,0:3|0:3,0:0:0:0:
133,161,28751,6,0,L|332:131,2,180,6|8|4,3:3|0:0|3:3,0:0:0:0:
144,213,29692,1,0,0:0:0:0:
261,289,29810,2,0,L|280:156,1,120,8|4,0:0|0:3,0:0:0:0:
74,192,30163,6,0,L|226:161,1,120,4|0,3:3|0:0,0:0:0:0:
311,221,30515,1,8,0:0:0:0:
191,270,30751,1,8,3:3:0:0:
70,238,30868,2,0,P|58:171|135:149,1,120,4|4,3:3|0:3,0:0:0:0:
216,306,31221,2,0,L|347:299,1,120,8|0,0:3|0:0,0:0:0:0:
136,281,31574,6,0,P|105:215|159:193,1,120,4|0,3:3|1:0,0:0:0:0:
321,238,31927,2,0,L|369:117,1,120,8|0,0:0|0:0,0:0:0:0:
184,121,32280,1,4,0:0:0:0:
364,200,32633,1,8,0:0:0:0:
160,172,32868,1,0,0:0:0:0:
