osu file format v14

[General]
AudioFilename: audio.mp3
AudioLeadIn: 0
PreviewTime: 516
Countdown: 0
SampleSet: Soft
StackLeniency: 0.7
Mode: 2
LetterboxInBreaks: 0
WidescreenStoryboard: 1

[Editor]
Bookmarks: 11794,23088
DistanceSpacing: 1.2
BeatDivisor: 3
GridSize: 16
TimelineZoom: 1.8

[Metadata]
Title:Unpaid Intern
TitleUnicode:Unpaid Intern
Artist:Bo Burnham
ArtistUnicode:Bo Burnham
Creator:Stardust Prism
Version:Cup
Source:Bo Burnham: Inside
Tags:verti mniam boburnham swing comedy musical netflix english novelty pop jazz special scatting Neg TheNeg -doodle dooe
BeatmapID:3961546
BeatmapSetID:1919493

[Difficulty]
HPDrainRate:3
CircleSize:3
OverallDifficulty:5.7
ApproachRate:5.7
SliderMultiplier:1.5
SliderTickRate:0.5

[Events]
//Background and Video events
0,0,"bg.png",0,0
//Break Periods
//Storyboard Layer 0 (Background)
//Storyboard Layer 1 (Fail)
//Storyboard Layer 2 (Pass)
//Storyboard Layer 3 (Foreground)
//Storyboard Layer 4 (Overlay)
//Storyboard Sound Samples

[TimingPoints]
516,352.941176470588,4,2,1,60,1,0
31574,-100,4,2,1,75,0,0

[Colours]
Combo1 : 255,0,0
Combo2 : 255,255,0
Combo3 : 128,255,0
Combo4 : 0,128,255

[HitObjects]
466,287,516,6,0,P|481:220|446:176,1,100,6|0,0:3|0:0,0:0:0:0:
418,175,868,1,8,0:0:0:0:
268,252,1221,2,0,L|113:239,1,150,2|8,1:2|0:0,0:0:0:0:
268,252,1927,6,0,L|406:255,1,100,2|0,1:2|0:0,0:0:0:0:
318,226,2280,1,8,0:0:0:0:
210,317,2515,2,0,P|173:244|266:174,1,200,4|8,3:3|0:0,0:0:0:0:
413,117,3339,6,0,L|284:112,1,100,4|0,3:3|0:0,0:0:0:0:
260,113,3692,1,8,0:0:0:0:
110,253,4045,2,0,L|267:234,1,150,2|8,1:2|0:0,0:0:0:0:
410,274,4751,6,0,L|407:153,1,100,2|2,1:2|0:2,0:0:0:0:
356,163,5104,1,8,0:0:0:0:
254,231,5339,2,0,P|319:175|453:171,1,200,4|4,3:3|0:3,0:0:0:0:
277,207,6163,6,0,L|153:202,1,100,4|0,3:3|0:0,0:0:0:0:
228,167,6515,1,8,0:0:0:0:
378,170,6868,2,0,L|384:11,1,150,4|8,3:3|0:0,0:0:0:0:
218,217,7574,6,0,L|50:202,2,150,4|8|4,3:3|0:3|3:3,0:0:0:0:
369,246,8633,1,8,0:0:0:0:
268,224,8868,1,8,0:3:0:0:
215,195,8986,5,0,0:0:0:0:
431,173,9692,1,0,0:0:0:0:
256,192,10398,12,2,11457,1:0:0:0:
393,199,11810,5,6,0:3:0:0:
393,199,12163,2,0,L|263:185,1,100,8|0,0:0|0:0,0:0:0:0:
243,177,12515,1,2,1:2:0:0:
393,136,12868,1,8,0:0:0:0:
242,159,13221,6,0,L|238:36,1,100,2|0,1:2|0:0,0:0:0:0:
292,39,13574,1,8,0:0:0:0:
445,265,13927,2,0,L|329:257,1,100,8|0,3:3|0:0,0:0:0:0:
289,253,14280,2,0,L|178:253,1,100,8|8,0:0|0:3,0:0:0:0:
244,209,14633,5,4,3:3:0:0:
396,229,14986,2,0,L|423:126,1,100,8|0,0:0|0:0,0:0:0:0:
370,102,15339,1,2,1:2:0:0:
219,102,15692,1,8,0:0:0:0:
69,203,16045,6,0,P|55:146|94:117,1,100,2|0,1:2|0:0,0:0:0:0:
131,113,16398,1,8,0:0:0:0:
232,232,16633,2,0,P|275:189|210:66,1,200,4|8,3:3|0:0,0:0:0:0:
71,246,17457,6,0,L|237:230,1,150,4|8,3:3|0:0,0:0:0:0:
372,251,18163,2,0,L|383:84,1,150,4|8,3:3|0:0,0:0:0:0:
230,108,18868,6,0,L|68:94,1,150,4|8,3:3|0:0,0:0:0:0:
231,216,19574,2,0,L|234:59,1,150,4|8,3:3|0:3,0:0:0:0:
74,172,20280,5,0,1:0:0:0:
256,192,20633,12,0,22751,0:0:0:0:
193,194,23104,6,0,L|36:162,2,150,10|8|2,0:3|0:0|1:2,0:0:0:0:
351,206,24163,1,8,0:0:0:0:
351,206,24398,1,0,0:0:0:0:
291,175,24515,6,0,P|258:127|317:56,1,150,2|8,1:2|0:0,0:0:0:0:
472,179,25221,2,0,L|330:160,1,100,8|4,3:3|0:3,0:0:0:0:
316,163,25574,1,8,0:0:0:0:
159,226,25927,5,4,3:3:0:0:
54,166,26163,1,0,0:0:0:0:
48,110,26280,1,8,0:0:0:0:
148,82,26515,1,0,0:0:0:0:
200,74,26633,2,0,L|357:74,1,150,4|8,3:3|0:0,0:0:0:0:
181,229,27339,6,0,P|154:188|192:148,1,100,8|4,3:3|0:3,0:0:0:0:
230,149,27692,1,8,0:0:0:0:
335,154,27927,2,0,P|378:100|295:13,1,200,8|4,3:3|0:3,0:0:0:0:
143,267,28751,6,0,L|134:100,1,150,6|8,3:3|0:0,0:0:0:0:
291,161,29457,2,0,L|310:8,1,150,4|8,3:3|0:0,0:0:0:0:
152,225,30163,6,0,L|331:220,1,150,4|8,3:3|3:3,0:0:0:0:
201,192,30751,1,0,0:0:0:0:
151,161,30868,1,4,3:3:0:0:
301,113,31221,1,8,0:3:0:0:
451,134,31574,5,4,3:3:0:0:
351,183,31810,2,0,L|286:184,1,50,0|8,1:0|0:0,0:0:0:0:
451,251,32280,1,4,3:3:0:0:
301,204,32633,1,8,0:0:0:0:
401,161,32868,1,0,0:0:0:0:
