osu file format v14

[General]
AudioFilename: audio.mp3
AudioLeadIn: 0
PreviewTime: 500
Countdown: 0
SampleSet: Soft
StackLeniency: 0.7
Mode: 0
LetterboxInBreaks: 0
WidescreenStoryboard: 1

[Editor]
DistanceSpacing: 1.2
BeatDivisor: 3
GridSize: 32
TimelineZoom: 1.5

[Metadata]
Title:Unpaid Intern
TitleUnicode:Unpaid Intern
Artist:Bo Burnham
ArtistUnicode:Bo Burnham
Creator:EnuHQ
Version:Normal
Source:Bo Burnham: Inside
Tags:boburnham swing comedy musical netflix english novelty pop Neg TheNeg -doodle dooe jazz special scatting
BeatmapID:3648329
BeatmapSetID:1760177

[Difficulty]
HPDrainRate:3
CircleSize:3.2
OverallDifficulty:4
ApproachRate:5.2
SliderMultiplier:1
SliderTickRate:1

[Events]
//Background and Video events
0,0,"enuSaidOldBGwasBad-Sadge.jpg",0,0
//Break Periods
//Storyboard Layer 0 (Background)
//Storyboard Layer 1 (Fail)
//Storyboard Layer 2 (Pass)
//Storyboard Layer 3 (Foreground)
//Storyboard Layer 4 (Overlay)
//Storyboard Sound Samples

[TimingPoints]
29,352.941176470588,4,2,1,60,1,0
500,352.941176470588,4,2,1,60,1,0
500,-100,4,2,1,60,0,0
8970,-111.111111111111,4,2,1,60,0,0
11794,-100,4,2,1,60,0,0
20264,-111.111111111111,4,2,1,60,0,0
23088,-100,4,2,1,60,0,0
31558,-90.9090909090909,4,2,1,75,0,0

[Colours]
Combo1 : 128,0,0
Combo2 : 255,128,128
Combo3 : 192,192,192
Combo4 : 255,197,132
Combo5 : 78,255,62

[HitObjects]
0,276,500,6,0,P|48:264|97:253,1,100,6|8,0:3|0:0,0:0:0:0:
187,332,1205,1,0,1:2:0:0:
268,244,1558,2,0,P|260:211|252:179,1,66.6666666666667,8|0,0:0|0:0,0:0:0:0:
224,151,1911,2,0,P|235:102|246:53,1,100,0|8,1:2|0:0,0:0:0:0:
306,0,2499,1,4,3:3:0:0:
306,0,2617,2,0,P|354:11|403:22,1,100,8|8,3:3|0:0,0:0:0:0:
494,101,3323,5,4,3:3:0:0:
419,195,3676,1,8,0:0:0:0:
497,285,4029,1,4,3:3:0:0:
410,368,4382,2,0,P|377:360|345:352,1,66.6666666666667,8|0,0:0|0:0,0:0:0:0:
312,328,4735,2,0,P|263:339|214:350,1,100,8|8,3:3|0:0,0:0:0:0:
152,307,5323,1,4,3:3:0:0:
152,307,5441,2,0,P|168:260|155:213,1,100,8|4,3:3|0:3,0:0:0:0:
52,149,6147,5,4,3:3:0:0:
117,49,6499,1,8,0:0:0:0:
214,118,6852,2,0,P|255:104|311:95,1,100,4|8,3:3|0:0,0:0:0:0:
396,10,7558,1,4,3:3:0:0:
483,92,7911,1,8,0:0:0:0:
414,190,8264,1,4,3:3:0:0:
484,287,8617,6,0,P|436:302|387:309,1,100,8|0,0:0|1:0,0:0:0:0:
442,0,11794,6,0,P|425:48|416:96,1,100,6|8,0:3|0:0,0:0:0:0:
323,172,12499,1,0,1:2:0:0:
240,80,12852,2,0,P|207:88|175:96,1,66.6666666666667,8|0,0:0|0:0,0:0:0:0:
147,124,13205,2,0,P|96:108|49:102,1,100,0|8,1:2|0:0,0:0:0:0:
13,175,13794,1,4,3:3:0:0:
13,175,13912,2,0,P|29:222|16:269,1,100,8|8,3:3|0:0,0:0:0:0:
85,367,14617,5,4,3:3:0:0:
182,297,14970,1,8,0:0:0:0:
278,368,15323,2,0,P|284:318|299:270,1,100,0|8,1:2|0:0,0:0:0:0:
404,214,16029,1,0,1:2:0:0:
363,101,16382,1,8,0:0:0:0:
290,133,16617,1,4,3:3:0:0:
290,133,16735,2,0,P|239:117|192:111,1,100,8|4,3:3|0:3,0:0:0:0:
97,37,17441,5,4,3:3:0:0:
16,125,17794,1,8,0:0:0:0:
99,211,18147,2,0,P|148:217|196:232,1,100,4|8,3:3|0:0,0:0:0:0:
260,334,18852,1,4,3:3:0:0:
356,254,19205,1,8,0:0:0:0:
302,201,19441,1,8,0:3:0:0:
302,201,19559,2,0,P|318:150|324:103,1,100,4|8,3:3|0:3,0:0:0:0:
257,18,20264,5,0,1:0:0:0:
0,384,23088,6,0,P|47:367|96:357,1,100,10|8,0:3|0:0,0:0:0:0:
185,276,23794,2,0,P|232:293|281:303,1,100,0|8,1:2|0:0,0:0:0:0:
352,263,24382,1,0,0:0:0:0:
352,263,24500,2,0,P|336:216|349:169,1,100,0|8,1:2|0:0,0:0:0:0:
427,78,25205,1,8,3:3:0:0:
323,16,25558,2,0,P|290:24|258:32,1,66.6666666666667,8|8,0:0|0:3,0:0:0:0:
230,60,25911,6,0,P|181:49|132:38,1,100,4|8,3:3|0:0,0:0:0:0:
35,109,26617,1,4,3:3:0:0:
109,203,26970,1,8,0:0:0:0:
29,292,27323,1,8,3:3:0:0:
89,352,27558,1,4,0:3:0:0:
89,352,27676,2,0,P|120:340|152:331,1,66.6666666666667,8|8,0:0|3:3,0:0:0:0:
268,221,28382,1,4,0:3:0:0:
360,297,28735,6,0,P|372:249|383:200,1,100,6|8,3:3|0:0,0:0:0:0:
401,124,29323,1,4,3:3:0:0:
401,124,29441,2,0,P|358:98|309:101,1,100,4|8,3:3|0:0,0:0:0:0:
228,190,30147,1,4,3:3:0:0:
138,110,30499,1,8,0:0:0:0:
88,174,30735,1,8,3:3:0:0:
88,174,30853,2,0,P|104:225|110:272,1,100,4|8,3:3|0:3,0:0:0:0:
200,367,31558,5,4,3:3:0:0:
296,276,31911,1,8,0:0:0:0:
363,341,32147,1,0,0:0:0:0:
363,341,32264,1,4,3:3:0:0:
449,240,32617,2,0,P|440:204|432:168,1,73.3333355712891,8|0,0:0|0:0,0:0:0:0:
